#TITLE:To Mince And Fuck Up;
#SUBTITLE:;
#ARTIST:Ahumado Granujo;
#TITLETRANSLIT:;
#SUBTITLETRANSLIT:;
#ARTISTTRANSLIT:;
#CREDIT:;
#BANNER:sasasn.banner.png.JPG;
#BACKGROUND:xsasasa.bg.png.JPG;
#LYRICSPATH:;
#CDTITLE:CDTITLE.jpg;
#MUSIC:ahumado_granujo_to_mince_and_fuck_up.mp3;
#OFFSET:0.000;
#SAMPLESTART:44.065;
#SAMPLELENGTH:12.000;
#SELECTABLE:YES;
#BPMS:0.000=68.400,8.750=136.980,25.000=34.240,27.000=136.980,63.750=205.480,87.250=273.980,112.000=136.979,129.750=205.480;
#STOPS:;
#BGCHANGES:;
// cache tags:
#FIRSTBEAT:0.000;
#LASTBEAT:154.250;
#SONGFILENAME:Songs/Definitive Keyboard Megapack/To mince and fuck up(Leone510)/ahumado_granujo_to_mince_and_fuck_up.sm;
#HASMUSIC:1;
#HASBANNER:1;
#MUSICLENGTH:61.944;
// end cache tags

//---------------dance-single - ----------------
#NOTES:
     dance-single:
     :
     Hard:
     13:
     1.000,1.000,1.000,1.000,1.000,395.000,181.000,124.000,0.000,55.000:

2000
0000
0000
0000
0000
0000
0000
0000
0000
0020
0000
0000
0032
0000
0000
0000
0000
0000
0003
0000
0000
0020
0000
0000
0130
0000
0000
3202
0000
0000
0000
0000
0000
0023
0000
0000
0300
0000
2000
0030
0000
0000
0000
0000
0000
3000
0000
0000
,
0022
0000
0000
0000
0000
0000
0000
0000
0000
0000
0000
0000
0233
0000
0000
0000
0000
0000
0000
0000
0000
0000
0000
0000
0020
0000
0000
0000
0000
0000
0000
0000
0000
0000
0000
0000
0030
0000
0000
0000
0000
0000
0000
0000
0000
0000
0000
0000
0320
0000
0000
0000
0000
0000
0000
0000
0000
0000
0000
0000
0002
0000
0000
0000
0000
0000
0000
0000
0000
0000
0000
0000
0030
0000
0000
0000
0000
0000
0000
0000
0000
0000
0000
0000
0000
0000
0000
0000
2000
0000
0000
0000
0000
0000
0000
0000
0003
0000
0000
0000
0000
0000
0000
0000
0020
0000
0000
0000
0000
0000
0000
0000
0000
0000
0000
0000
0000
0000
0000
0000
3030
0000
0000
0000
0000
0000
0000
0000
0000
0000
0000
0000
2002
0000
0000
0000
0000
0000
0000
0000
0000
0000
0000
0000
0000
0000
0000
0000
0000
0000
0003
0000
0000
0000
0000
0000
0002
0000
0000
0000
0000
0000
0000
0000
0000
0000
0000
0000
3200
0000
0000
0000
0000
0000
0000
0000
0000
0000
0000
0000
0003
0000
0000
0000
0000
0000
0000
0000
0000
0000
0000
0000
,
0020
2330
0000
3000
0001
0000
0010
2200
3300
0001
2020
0000
3030
0000
0010
0000
,
0200
0000
0302
0000
2003
0000
3100
0022
0033
1000
0202
0000
0303
0000
2000
0000
,
3002
0000
0023
0000
1030
0000
0100
0022
0033
0100
2002
0000
3003
0000
0020
0000
,
2030
0000
3002
0000
1003
0000
0010
2020
3030
0100
0022
0000
0033
0000
0200
0000
,
0302
0203
0020
0000
0000
0000
2331
3101
,
1010
0101
1001
1010
1002
1013
0101
1010
,
0101
0000
1010
0000
0210
1000
0321
1000
0131
1000
0021
0001
1130
0001
1010
0100
,
0021
1000
0131
1000
0201
1000
0311
0000
1010
0100
0002
0000
2003
0000
3110
0001
,
2100
0010
3102
0010
1103
0010
0101
1000
0021
0100
1031
0100
0011
1000
0102
0010
,
1103
0010
0002
0000
0203
0000
0300
0010
1100
0010
0100
0001
0110
1000
0001
1000
,
0011
0100
0010
0001
1010
0100
0010
0100
1001
0010
1000
0010
1100
0001
0010
1000
,
0101
0010
1000
0001
1100
0001
1010
1010
2020
3030
0001
1000
0101
0010
1000
0100
,
0011
1000
0100
0010
1100
0001
0010
0100
1010
0001
0100
0010
0101
0010
1000
0100
,
0110
0001
0010
0100
1010
0100
0001
0010
0101
0010
1010
1010
2020
3030
0000
1010
,
0000
0101
0000
1010
0000
0101
0000
1010
0000
0101
0000
1010
0000
0101
0000
1010
,
0000
0101
0000
1010
0000
0101
0000
1010
0000
0101
0000
1010
0000
0101
0000
1010
,
0000
0101
0000
1010
0000
0101
0000
1010
0000
0101
0000
1010
0000
0101
0000
1010
,
0000
0101
0000
1010
0000
0101
0000
1010
0000
0101
0000
1010
0000
0101
0000
1010
,
0000
0101
0000
1010
0000
0101
0000
1010
0000
0101
0000
1010
0000
0101
0000
1010
,
0000
0101
0000
1010
0000
0101
0000
1010
0000
0101
0000
1010
0000
0002
0000
2000
,
0000
0020
0003
3200
0000
0032
0000
2300
0000
0020
0003
3200
0030
0002
0000
2000
,
0300
0023
0000
0200
3030
0002
0300
0020
0003
0200
0000
0032
0000
0320
0000
0200
,
0000
2033
0300
0020
0000
0230
0000
3320
0000
0200
0000
0032
0000
0320
0000
0200
,
0033
2000
0300
0020
0000
0200
3000
0032
0300
0020
0000
0200
0003
2030
0000
0002
,
0000
3320
0000
2003
0000
3002
0030
2000
0000
0020
0003
3200
0000
0002
0030
2000
,
0000
0323
3000
2000
0000
0032
0000
3200
0003
0020
0000
2300
0000
0000
0030
0000
,
3011
0100
1000
0001
0110
1000
0100
0010
0101
1000
0010
0100
1010
0001
1000
0010
,
0101
1000
0100
0010
0101
1000
0010
0001
1100
0010
0001
1000
0110
0100
0011
0011
,
0022
0000
0033
1000
0011
0100
1000
0010
0101
0010
1000
0100
1010
0001
0010
0100
,
0011
1000
0100
0010
1100
0010
0001
0010
0110
0001
1000
0100
1010
0001
0010
0100
,
1001
0010
1001
1001
2002
3003
0000
0101
0000
1010
0000
0101
0000
1010
0000
0101
,
0000
1010
0000
0101
0000
1010
0000
0101
0000
1010
0000
0101
0000
1010
0000
0101
,
0000
1010
0000
0101
0000
1010
0000
0101
0000
1010
0000
0101
0000
1010
0000
0101
,
0000
1010
0000
0101
0000
1010
0000
0101
0000
1010
0000
0101
0000
1010
0000
0101
,
0000
1010
0000
0101
0000
1010
0000
0101
0000
1010
0000
0101
0000
1010
0000
0101
,
0000
1010
0000
0101
0000
1010
0000
0101
0000
1010
0000
0101
0000
0010
0100
1001
,
0100
1000
0010
0101
0010
1000
0010
0202
0000
0303
0000
0000
0000
0000
0000
0000
;
