#TITLE:Fly Like A G6;
#SUBTITLE:;
#ARTIST:DJ Basler;
#TITLETRANSLIT:;
#SUBTITLETRANSLIT:;
#ARTISTTRANSLIT:;
#CREDIT:Rynker;
#BANNER:Bn-Fly.png;
#BACKGROUND:Bg-Fly.png;
#LYRICSPATH:;
#CDTITLE:;
#MUSIC:Dj Basler - Fly Like A G6.ogg;
#OFFSET:-0.048;
#SAMPLESTART:15.355;
#SAMPLELENGTH:12.000;
#SELECTABLE:YES;
#BPMS:0.000=260.000;
#STOPS:;
#BGCHANGES:;
// cache tags:
#FIRSTBEAT:12.000;
#LASTBEAT:597.000;
#SONGFILENAME:Songs/SPEEEDCOOOORE/Fly Like A G6 - [Rynker]/Fly Like a G6.sm;
#HASMUSIC:1;
#HASBANNER:1;
#MUSICLENGTH:140.531;
// end cache tags

//---------------dance-single - Rynker----------------
#NOTES:
     dance-single:
     Rynker:
     Challenge:
     10:
     0.915,1.000,0.825,0.057,0.100,646.000,116.000,8.000,0.000,112.000:

0000
0000
0000
0000
,
0000
0000
0000
0000
,
0000
0000
0000
0000
,
1101
0001
1011
1000
,
0000
0000
0000
0000
,
1110
0001
0111
0100
,
1110
0001
1101
0000
,
1111
0001
0100
0010
1000
0001
0010
0100
,
0010
0001
1000
0001
0100
0010
1000
0001
,
1011
0000
1101
0000
,
0000
0000
0000
0000
,
1101
0001
1000
0000
0111
0100
0001
0100
,
0001
0000
0000
0000
,
1101
1000
0001
0000
1101
0000
0000
0000
,
0111
0000
1110
0000
,
1111
0000
1111
0000
,
0001
0000
1000
0100
,
0010
0100
1000
0001
,
0100
0010
1000
0001
,
0010
0100
1000
0001
,
0100
0010
0000
0010
1000
0100
0010
0000
,
0100
1000
0001
0010
,
0100
1000
0010
0100
,
0001
0010
0001
0100
,
0010
1000
0100
0010
,
0100
1000
0001
0100
,
0001
0010
0100
1000
,
0010
0100
0001
1000
,
0100
0010
0000
0010
0001
0100
0010
0000
,
1000
0000
0001
0000
0100
0000
0010
1000
,
0010
1000
0001
0010
0100
1000
0001
1000
,
1010
0000
1000
0001
0011
0000
1000
0100
,
1100
0000
0000
0000
1000
0010
1000
0000
0001
0000
0100
0000
0010
0000
1000
0000
,
0010
0100
0001
1000
0100
0010
0001
1000
,
0001
0100
0010
1000
0100
0010
0100
1000
,
0010
0100
0001
0010
0001
1000
0010
0100
,
0001
0100
0001
0000
1000
0000
0100
0000
0010
0000
0001
0000
1000
0000
0001
0000
,
0100
0001
0010
0100
1000
0010
0100
0001
,
1000
0100
0010
0001
1000
0001
0100
0010
,
1000
0001
1000
0000
0001
0000
0100
0000
0010
0000
1000
0000
0100
0000
0010
0000
,
0001
0010
0001
0000
1000
0100
1000
0000
0001
0000
0100
0000
0010
0000
1000
0000
,
0001
0010
0100
0010
0001
1000
0001
0100
,
0010
0000
1000
0000
0100
0000
0010
0000
0001
0000
0100
0001
0100
0000
0010
0000
,
1000
0010
1000
0000
0001
0100
0001
0000
1000
0000
0100
0000
0010
0000
0001
0000
,
1000
0001
1000
0000
0001
0100
0001
0000
0100
0000
0010
0000
1000
0000
0100
0000
,
0010
0001
1000
0001
0100
0001
0010
0100
,
1000
0001
0100
0010
1000
0100
0010
0001
,
1000
0001
1000
0000
0001
0000
0100
0000
0010
0000
1000
0000
0100
0000
0010
0000
,
0100
1000
0100
0000
0010
0001
0010
0000
0001
0000
0100
0000
0010
0000
1000
0000
,
0100
0010
0001
0100
0010
1000
0001
0010
,
0100
1000
0001
0100
0010
1000
0001
0010
,
0100
1000
0010
0100
0001
1000
0100
0010
,
0001
0010
0001
0000
0100
0000
0010
0000
1000
0000
0100
0000
0010
0000
0001
0000
,
0100
0001
1000
0100
0010
0100
1000
0001
,
0100
0010
1000
0001
0010
0100
0010
0001
,
1000
0010
1000
0000
0001
0000
0010
0000
0100
0000
0010
0000
0001
0000
1000
0000
,
0001
0100
0001
0000
1000
0010
1000
0000
0001
0000
0010
0000
0100
0000
1000
0000
,
0001
0100
0010
1000
0001
0010
0100
0010
,
0001
0000
1000
0000
0001
0000
0100
0000
0001
0000
1000
0100
1000
0000
0001
0000
,
0010
0001
0010
0000
0100
0010
0100
0000
1000
0000
0001
0000
0100
0000
0010
0000
,
1000
0010
1000
0000
0001
0010
0001
0000
0100
0000
0010
0000
1000
0000
0100
0000
,
0010
0001
0100
0001
0010
0100
1000
0010
,
0100
0010
1000
0100
0010
0001
1000
0010
,
0100
0001
0100
0000
0001
0000
1000
0000
0000
0000
0000
0000
0000
0000
0000
0000
,
0000
0000
0000
0000
0111
0000
0000
1110
,
0000
0111
0000
1101
,
0000
1101
0000
0000
1110
0000
0000
0111
,
0000
0111
0000
1101
,
1101
0000
0000
0000
1011
0000
0000
1101
,
0000
1011
0000
0111
,
0000
0111
0000
0000
1101
0000
0000
1011
,
0000
1011
0000
1110
,
1110
0000
0000
0000
1101
0000
0000
1011
,
0000
1101
0000
1110
,
0000
1110
0000
0000
1011
0000
0000
1101
,
0000
1101
0000
1110
,
1110
0000
0000
0000
1101
0000
0000
1011
,
0000
1101
0000
1110
,
0000
1110
0000
0000
1011
0000
0000
1101
,
0000
1101
0000
1011
,
1011
0000
0000
0000
1110
0000
0000
0111
,
0000
1110
0000
1011
,
0000
1011
0000
0000
0111
0000
0000
1110
,
0000
1110
0000
1011
,
1011
0000
0000
0000
1011
0000
0000
1101
,
0000
1011
0000
0111
,
0000
0111
0000
0000
1101
0000
0000
1011
,
0000
1011
0000
0111
,
0111
0000
0000
0000
1110
0000
0000
0111
,
0000
1110
0000
1011
,
0000
1011
0000
0000
0111
0000
0000
1110
,
0000
1110
0000
0111
,
0111
0000
0000
0000
1110
0000
0000
0111
,
0000
1110
0000
1011
,
0000
1011
0000
0000
0111
0000
0000
1110
,
0000
1110
0000
1011
,
1011
0000
0001
1000
,
0100
0010
0100
1000
,
0001
0100
0010
0100
,
0001
1000
0100
0010
,
0100
1000
0010
0100
,
0001
1000
0100
0010
,
0100
1000
0010
0100
,
0001
0000
0010
0000
0001
0000
0100
0001
,
1000
0000
0100
1000
0001
0000
1000
0000
,
0100
0010
0100
1000
,
0010
0100
0001
0010
,
0001
1000
0100
0010
,
0100
1000
0010
0100
,
0001
0010
0001
0100
,
0010
0000
1000
0000
0001
0010
0100
1000
,
0001
0100
0001
0000
0100
0000
0010
0000
1000
0000
0100
0000
0010
0000
0001
0000
,
1000
0010
1000
0000
0001
0100
0001
0000
0100
0000
0000
0000
0010
0000
0000
0000
,
1000
0000
0001
0000
0010
0000
0100
1000
,
0001
0000
0010
0001
1000
0000
0001
0100
,
0010
0000
0000
0000
1000
0010
1000
0000
0100
0000
0000
0000
1000
0000
0000
0000
,
0001
0100
0010
1000
,
0100
0010
0001
1000
,
0001
0100
0010
0100
,
0001
1000
0100
0010
,
0001
0100
0010
1000
,
0100
0000
0010
0000
0001
0010
0100
1000
,
0001
0100
0001
0000
1000
0000
0100
0000
0110
0000
0000
0000
0000
0000
0000
0000
,
0000
0000
0000
0001
,
0100
0001
0000
1000
,
0000
0100
0010
0001
,
0000
1000
0000
0001
,
0100
0001
0000
0001
1000
0000
0010
0000
,
1000
0100
0010
0001
,
0000
1000
0000
0001
,
0100
0010
0000
1000
,
0000
0000
2222
0000
,
0000
0000
0000
0000
,
0003
0000
0000
0000
,
0000
0000
0030
0000
,
0000
0000
0000
0000
,
0300
0000
0000
0000
,
3000
0000
0000
0000
,
0000
0000
0000
0000
,
0000
0000
0000
0000
1111
0000
0000
1111
,
0000
1111
0000
1111
,
0000
1111
0000
0000
1111
0000
0000
1111
,
0000
1111
0000
1111
,
1111
0000
0000
0000
1111
0000
0000
1111
,
0000
1111
0000
0001
,
0000
1000
0000
0000
0100
0000
0000
0010
,
0000
0010
0000
0001
,
0001
0000
2222
0000
,
0003
0000
0030
0000
,
0300
3000
0000
0000
;
