#TITLE:Apollo 21;
#SUBTITLE:;
#ARTIST:Sidney600;
#TITLETRANSLIT:;
#SUBTITLETRANSLIT:;
#ARTISTTRANSLIT:;
#CREDIT:owenviau1 & Braeden;
#BANNER:../BN.PNG;
#BACKGROUND:;
#LYRICSPATH:;
#CDTITLE:;
#MUSIC:Apollo 21.ogg;
#OFFSET:-1.967;
#SAMPLESTART:123.282;
#SAMPLELENGTH:29.999;
#SELECTABLE:YES;
#BPMS:0.000=132.032,82.000=135.032,83.000=139.032,84.000=142.032,85.000=145.032,86.000=148.032,87.000=150.032,88.000=153.032,89.000=155.032,90.000=157.032,91.000=160.032,92.000=164.032,93.000=168.032,94.000=171.000,624.000=168.000,625.000=167.000,626.000=163.000,627.000=161.000,628.000=159.000,629.000=157.000,630.000=155.000,631.000=153.000,632.000=150.000,633.000=148.000,634.000=146.000,635.000=144.000,636.000=142.000,637.000=140.000,638.000=138.000,639.000=132.032;
#STOPS:;
#BGCHANGES:;
// cache tags:
#FIRSTBEAT:0.000;
#LASTBEAT:781.000;
#SONGFILENAME:Songs/owenviau1 Simfiles 07_final/Apollo 21 - [owenviau1 + Braeden] v1.0.3/Apollo 21.sm;
#HASMUSIC:1;
#HASBANNER:1;
#MUSICLENGTH:303.046;
// end cache tags

//---------------dance-single - owenviau1----------------
#NOTES:
     dance-single:
     owenviau1:
     Challenge:
     20:
     1.000,1.000,0.000,0.663,1.000,2810.000,0.000,201.000,31.000,0.000:
1000
0100
0000
1000
0100
0000
1000
0100
0000
1000
0100
0000
2000
0000
0000
0000
,
3001
0010
0000
0001
0010
0000
0001
0010
0000
0001
0010
0000
0002
0000
0000
0000
,
1003
0010
0000
1000
0010
0000
1000
0010
0000
1000
0010
0000
2000
0000
0000
0000
,
3001
1000
0000
0001
1000
0000
0001
1000
0001
0100
0010
1000
0010
0100
0001
1000
,
0001
0100
0010
0000
1000
0100
1000
0001
0100
00M0
0001
1000
0100
1000
0010
0100
,
0001
1000
0100
00M0
1000
0001
0100
0001
0010
0100
1000
00M0
0001
0100
0010
0100
,
0001
1000
0010
0M00
1000
0001
1000
0010
0100
0001
0100
M000
0010
1000
0001
0010
,
0100
1000
0010
0M00
1000
0001
0010
0001
0100
0010
1000
0M00
0001
0010
0100
1000
,
0001
1000
0010
0M00
1000
0001
1000
0010
0100
0001
1000
0010
1000
0001
0010
0100
,
1000
0001
1000
00M0
0001
0010
0100
1000
0010
0100
0001
00M0
1000
0100
0010
0001
,
1000
0001
0010
M000
0100
1000
0010
1000
0001
0100
0001
0M00
0010
0100
1000
0001
,
0100
0010
0100
M000
0001
0010
0100
1000
0001
0010
0001
0M00
1000
0010
0100
0000
,
0001
1000
0100
000M
0010
0001
1000
0010
0100
0001
1000
0010
0100
0001
0100
0010
,
1000
0001
1000
00M0
0001
0010
0100
1000
0001
0100
0001
00M0
1000
0100
1000
0001
,
0100
0001
0010
M000
0100
1000
0010
1000
0001
0100
0001
0M00
0010
0100
1000
0001
,
0100
0010
0100
M000
0001
0010
0100
1000
0001
0010
0001
0M00
1000
0001
0010
0000
,
0200
2300
3020
0230
0302
2003
3002
0023
,
0230
2300
3020
0230
0320
2030
3002
2003
,
3200
0320
0032
0203
0302
2003
3020
0230
,
0302
2003
3002
0023
0230
2300
3020
0230
,
032M
2030
3002
0023
M032
0203
0320
2030
,
3M02
0023
0230
2300
30M2
0203
0302
2003
,
302M
0230
0320
2030
3M02
0023
0230
2300
,
30M2
0000
0203
0000
0320
0000
0230
0000
03M2
0000
2003
0000
3M20
0000
1030
0001
,
10M0
0100
0010
0001
1000
0010
0100
0001
0100
0010
1000
0001
1000
0100
0010
0001
,
0100
0010
0100
0001
1000
0100
1000
0010
0100
0001
0100
0010
1000
0001
1000
0100
,
0010
0001
1000
0100
1000
0001
0100
0010
0100
0001
1000
0001
0010
0100
1000
0001
,
0100
0001
1000
0010
0100
0001
0100
0010
1000
0001
0010
0001
1000
0100
1000
0010
,
0100
0001
0100
0010
1000
0001
1000
0100
0010
0001
0100
0010
0100
0001
1000
0100
,
0010
0001
1000
0001
0100
0010
1000
0001
0010
0001
0100
0010
1000
0001
0010
0100
,
1000
0001
0100
0001
0010
0100
1000
0010
0100
0001
1000
0100
1000
0010
0100
0001
,
0100
0010
1000
0001
1000
0100
0010
0001
0100
0010
0100
0001
1000
0010
1000
0001
,
0100
0010
0100
0001
1000
0100
0010
0001
1000
0010
0100
0001
0100
0010
1000
0001
,
1000
0100
0010
0001
0100
0010
1000
0010
0100
0001
1000
0001
0010
0100
1000
0001
,
0010
0001
0100
0010
0100
0001
1000
0010
1000
0100
0010
0001
0100
0010
0100
0001
,
1000
0100
1000
0010
0100
0001
1000
0100
0010
0001
1000
0100
1000
0001
0100
0010
,
0100
0001
1000
0010
1000
0100
0010
0001
0100
0010
1000
0001
0010
0001
0100
0010
,
0100
0001
1000
0010
1000
0100
0010
0001
0100
0010
1000
0010
0100
0001
1000
0100
,
1000
0010
0100
0001
1000
0100
0010
0001
1000
0100
1000
0001
0100
0010
0100
0001
,
1000
0010
1000
0001
0100
0001
0010
0100
1000
0001
0010
0001
0100
0010
0100
0001
,
1000
0010
1000
0100
0010
0001
0100
0010
1000
0010
0100
0001
1000
0100
1000
0001
,
0100
0010
0100
0001
1000
0001
0010
0100
1000
0001
0010
0001
0100
0010
1000
0001
,
0010
0100
1000
0001
0100
0001
1000
0010
0100
0001
0100
0010
1000
0001
0010
0001
,
1000
0100
1000
0010
0100
0001
0100
0010
1000
0001
1000
0100
0010
0001
0100
0010
,
1000
0002
0013
0200
1300
0002
0103
0002
,
1003
0020
0130
0002
1003
0200
1300
0020
,
0130
0000
0002
0000
1003
0000
0100
0010
0001
0000
2000
0000
3010
0100
0001
1000
,
0100
1000
0010
0100
0001
1000
0100
0010
0001
1000
0010
0100
0010
1000
0001
0100
,
0001
0010
0100
1000
0001
0010
0001
0100
0010
0100
0001
1000
0010
1000
0100
0010
,
0001
0100
0010
0100
0001
1000
0100
1000
0010
0100
0001
1000
0100
0010
0001
1000
,
0100
1000
0001
0100
0010
0100
0001
1000
0010
1000
0100
0010
0001
0100
0010
1000
,
0001
0010
0001
0100
0010
0100
0001
1000
0010
1000
0100
0010
0001
0100
0010
1000
,
0010
0100
0001
1000
0100
1000
0010
0100
0001
1000
0100
0010
0001
1000
0100
1000
,
0001
0100
0010
0100
0001
1000
0010
1000
0001
0100
0001
0010
0100
1000
0001
0010
,
0001
0100
0010
0100
0001
1000
0010
1000
0100
0010
0001
0100
0010
1000
0010
0100
,
0001
1000
0100
1000
0001
0100
0010
0100
0001
1000
0001
0010
0100
1000
0001
0010
,
0001
0100
0010
1000
0001
0010
0100
1000
0001
0100
0001
1000
0010
0100
0001
0100
,
0010
1000
0001
0010
0001
1000
0100
1000
0010
0100
0001
0010
0100
1000
0001
0010
,
0001
0100
0010
0100
0001
1000
0010
1000
0100
0010
0001
0100
0010
0100
0001
1000
,
0100
1000
0010
0100
0001
1000
0100
0010
0001
1000
0100
1000
0001
0100
0010
0100
,
0001
1000
0010
1000
0100
0010
0001
0100
0010
1000
0001
0010
0001
0100
0010
0100
,
0001
1000
0010
1000
0100
0010
0001
0100
0010
1000
0010
0100
0001
1000
0100
1000
,
0010
0100
0001
1000
0100
1000
0010
0100
,
0001
1000
0100
0010
0001
1000
0010
0100
,
0002
0003
2000
3200
0300
0020
0032
2003
,
3020
0030
0200
0302
0003
2000
3200
2300
,
3020
0030
0200
0302
0003
2000
3200
0320
,
0032
0003
2000
3020
0030
0200
0302
2003
,
3200
0300
0020
0032
0003
2000
3020
0230
,
0320
0030
2000
3002
0003
0020
0230
2300
,
3002
0003
0200
0320
0030
2000
3200
2300
,
3002
0003
0020
0230
0300
2000
3002
2003
,
3010
0100
0010
1000
0001
0100
0001
0010
0100
1000
0010
0100
0001
1000
0010
1000
0100
0010
0001
0100
0001
1000
0010
0100
,
0010
1000
0001
0010
0001
0100
0010
1000
0001
0100
0001
1000
0100
0010
0001
1000
0010
1000
0001
0100
0010
0100
0001
1000
,
0010
1000
0100
0010
0001
1000
0100
1000
0001
0100
0010
0100
0001
1000
0010
0100
0010
1000
0001
1000
0100
0010
0001
0100
,
0001
1000
0010
0100
0001
1000
0100
1000
0001
0010
0100
1000
0001
0100
0001
1000
0100
0010
0001
1000
0010
1000
0001
0100
,
0010
0100
0001
1000
0010
0100
0001
0100
0010
1000
0001
0010
0001
0100
0010
0100
0001
1000
0010
1000
0100
0010
0001
1000
,
0100
1000
0010
0100
0001
0100
0010
1000
0100
1000
0001
0010
0001
1000
0100
0010
0001
1000
0010
1000
0001
0100
0010
0100
,
0001
1000
0010
1000
0001
0100
0001
0010
0100
1000
0010
0100
0010
1000
0001
0100
0001
0010
0100
1000
0001
0100
0010
1000
,
0002
0023
0230
2300
3002
0203
0302
2003
3020
0230
0302
2003
3200
0000
0000
0000
,
1300
0001
0010
0001
1000
0010
0100
0001
0100
0010
1000
0001
0010
0100
1000
0010
,
0100
0001
1000
0100
0010
0001
1000
0100
1000
0001
0100
0010
0100
0001
1000
0001
,
0010
0100
1000
0001
0100
0001
1000
0010
0100
0001
0100
0010
1000
0001
0010
0001
,
1000
0100
1000
0010
0100
0001
0100
0010
1000
0001
1000
0100
0010
0001
0100
0010
,
0100
0001
1000
0100
0010
0001
1000
0001
0100
0010
1000
0001
0010
0001
0100
0010
,
1000
0001
0010
0100
1000
0001
0100
0001
0010
0100
1000
0010
0100
0001
1000
0100
,
1000
0010
0100
0001
0100
0010
1000
0001
1000
0100
0010
0001
0100
0010
0100
0001
,
1000
0010
1000
0001
0100
0010
0100
0001
1000
0100
0010
0001
1000
0010
0100
0001
,
0100
0010
1000
0001
1000
0100
0010
0001
0100
0010
1000
0010
0100
0001
1000
0001
,
0010
0100
1000
0001
0010
0001
0100
0010
0100
0001
1000
0010
1000
0100
0010
0001
,
0100
0010
0100
0001
1000
0100
1000
0010
0100
0001
1000
0100
0010
0001
1000
0100
,
1000
0001
0100
0010
0100
0001
1000
0010
1000
0100
0010
0001
0100
0010
1000
0001
,
0010
0001
0100
0010
0100
0001
1000
0010
1000
0100
0010
0001
0100
0010
1000
0010
,
0100
0001
1000
0100
1000
0010
0100
0001
1000
0100
0010
0001
1000
0100
1000
0001
,
0100
0010
0100
0001
1000
0010
1000
0001
0100
0001
0010
0100
1000
0001
0010
0001
,
0100
0010
0100
0001
1000
0010
1000
0100
0010
0001
0100
0010
1000
0010
0100
0001
,
1000
0100
1000
0001
0100
0010
0100
0001
1000
0001
0010
0100
1000
0001
0010
0001
,
0100
0010
1000
0001
0010
0100
1000
0001
0100
0001
1000
0010
0100
0001
0100
0010
,
1000
0001
0010
0001
1000
0100
1000
0010
0100
0001
0100
0010
1000
0001
1000
0100
,
0010
0001
0100
0010
1000
0100
1000
0001
0010
0001
0100
0010
1000
0001
0100
0001
,
1000
0100
0010
0001
0100
0001
1000
0010
0100
0001
0100
0010
1000
0001
1000
0100
,
0010
0000
0000
0001
0000
0000
1000
0000
0000
0100
0000
0000
1000
0000
0000
0001
0000
0000
0100
0000
0000
0010
0000
0000
1000
0000
0010
0000
0100
0000
0001
0000
1000
0000
0100
0000
1000
0000
0001
0000
0100
0000
0010
0000
0100
0000
0001
0000
,
1000
0100
0010
0001
1000
0010
0100
0001
0100
0010
1000
0001
0010
0001
0100
0010
,
1000
0000
0000
0010
0000
0000
0100
0000
0000
0001
0000
0000
1000
0000
0000
0100
0000
0000
1000
0000
0000
0001
0000
0000
0100
0000
0000
0010
0000
0000
0100
0000
0000
0001
0000
0000
1000
0000
0100
0000
0010
0000
0001
0000
0100
0000
0001
0000
,
1000
0010
0100
0001
0100
0010
1000
0001
0010
0001
0100
0010
0100
0001
1000
0010
,
1000
0100
0010
0001
1000
0100
1000
0001
0100
0010
0100
0001
1000
0001
0100
0010
,
0100
0000
0000
0001
0000
0000
1000
0000
0000
0100
0000
0000
0010
0000
0000
0001
0000
0000
1000
0000
0000
0100
0000
0000
1000
0000
0000
0001
0000
0000
0100
0000
0000
0010
0000
0000
1000
0000
0010
0000
0100
0000
0001
0000
1000
0000
0001
0000
,
0100
0010
0100
0001
1000
0100
1000
0010
0100
0001
1000
0100
0010
0001
1000
0010
,
0100
0010
1000
0001
0010
0001
0100
0010
0100
0001
1000
0010
1000
0100
0010
0001
,
1000
0100
1000
0010
0100
0001
0100
0010
1000
0001
1000
0100
0010
0001
1000
0010
,
0100
0010
1000
0001
0010
0001
0100
0010
0100
0001
1000
0100
1000
0010
0100
0001
,
1000
0100
0010
0001
0100
0010
0100
0001
1000
0100
1000
0010
0100
0001
1000
0100
,
0010
0001
1000
0010
0100
0001
1000
0100
1000
0010
0100
0001
0100
0010
1000
0001
,
0010
0001
0100
0010
1000
0001
0010
0100
1000
0001
0010
0001
0100
0010
0100
0001
,
1000
0010
1000
0100
0010
0001
0100
0010
1000
0001
0100
0001
0010
0100
1000
0001
,
0100
0010
1000
0100
1000
0001
0010
0001
1000
0100
0010
0001
0100
0010
0100
0001
,
1000
0100
1000
0010
0100
0001
1000
0100
0010
0001
0100
0010
0100
0001
1000
0010
,
0100
0010
1000
0001
0100
0001
0010
0100
1000
0010
0100
0001
1000
0100
1000
0001
,
0100
0010
0100
0001
1000
0100
1000
0010
0100
0001
0100
0010
1000
0001
1000
0100
,
0010
0001
1000
0010
0100
0001
0100
0010
1000
0001
0010
0100
1000
0001
0100
0010
,
1000
0000
0000
0100
0000
0000
0010
0001
1000
0001
0100
0010
1000
0000
0000
0001
0000
0000
0010
0100
1000
0001
0100
0010
,
0100
0000
0000
0001
0000
0000
1000
0100
1000
0010
0100
0001
1000
0000
0000
0001
0000
0000
0010
0100
1000
0001
1000
0010
,
0100
0000
0000
0001
0000
0000
1000
0100
1000
0010
0100
0001
0100
0000
0000
0010
0000
0000
1000
0001
1000
0100
0010
0001
,
0100
0000
0000
0000
0000
0000
0010
0000
0000
0000
0000
0000
1000
0000
0100
0000
0010
0000
0001
0000
0100
0000
0010
0000
0100
0000
0000
0001
0000
0000
1000
0000
0000
0100
0000
0000
0010
0000
0001
0000
1000
0000
0010
0000
0100
0000
0001
0000
,
0100
0000
0000
0010
0000
0000
1000
0001
1000
0100
0010
0001
0100
0000
0000
0010
0000
0000
1000
0010
0100
0001
0100
0010
,
1000
0000
0000
0001
0000
0000
0010
0100
1000
0001
0100
0001
1000
0000
0000
0100
0000
0000
0010
0001
0010
0100
1000
0001
,
0100
0000
0000
0010
0000
0000
1000
0001
0100
0001
0010
0100
1000
0000
0000
0001
0000
0000
0100
0010
0100
0001
1000
0010
,
1000
0000
0000
0000
0000
0000
0001
0000
0000
0000
0000
0000
1000
0000
0100
0000
0010
0000
0001
0000
0100
0000
0010
0000
0100
0000
0000
0001
0000
0000
1000
0000
0000
0010
0000
0000
1000
0000
0100
0000
0010
0000
0001
0000
1000
0000
0010
0000
,
1000
0100
0010
0001
1000
0010
0100
0010
1000
0001
0100
0001
0010
0100
1000
0001
,
0010
0001
0100
0010
0100
0001
1000
0010
1000
0100
0010
0001
0100
0010
0100
0001
,
1000
0100
1000
0010
0100
0001
1000
0100
0010
0001
1000
0100
1000
0001
0100
0010
,
0100
0001
1000
0010
1000
0100
0010
0001
0100
0010
1000
0001
0010
0001
0100
0010
,
0100
0000
0001
1000
0010
1000
0100
0010
0001
0100
0010
0100
0001
1000
0010
1000
0001
0100
0010
0100
0001
1000
0100
1000
,
0001
0100
0010
1000
0001
0100
0001
0010
0100
1000
0001
0010
0001
1000
0010
0100
0010
1000
0001
0100
0001
0010
0100
1000
,
0001
0010
0001
0100
0010
1000
0010
0100
0001
1000
0100
0010
0001
1000
0010
1000
0001
0100
0010
0100
0001
1000
0001
0010
,
0100
1000
0010
0100
0001
0100
0010
1000
0001
1000
0100
0010
0001
1000
0100
1000
0010
0100
0010
1000
0001
0100
0001
1000
,
0010
0000
0000
0100
0000
0000
0001
0000
0000
1000
0000
0000
0010
0000
0000
1000
0000
0000
0100
0000
0000
0010
0000
0000
0001
0000
0000
0100
0000
0000
0010
0000
0000
0100
0000
0000
0001
0000
1000
0000
0010
0000
0100
0000
0001
0000
1000
0000
,
0100
1000
0001
0010
0001
1000
0100
1000
0010
0100
0001
1000
0100
0010
0001
0100
,
0010
1000
0001
0100
0010
0100
0001
1000
0100
1000
0010
0100
0001
1000
0100
0010
,
0001
0100
0001
1000
0010
0100
0001
0100
0010
1000
0001
0010
0100
1000
0001
1000
,
0100
0010
0001
1000
0100
1000
0001
0100
0010
0100
0001
1000
0010
1000
0100
0010
,
0001
1000
0010
1000
0100
0010
0001
0100
0001
1000
0010
0100
0010
1000
0001
0010
,
0001
0100
0010
0100
0001
1000
0010
1000
0100
0010
0001
1000
0010
0100
0001
1000
,
0010
0100
0010
1000
0001
0010
0100
1000
0001
0010
0001
1000
0010
0100
0010
1000
,
0002
0013
0200
2300
3010
0200
0302
2003
,
3200
0310
0002
2003
3010
0200
0302
2003
,
3200
1300
0020
0230
0301
2000
3002
0023
,
0230
1300
0020
0230
0310
2000
3002
0023
,
0032
1003
0200
2300
3010
0200
0302
2003
,
3200
0310
0002
2003
3010
0200
0302
2003
,
3200
1300
0020
0230
0301
2000
3002
0023
,
0230
1300
0020
0230
0310
2000
3002
0023
,
0031
1000
0010
1000
0100
0010
0001
0100
0010
1000
0010
0100
0001
1000
0100
1000
,
0001
0100
0010
0100
0001
1000
0001
0010
0100
1000
0001
0010
0001
0100
0010
1000
,
0001
0010
0100
1000
0001
0100
0001
1000
0010
0100
0001
0100
0010
1000
0001
0010
,
0001
1000
0100
1000
0010
0100
0001
0010
0100
1000
0001
0010
0001
0100
0010
0100
,
0001
1000
0010
1000
0100
0010
0001
0100
0010
0100
0001
1000
0100
1000
0010
0100
,
0001
1000
0100
0010
0001
1000
0100
1000
0001
0100
0010
0100
0001
1000
0010
1000
,
0100
0010
0001
0100
0010
1000
0001
0010
0001
0100
0010
0100
0001
1000
0010
1000
,
0100
0010
0001
0100
0010
1000
0010
0100
0001
1000
0010
1000
0100
0010
0001
0100
,
0010
0000
0000
1000
0100
0000
1000
0100
0000
1000
0100
0000
1000
0000
0010
0000
,
0100
0001
0000
0100
0001
0000
0100
0001
0000
0100
0001
0000
0010
0000
0100
0000
,
1000
0010
0000
1000
0010
0000
1000
0010
0000
1000
0010
0000
0100
0000
0001
0000
,
1000
0001
0000
1000
0001
0000
1000
0001
1000
0010
0100
0010
1000
0001
0010
0100
,
1000
0010
0000
1000
0010
0000
1000
0010
0000
1000
0010
0000
1000
0000
0001
0000
,
0010
0001
0000
0010
0001
0000
0010
0001
0000
0010
0001
0000
0100
0000
0010
0000
,
1000
0100
0000
1000
0100
0000
1000
0100
0000
1000
0100
0000
1000
0000
0010
0000
,
0100
0010
0000
0100
0010
0000
0100
0010
0100
0001
1000
0001
0010
0100
1000
0010
,
0100
0001
1000
0000
0100
0010
0001
1000
0010
0000
1000
0100
0010
0001
1000
0010
,
1000
0001
0100
0000
0010
1000
0010
0100
0001
1000
0100
0000
0010
0001
1000
0010
,
0100
0001
0100
0000
0010
1000
0010
0100
0001
1000
0100
0000
1000
0010
0100
0010
,
1000
0001
0010
0000
0100
1000
0001
0100
0001
1000
0010
0000
0100
0001
0100
0000
,
0020
0000
1030
0100
1000
0001
0100
0010
0100
0001
1000
0100
0010
0001
1000
0010
,
2000
0000
0000
0000
3100
0010
0001
1000
0001
0100
0010
0100
0001
1000
0100
0010
,
0002
0000
0103
0010
1000
0010
0100
0001
1000
0100
0010
0001
0100
0001
1000
0010
,
0200
0000
0000
0000
0301
1000
0010
1000
0100
0010
0001
0100
0001
1000
0010
0100
,
0002
0000
0013
0100
1000
0010
0100
0010
1000
0001
0010
0001
0100
0010
1000
0001
,
0020
0000
0000
0000
0130
1000
0001
0100
0010
1000
0001
0010
0001
1000
0010
0100
,
0020
0000
1030
0001
0100
0001
0010
0100
1000
0001
0100
0010
0100
0001
1000
0010
,
2000
0000
0000
0000
3001
0010
0100
1000
0010
0100
0001
1000
0010
1000
0100
0010
,
0002
0000
0103
0010
1000
0010
0100
0001
1000
0100
0010
0001
0100
0001
1000
0010
,
0200
0000
0000
0000
0301
1000
0010
1000
0100
0010
0001
0100
0001
1000
0010
0100
,
0002
0000
0013
0100
1000
0010
0100
0010
1000
0001
0010
0001
0100
0010
1000
0001
,
0020
0000
0000
0000
0130
1000
0001
0100
0010
1000
0001
0010
0001
1000
0010
0100
,
0020
0000
1030
0001
0100
0001
0010
0100
1000
0001
0100
0010
0100
0001
1000
0010
,
2000
0000
0000
0000
3010
0100
0001
1000
0001
0100
0010
0100
0001
1000
0100
0010
,
0002
0000
0103
0010
1000
0010
0100
0001
1000
0100
0010
0001
0100
0001
1000
0010
,
0200
0000
0000
0000
0301
1000
0010
1000
0100
0010
0001
0100
0001
1000
0010
0100
,
0001
0010
0000
0001
0010
0000
0001
0010
0000
0001
0010
0000
0001
0000
0000
0000
,
1000
0010
0000
1000
0010
0000
1000
0010
0000
1000
0010
0000
1000
0000
0000
0000
,
0001
0100
0000
0001
0100
0000
0001
0100
0000
0001
0100
0000
0001
0000
0000
0000
,
1000
0001
0000
1000
0001
0000
1000
0001
1000
0100
0010
0001
0100
0010
0100
0001
,
1000
0001
0000
1000
0001
0000
1000
0001
0000
1000
0001
0000
1000
0001
0000
1000
,
0001
0000
1000
0001
0000
1000
0001
0000
1000
0001
0000
1000
0001
0000
1000
0001
,
0000
1000
0001
0000
1000
0001
0000
1000
0001
0000
1000
0001
0000
1000
0001
0000
,
1000
0001
0000
1000
0001
0000
0000
0000
0000
0000
0000
0000
0000
0000
0000
0000
;

//---------------dance-single - ----------------
#NOTES:
     dance-single:
     :
     Edit:
     22:
     1.000,1.000,0.000,0.475,1.000,2971.000,0.000,144.000,21.000,0.000:
1000
0100
0000
1000
0100
0000
1000
0100
0000
1000
0100
0000
2000
0000
0000
0000
,
3001
0010
0000
0001
0010
0000
0001
0010
0000
0001
0010
0000
0002
0000
0000
0000
,
1003
0010
0000
1000
0010
0000
1000
0010
0000
1000
0010
0000
2000
0000
0000
0000
,
3001
1000
0000
0001
1000
0000
0001
1000
0001
0100
0010
1000
0010
0100
0001
1000
,
0001
0100
0010
0000
1000
0100
1000
0001
0100
00M0
0001
1000
0100
1000
0010
0100
,
0001
1000
0100
00M0
1000
0001
0100
0001
0010
0100
1000
00M0
0001
0100
0010
0100
,
0001
1000
0010
0M00
1000
0001
1000
0010
0100
0001
0100
M000
0010
1000
0001
0010
,
0100
1000
0010
0M00
1000
0001
0010
0001
0100
0010
1000
0M00
0001
0010
0100
1000
,
0001
1000
0010
0M00
1000
0001
1000
0010
0100
0001
1000
0010
1000
0001
0010
0100
,
1000
0001
1000
00M0
0001
0010
0100
1000
0010
0100
0001
00M0
1000
0100
0010
0001
,
1000
0001
0010
M000
0100
1000
0010
1000
0001
0100
0001
0M00
0010
0100
1000
0001
,
0100
0010
0100
M000
0001
0010
0100
1000
0001
0010
0001
0M00
1000
0010
0100
0000
,
0001
1000
0100
000M
0010
0001
1000
0010
0100
0001
1000
0010
0100
0001
0100
0010
,
1000
0001
1000
00M0
0001
0010
0100
1000
0001
0100
0001
00M0
1000
0100
1000
0001
,
0100
0001
0010
M000
0100
1000
0010
1000
0001
0100
0001
0M00
0010
0100
1000
0001
,
0100
0010
0100
M000
0001
0010
0100
1000
0001
0010
0001
0M00
1000
0001
0010
0000
,
0200
0000
2300
0000
3002
0000
0203
0000
0310
1000
0100
1000
0010
1000
0001
0100
,
0010
1000
0100
0010
0100
1000
0001
0100
0010
1000
0100
0010
0100
1000
0001
0100
,
0010
1000
0001
0010
0100
1000
0100
0010
0100
1000
0001
0100
0010
0100
0001
0010
,
0100
1000
0100
0010
0100
1000
0001
0100
0010
0100
0001
0010
0100
1000
0100
0010
,
0100
1000
0001
0100
0010
1000
0001
1000
0001
0000
0100
0010
0100
0010
1000
0000
,
0002
0000
0103
0010
0100
0010
1000
0000
0002
0000
1003
0100
1000
0100
0010
0000
,
0002
0000
0103
0010
0100
0010
1000
0000
0020
0000
0130
0001
0100
0010
1000
0000
,
0002
0000
0103
0010
1000
0100
0010
0000
0002
0000
1003
0010
0100
0010
1000
0001
,
1000
0100
0010
0001
1000
0010
0100
0001
0100
0010
1000
0001
1000
0100
0010
0001
,
0100
0010
0100
0001
1000
0100
1000
0010
0100
0001
0100
0010
1000
0001
1000
0100
,
0010
0001
1000
0100
1000
0001
0100
0010
0100
0001
1000
0001
0010
0100
1000
0001
,
0100
0001
1000
0010
0100
0001
0100
0010
1000
0001
0010
0001
1000
0100
1000
0010
,
0100
0001
0100
0010
1000
0001
1000
0100
0010
0001
0100
0010
0100
0001
1000
0100
,
0010
0001
1000
0001
0100
0010
1000
0001
0010
0001
0100
0010
1000
0001
0010
0100
,
1000
0001
0100
0001
0010
0100
1000
0010
0100
0001
1000
0100
1000
0010
0100
0001
,
0100
0010
1000
0000
0010
0000
0100
0000
0001
0000
0010
0000
0100
0000
1000
0000
0010
0000
0100
0000
0010
0000
1000
0000
0001
0000
0100
0000
0001
0000
1000
0000
,
0010
0100
0010
1000
0001
0010
0100
1000
0001
0100
0010
1000
0010
0100
0001
1000
,
0001
0010
0100
1000
0010
0100
0001
0100
0010
1000
0001
1000
0100
0010
0001
1000
,
0100
1000
0010
0100
0010
1000
0001
0100
0001
0010
0100
1000
0010
0100
0010
1000
,
0001
0010
0001
0100
0010
1000
0001
0010
0100
1000
0001
0010
0001
1000
0010
0100
,
0010
1000
0001
0100
0001
0010
0100
1000
0010
0100
0001
1000
0100
1000
0010
0100
,
0010
1000
0001
0100
0001
0010
0100
1000
0010
0100
0001
0100
0010
1000
0001
0010
,
0001
0100
0010
1000
0001
0010
0100
1000
0001
0010
0001
1000
0010
0100
0010
1000
,
0001
0100
0001
1000
0010
1000
0100
0010
0001
1000
0100
1000
0010
0100
0010
1000
,
0001
0010
0100
1000
0100
0010
0001
0100
0010
0100
0001
0010
0100
1000
0100
0010
0100
1000
0001
0100
0010
1000
0001
0010
,
0100
1000
0100
0010
0100
1000
0001
0100
0010
1000
0001
0010
0100
1000
0100
0010
0001
0100
0010
0100
0001
0010
0100
1000
,
0001
0100
0010
1000
0001
0010
0100
1000
0001
0010
0001
1000
0100
0010
0100
1000
0001
0100
0010
1000
0001
0100
0010
1000
,
0001
0100
0010
1000
0100
1000
0001
0010
0100
1000
0100
0010
0100
1000
0001
0100
0010
1000
0100
0010
0100
0010
0001
0100
,
0010
0002
0013
0200
1300
0002
0103
0002
,
1003
0020
0130
0002
1003
0200
1300
0020
,
0130
0000
0002
0000
1003
0000
0100
0010
0001
0000
2000
0000
3010
0100
0001
1000
,
0100
1000
0010
0100
0001
1000
0100
0010
0001
1000
0010
0100
0010
1000
0001
0100
,
0001
0010
0100
1000
0001
0010
0001
0100
0010
0100
0001
1000
0010
1000
0100
0010
,
0001
0100
0010
0100
0001
1000
0100
1000
0010
0100
0001
1000
0100
0010
0001
1000
,
0100
1000
0001
0100
0010
0100
0001
1000
0010
1000
0100
0010
0001
0100
0010
1000
,
0001
0010
0001
0100
0010
0100
0001
1000
0010
1000
0100
0010
0001
0100
0010
1000
,
0010
0100
0001
1000
0100
1000
0010
0100
0001
1000
0100
0010
0001
1000
0100
1000
,
0001
0100
0010
0100
0001
1000
0010
1000
0001
0100
0001
0010
0100
1000
0001
0010
,
0001
0100
0010
0100
0001
1000
0010
1000
0100
0010
0001
0100
0010
1000
0010
0100
,
0001
1000
0100
1000
0001
0100
0010
0100
0001
1000
0001
0010
0100
1000
0001
0010
,
0001
0100
0010
1000
0001
0010
0100
1000
0001
0100
0001
1000
0010
0100
0001
0100
,
0010
1000
0001
0010
0001
1000
0100
1000
0010
0100
0001
0010
0100
1000
0001
0010
,
0001
0100
0010
0100
0001
1000
0010
1000
0100
0010
0001
0100
0010
0100
0001
1000
,
0100
1000
0010
0100
0001
1000
0100
0010
0001
1000
0100
1000
0001
0100
0010
0100
,
0001
1000
0010
1000
0100
0010
0001
0100
0010
1000
0001
0010
0001
0100
0010
0100
,
0001
1000
0010
1000
0100
0010
0001
0100
0010
1000
0010
0100
0001
1000
0100
1000
,
0010
0100
0001
1000
0100
0010
0100
1000
0001
0100
0010
1000
0001
0010
0100
1000
,
0100
0010
0100
1000
0001
0100
0010
1000
0100
0010
0100
1000
0001
0100
0010
1000
,
0002
0003
2000
3200
0300
0020
0032
2003
,
3020
0030
0200
0302
0003
2000
3200
2300
,
3020
0030
0200
0302
0003
2000
3200
0320
,
0032
0003
2000
3020
0030
0200
0302
2003
,
3200
0300
0020
0032
0003
2000
3020
0230
,
0320
0030
2000
3002
0003
0020
0230
2300
,
3002
0003
0200
0320
0030
2000
3200
2300
,
3002
0003
0020
0230
0300
2000
3002
2003
,
3010
0100
0010
1000
0001
0100
0001
0010
0100
1000
0010
0100
0001
1000
0010
1000
0100
0010
0001
0100
0001
1000
0010
0100
,
0010
1000
0001
0010
0001
0100
0010
1000
0001
0100
0001
1000
0100
0010
0001
1000
0010
1000
0001
0100
0010
0100
0001
1000
,
0010
1000
0100
0010
0001
1000
0100
1000
0001
0100
0010
0100
0001
1000
0010
0100
0010
1000
0001
1000
0100
0010
0001
0100
,
0001
1000
0010
0100
0001
1000
0100
1000
0001
0010
0100
1000
0001
0100
0001
1000
0100
0010
0001
1000
0010
1000
0001
0100
,
0010
0100
0001
1000
0010
0100
0001
0100
0010
1000
0001
0010
0001
0100
0010
0100
0001
1000
0010
1000
0100
0010
0001
1000
,
0100
1000
0010
0100
0001
0100
0010
1000
0100
1000
0001
0010
0001
1000
0100
0010
0001
1000
0010
1000
0001
0100
0010
0100
,
0001
1000
0010
1000
0001
0100
0001
0010
0100
1000
0010
0100
0010
1000
0001
0100
0001
0010
0100
1000
0001
0100
0010
1000
,
0010
0000
0100
0000
0001
0000
0010
0000
0100
0000
1000
0000
0100
0000
0010
0000
0100
0000
1000
0000
0001
0000
0100
0000
0010
0000
1000
0000
0100
0000
0010
0000
0000
0001
0000
0000
0200
0000
0000
0000
0000
0000
0000
0000
0000
0000
0000
0000
,
1300
0001
0010
0001
1000
0010
0100
0001
0100
0010
1000
0001
0010
0100
1000
0010
,
0100
0001
1000
0100
0010
0001
1000
0100
1000
0001
0100
0010
0100
0001
1000
0001
,
0010
0100
1000
0001
0100
0001
1000
0010
0100
0001
0100
0010
1000
0001
0010
0001
,
1000
0100
1000
0010
0100
0001
0100
0010
1000
0001
1000
0100
0010
0001
0100
0010
,
0100
0001
1000
0100
0010
0001
1000
0001
0100
0010
1000
0001
0010
0001
0100
0010
,
1000
0001
0010
0100
1000
0001
0100
0001
0010
0100
1000
0010
0100
0001
1000
0100
,
1000
0010
0100
0001
0100
0010
1000
0001
1000
0100
0010
0001
0100
0010
0100
0001
,
1000
0010
1000
0001
0100
0010
0100
0001
1000
0100
0010
0001
1000
0010
0100
0001
,
0100
0010
1000
0001
1000
0100
0010
0001
0100
0010
1000
0010
0100
0001
1000
0001
,
0010
0100
1000
0001
0010
0001
0100
0010
0100
0001
1000
0010
1000
0100
0010
0001
,
0100
0010
0100
0001
1000
0100
1000
0010
0100
0001
1000
0100
0010
0001
1000
0100
,
1000
0001
0100
0010
0100
0001
1000
0010
1000
0100
0010
0001
0100
0010
1000
0001
,
0010
0001
0100
0010
0100
0001
1000
0010
1000
0100
0010
0001
0100
0010
1000
0010
,
0100
0001
1000
0100
1000
0010
0100
0001
1000
0100
0010
0001
1000
0100
1000
0001
,
0100
0010
0100
0001
1000
0010
1000
0001
0100
0001
0010
0100
1000
0001
0010
0001
,
0100
0010
0100
0001
1000
0010
1000
0100
0010
0001
0100
0010
1000
0010
0100
0001
,
1000
0100
1000
0001
0100
0010
0100
0001
1000
0001
0010
0100
1000
0001
0010
0001
,
0100
0010
1000
0001
0010
0100
1000
0001
0100
0001
1000
0010
0100
0001
0100
0010
,
1000
0001
0010
0001
1000
0100
1000
0010
0100
0001
0100
0010
1000
0001
1000
0100
,
0010
0001
0100
0010
1000
0100
1000
0001
0010
0001
0100
0010
1000
0001
0100
0001
,
1000
0100
0010
0001
0100
0001
1000
0010
0100
0001
0100
0010
1000
0001
1000
0100
,
0010
0100
0001
1000
0100
0010
0100
1000
0001
0100
0010
1000
0100
0010
0100
1000
0001
0010
0100
1000
0100
0010
0100
1000
,
0001
0100
0010
0100
0001
0010
0100
1000
0100
0010
0100
1000
0001
0100
0010
1000
0100
0010
0001
0100
0010
1000
0100
0010
,
0001
0000
0000
0010
0000
0000
0100
0000
0000
1000
0000
0000
0001
0000
0100
0000
0010
0000
1000
0000
0100
0000
0010
0000
0100
0000
1000
0000
0001
0000
0100
0000
0010
0000
1000
0000
0100
0000
0010
0000
0100
0000
1000
0000
0001
0000
0100
0000
,
0010
0000
1000
0010
0100
0001
1000
0100
0010
0100
1000
0001
0100
0010
1000
0100
0010
0001
0010
0100
1000
0001
0100
0010
,
0100
0001
0010
0100
1000
0100
0010
0001
0100
0010
0100
0001
0010
0100
1000
0100
0010
0100
1000
0001
0100
0010
1000
0100
,
0010
0100
1000
0001
0010
0100
1000
0100
0010
0001
0100
0010
0100
0001
0010
0100
1000
0100
0010
0001
0100
0010
0100
0001
,
0010
0000
0100
0000
1000
0000
0010
0000
0100
0000
0010
0000
1000
0000
0000
0100
0000
0000
1000
0000
0000
0010
0000
0000
0100
0000
0001
0000
1000
0000
0100
0000
0010
0000
0001
0000
0010
0000
0000
0001
0000
0000
1000
0000
0000
0010
0000
0000
,
0100
0010
1000
0001
0010
0001
0100
0010
0100
0001
1000
0010
1000
0100
0010
0001
,
1000
0000
0000
0100
0000
0000
1000
0000
0000
0010
0000
0000
0100
0000
0000
0001
0000
0000
0100
0000
0000
0010
0000
0000
1000
0000
0001
0000
0010
0000
0100
0000
1000
0000
0100
0000
0010
0000
0001
0000
0100
0000
0010
0000
1000
0000
0001
0000
,
0100
0010
1000
0100
0010
0001
0100
0010
0100
0001
1000
0100
1000
0010
0100
0001
,
1000
0100
0010
0001
0100
0010
0100
0001
1000
0100
1000
0010
0100
0001
1000
0100
,
0010
0001
1000
0010
0100
0001
1000
0100
1000
0010
0100
0001
0100
0010
1000
0001
,
0010
0001
0100
0010
1000
0001
0010
0100
1000
0001
0010
0001
0100
0010
0100
0001
,
1000
0010
1000
0100
0010
0001
0100
0010
1000
0001
0100
0001
0010
0100
1000
0001
,
0100
0010
1000
0100
1000
0001
0010
0001
1000
0100
0010
0001
0100
0010
0100
0001
,
1000
0100
1000
0010
0100
0001
1000
0100
0010
0001
0100
0010
0100
0001
1000
0010
,
0100
0010
1000
0001
0100
0001
0010
0100
1000
0010
0100
0001
1000
0100
1000
0001
,
0100
0010
0100
0001
1000
0100
1000
0010
0100
0001
0100
0010
1000
0001
1000
0100
,
0010
0001
1000
0010
0100
0001
0100
0010
1000
0001
0010
0100
1000
0001
0100
0010
,
1000
0000
0000
0100
0000
0000
0010
0001
1000
0001
0100
0010
1000
0000
0000
0001
0000
0000
0010
0100
1000
0001
0100
0010
,
0100
0000
0000
0001
0000
0000
1000
0100
1000
0010
0100
0001
1000
0000
0000
0001
0000
0000
0010
0100
1000
0001
1000
0010
,
0100
0000
0000
0001
0000
0000
1000
0100
1000
0010
0100
0001
0100
0000
0000
0010
0000
0000
1000
0001
1000
0100
0010
0001
,
0100
0000
0000
0000
0000
0000
0010
0000
0000
0000
0000
0000
1000
0000
0100
0000
0010
0000
0001
0000
0100
0000
0010
0000
0100
0000
0000
0001
0000
0000
1000
0000
0000
0100
0000
0000
0010
0000
0001
0000
1000
0000
0010
0000
0100
0000
0001
0000
,
0100
0000
0000
0010
0000
0000
1000
0001
1000
0100
0010
0001
0100
0000
0000
0010
0000
0000
1000
0010
0100
0001
0100
0010
,
1000
0000
0000
0001
0000
0000
0010
0100
1000
0001
0100
0001
1000
0000
0000
0100
0000
0000
0010
0001
0010
0100
1000
0001
,
0100
0000
0000
0010
0000
0000
1000
0001
0100
0001
0010
0100
1000
0000
0000
0001
0000
0000
0100
0010
0100
0001
1000
0010
,
1000
0000
0000
0000
0000
0000
0001
0000
0000
0000
0000
0000
1000
0000
0100
0000
0010
0000
0001
0000
0100
0000
0010
0000
0100
0000
0000
0001
0000
0000
1000
0000
0000
0010
0000
0000
1000
0000
0100
0000
0010
0000
0001
0000
1000
0000
0010
0000
,
1000
0100
0010
0001
1000
0010
0100
0010
1000
0001
0100
0001
0010
0100
1000
0001
,
0010
0001
0100
0010
0100
0001
1000
0010
1000
0100
0010
0001
0100
0010
0100
0001
,
1000
0100
1000
0010
0100
0001
1000
0100
0010
0001
1000
0100
1000
0001
0100
0010
,
0100
0001
1000
0010
1000
0100
0010
0001
0100
0010
1000
0001
0010
0001
0100
0010
,
0100
0000
0001
1000
0010
1000
0100
0010
0001
0100
0010
0100
0001
1000
0010
1000
0001
0100
0010
0100
0001
1000
0100
1000
,
0001
0100
0010
1000
0001
0100
0001
0010
0100
1000
0001
0010
0001
1000
0010
0100
0010
1000
0001
0100
0001
0010
0100
1000
,
0001
0010
0001
0100
0010
1000
0010
0100
0001
1000
0100
0010
0001
1000
0010
1000
0001
0100
0010
0100
0001
1000
0001
0010
,
0100
1000
0010
0100
0001
0100
0010
1000
0001
1000
0100
0010
0001
1000
0100
1000
0010
0100
0010
1000
0001
0100
0001
1000
,
0010
0000
0000
0100
0000
0000
0001
0000
0000
1000
0000
0000
0010
0000
0000
1000
0000
0000
0100
0000
0000
0010
0000
0000
0001
0000
0000
0100
0000
0000
0010
0000
0000
0100
0000
0000
0001
0000
1000
0000
0010
0000
0100
0000
0001
0000
1000
0000
,
0100
0000
0000
1000
0000
0000
0001
0000
0000
0010
0000
0000
0001
0000
0000
1000
0000
0000
0100
0000
0000
1000
0000
0000
0002
0000
0000
0023
0000
0000
0032
0000
0000
0023
0000
0000
0230
0000
0000
2300
0000
0000
3200
0000
0000
2300
3000
0000
,
0001
0010
0100
1000
0100
0010
0001
0100
0010
1000
0001
0010
0100
1000
0100
0010
0100
1000
0001
0100
0010
1000
0001
0010
,
0100
1000
0100
0010
0100
1000
0001
0100
0010
1000
0100
0010
0100
1000
0001
0100
0010
1000
0001
0010
0100
1000
0001
0010
,
0001
0010
0001
1000
0100
1000
0001
0100
0010
0100
0001
1000
0010
1000
0100
0010
,
0001
1000
0010
1000
0100
0010
0001
0100
0001
1000
0010
0100
0010
1000
0001
0010
,
0001
0100
0010
0100
0001
1000
0010
1000
0100
0010
0001
1000
0010
0100
0001
1000
,
0010
0100
0010
1000
0001
0010
0100
1000
0001
0010
0001
1000
0010
0100
0010
1000
,
0002
0013
0200
2300
3010
0200
0302
2003
,
3200
0310
0002
2003
3010
0200
0302
2003
,
3200
1300
0020
0230
0301
2000
3002
0023
,
0230
1300
0020
0230
0310
2000
3002
0023
,
0032
1003
0200
2300
3010
0200
0302
2003
,
3200
0310
0002
2003
3010
0200
0302
2003
,
3200
1300
0020
0230
0301
2000
3002
0023
,
0230
1300
0020
0230
0310
2000
3002
0023
,
0031
1000
0010
1000
0100
0010
0001
0100
0010
1000
0010
0100
0001
1000
0100
1000
,
0001
0100
0010
0100
0001
1000
0001
0010
0100
1000
0001
0010
0001
0100
0010
1000
,
0001
0010
0100
1000
0001
0100
0001
1000
0010
0100
0001
0100
0010
1000
0001
0010
,
0001
1000
0100
1000
0010
0100
0001
0010
0100
1000
0001
0010
0001
0100
0010
0100
,
0001
1000
0010
1000
0100
0010
0001
0100
0010
0100
0001
1000
0100
1000
0010
0100
,
0001
1000
0100
0010
0001
1000
0100
1000
0001
0100
0010
0100
0001
1000
0010
1000
,
0100
0010
0001
0100
0010
1000
0001
0010
0001
0100
0010
0100
0001
1000
0010
1000
,
0100
0010
0001
0100
0010
1000
0010
0100
0001
1000
0010
1000
0100
0010
0001
0100
,
0010
0000
0000
1000
0100
0000
1000
0100
0000
1000
0100
0000
1000
0000
0010
0000
,
0100
0001
0000
0100
0001
0000
0100
0001
0000
0100
0001
0000
0010
0000
0100
0000
,
1000
0010
0000
1000
0010
0000
1000
0010
0000
1000
0010
0000
0100
0000
0001
0000
,
1000
0001
0000
1000
0001
0000
1000
0001
1000
0010
0100
0010
1000
0001
0010
0100
,
1000
0010
0000
1000
0010
0000
1000
0010
0000
1000
0010
0000
1000
0000
0001
0000
,
0010
0001
0000
0010
0001
0000
0010
0001
0000
0010
0001
0000
0100
0000
0010
0000
,
1000
0100
0000
1000
0100
0000
1000
0100
0000
1000
0100
0000
1000
0000
0010
0000
,
0100
0010
0000
0100
0010
0000
0100
0010
0100
0001
1000
0001
0010
0100
1000
0010
,
0100
0001
1000
0000
0100
0010
0001
1000
0010
0000
1000
0100
0010
0001
1000
0010
,
1000
0001
0100
0000
0010
1000
0010
0100
0001
1000
0100
0000
0010
0001
1000
0010
,
0100
0001
0100
0000
0010
1000
0010
0100
0001
1000
0100
0000
1000
0010
0100
0010
,
1000
0001
0010
0000
0100
1000
0001
0100
0001
1000
0010
0000
0100
0001
0100
0000
,
0020
0000
1030
0100
1000
0001
0100
0010
0100
0001
1000
0100
0010
0001
1000
0010
,
2000
0000
0000
0000
3100
0010
0001
1000
0001
0100
0010
0100
0001
1000
0100
0010
,
0002
0000
0103
0010
1000
0010
0100
0001
1000
0100
0010
0001
0100
0001
1000
0010
,
0200
0000
0000
0000
0301
1000
0010
1000
0100
0010
0001
0100
0001
1000
0010
0100
,
0002
0000
0013
0100
1000
0010
0100
0010
1000
0001
0010
0001
0100
0010
1000
0001
,
0020
0000
0000
0000
0130
1000
0001
0100
0010
1000
0001
0010
0001
1000
0010
0100
,
0020
0000
1030
0001
0100
0001
0010
0100
1000
0001
0100
0010
0100
0001
1000
0010
,
2000
0000
0000
0000
3001
0010
0100
1000
0010
0100
0001
1000
0010
1000
0100
0010
,
0002
0000
0103
0010
1000
0010
0100
0001
1000
0100
0010
0001
0100
0001
1000
0010
,
0200
0000
0000
0000
0301
1000
0010
1000
0100
0010
0001
0100
0001
1000
0010
0100
,
0002
0000
0013
0100
1000
0010
0100
0010
1000
0001
0010
0001
0100
0010
1000
0001
,
0020
0000
0000
0000
0130
1000
0001
0100
0010
1000
0001
0010
0001
1000
0010
0100
,
0020
0000
1030
0001
0100
0001
0010
0100
1000
0001
0100
0010
0100
0001
1000
0010
,
2000
0000
0000
0000
3010
0100
0001
1000
0001
0100
0010
0100
0001
1000
0100
0010
,
0002
0000
0103
0010
1000
0010
0100
0001
1000
0100
0010
0001
0100
0001
1000
0010
,
0200
0000
0000
0000
0301
1000
0010
1000
0100
0010
0001
0100
0001
1000
0010
0100
,
0001
0010
0000
0001
0010
0000
0001
0010
0000
0001
0010
0000
0001
0000
0000
0000
,
1000
0010
0000
1000
0010
0000
1000
0010
0000
1000
0010
0000
1000
0000
0000
0000
,
0001
0100
0000
0001
0100
0000
0001
0100
0000
0001
0100
0000
0001
0000
0000
0000
,
1000
0001
0000
1000
0001
0000
1000
0001
1000
0100
0010
0001
0100
0010
0100
0001
,
1000
0001
0000
1000
0001
0000
1000
0001
0000
1000
0001
0000
1000
0001
0000
1000
,
0001
0000
1000
0001
0000
1000
0001
0000
1000
0001
0000
1000
0001
0000
1000
0001
,
0000
1000
0001
0000
1000
0001
0000
1000
0001
0000
1000
0001
0000
1000
0001
0000
,
1000
0001
0000
1000
0001
0000
0000
0000
0000
0000
0000
0000
0000
0000
0000
0000
;

//---------------dance-single - ----------------
#NOTES:
     dance-single:
     :
     Hard:
     16:
     1.000,1.000,0.000,0.696,1.000,2482.000,0.000,211.000,0.000,0.000:
1000
0100
0000
1000
0100
0000
1000
0100
0000
1000
0100
0000
2000
0000
0000
0000
,
3001
0010
0000
0001
0010
0000
0001
0010
0000
0001
0010
0000
0002
0000
0000
0000
,
1003
0010
0000
1000
0010
0000
1000
0010
0000
1000
0010
0000
2000
0000
0000
0000
,
3001
1000
0000
0001
1000
0000
0001
1000
0001
0100
0010
1000
0010
0100
0001
1000
,
0001
0100
0010
0000
1000
0100
1000
0001
0100
0000
0001
1000
0100
1000
0010
0100
,
0001
1000
0100
0000
1000
0001
0100
0001
0010
0100
1000
0000
0001
0100
0010
0100
,
0001
1000
0010
0000
1000
0001
1000
0010
0100
0001
0100
0000
0010
1000
0001
0010
,
0100
1000
0010
0000
1000
0001
0010
0001
0100
0010
1000
0000
0001
0010
0100
1000
,
0001
1000
0010
0000
1000
0001
1000
0010
0100
0001
1000
0010
1000
0001
0010
0100
,
1000
0001
1000
0000
0001
0010
0100
1000
0010
0100
0001
0000
1000
0100
0010
0001
,
1000
0001
0010
0000
0100
1000
0010
1000
0001
0100
0001
0000
0010
0100
1000
0001
,
0100
0010
0100
0000
0001
0010
0100
1000
0001
0010
0001
0000
1000
0010
0100
0000
,
0001
1000
0100
0000
0010
0001
1000
0010
0100
0001
1000
0010
0100
0001
0100
0010
,
1000
0001
1000
0000
0001
0010
0100
1000
0001
0100
0001
0000
1000
0100
1000
0001
,
0100
0001
0010
0000
0100
1000
0010
1000
0001
0100
0001
0000
0010
0100
1000
0001
,
0100
0010
0100
0000
0001
0010
0100
1000
0001
0010
0001
0000
1000
0001
0010
0000
,
0200
2300
3020
0230
0302
2003
3002
0023
,
0230
2300
3020
0230
0320
2030
3002
2003
,
3200
0320
0032
0203
0302
2003
3020
0230
,
0302
2003
3002
0023
0230
2300
3020
0230
,
0320
2030
3002
0023
0032
0203
0320
2030
,
3002
0023
0230
2300
3002
0203
0302
2003
,
3020
0230
0320
2030
3002
0023
0230
2300
,
3002
0000
0203
0000
0320
0000
0230
0000
0302
0000
2003
0000
3020
0000
1030
0001
,
1000
0100
0010
0001
1000
0010
0100
0001
0100
0010
1000
0001
1000
0100
0010
0001
,
0100
0010
0100
0001
1000
0100
1000
0010
0100
0001
0100
0010
1000
0001
1000
0100
,
0010
0001
1000
0100
1000
0001
0100
0010
0100
0001
1000
0001
0010
0100
1000
0001
,
0100
0001
1000
0010
0100
0001
0100
0010
1000
0001
0010
0001
1000
0100
1000
0010
,
0100
0001
0100
0010
1000
0001
1000
0100
0010
0001
0100
0010
0100
0001
1000
0100
,
0010
0001
1000
0001
0100
0010
1000
0001
0010
0001
0100
0010
1000
0001
0010
0100
,
1000
0001
0100
0001
0010
0100
1000
0010
0100
0001
1000
0100
1000
0010
0100
0001
,
0100
0010
1000
0001
1000
0100
0010
0001
0100
0010
0100
0001
1000
0010
1000
0001
,
0100
0010
0100
0001
1000
0100
0010
0001
1000
0010
0100
0001
0100
0010
1000
0001
,
1000
0100
0010
0001
0100
0010
1000
0010
0100
0001
1000
0001
0010
0100
1000
0001
,
0010
0001
0100
0010
0100
0001
1000
0010
1000
0100
0010
0001
0100
0010
0100
0001
,
1000
0100
1000
0010
0100
0001
1000
0100
0010
0001
1000
0100
1000
0001
0100
0010
,
0100
0001
1000
0010
1000
0100
0010
0001
0100
0010
1000
0001
0010
0001
0100
0010
,
0100
0001
1000
0010
1000
0100
0010
0001
0100
0010
1000
0010
0100
0001
1000
0100
,
1000
0010
0100
0001
1000
0100
0010
0001
1000
0100
1000
0001
0100
0010
0100
0001
,
1000
0010
1000
0001
0100
0001
0010
0100
1000
0001
0010
0001
0100
0010
0100
0001
,
1000
0010
1000
0100
0010
0001
0100
0010
1000
0010
0100
0001
1000
0100
1000
0001
,
0100
0010
0100
0001
1000
0001
0010
0100
1000
0001
0010
0001
0100
0010
1000
0001
,
0010
0100
1000
0001
0100
0001
1000
0010
0100
0001
0100
0010
1000
0001
0010
0001
,
1000
0100
1000
0010
0100
0001
0100
0010
1000
0001
1000
0100
0010
0001
0100
0010
,
1000
0002
0013
0200
1300
0002
0103
0002
,
1003
0020
0130
0002
1003
0200
1300
0020
,
0130
0000
0002
0000
1003
0000
0100
0010
0001
0000
2000
0000
3010
0100
0001
1000
,
0100
1000
0010
0100
0001
1000
0100
0010
0001
1000
0010
0100
0010
1000
0001
0100
,
0001
0010
0100
1000
0001
0010
0001
0100
0010
0100
0001
1000
0010
1000
0100
0010
,
0001
0100
0010
0100
0001
1000
0100
1000
0010
0100
0001
1000
0100
0010
0001
1000
,
0100
1000
0001
0100
0010
0100
0001
1000
0010
1000
0100
0010
0001
0100
0010
1000
,
0001
0010
0001
0100
0010
0100
0001
1000
0010
1000
0100
0010
0001
0100
0010
1000
,
0010
0100
0001
1000
0100
1000
0010
0100
0001
1000
0100
0010
0001
1000
0100
1000
,
0001
0100
0010
0100
0001
1000
0010
1000
0001
0100
0001
0010
0100
1000
0001
0010
,
0001
0100
0010
0100
0001
1000
0010
1000
0100
0010
0001
0100
0010
1000
0010
0100
,
0001
1000
0100
1000
0001
0100
0010
0100
0001
1000
0001
0010
0100
1000
0001
0010
,
0001
0100
0010
1000
0001
0010
0100
1000
0001
0100
0001
1000
0010
0100
0001
0100
,
0010
1000
0001
0010
0001
1000
0100
1000
0010
0100
0001
0010
0100
1000
0001
0010
,
0001
0100
0010
0100
0001
1000
0010
1000
0100
0010
0001
0100
0010
0100
0001
1000
,
0100
1000
0010
0100
0001
1000
0100
0010
0001
1000
0100
1000
0001
0100
0010
0100
,
0001
1000
0010
1000
0100
0010
0001
0100
0010
1000
0001
0010
0001
0100
0010
0100
,
0001
1000
0010
1000
0100
0010
0001
0100
0010
1000
0010
0100
0001
1000
0100
1000
,
0010
0100
0001
1000
0100
1000
0010
0100
,
0001
1000
0100
0010
0001
1000
0010
0100
,
0002
0003
2000
3200
0300
0020
0032
2003
,
3020
0030
0200
0302
0003
2000
3200
2300
,
3020
0030
0200
0302
0003
2000
3200
0320
,
0032
0003
2000
3020
0030
0200
0302
2003
,
3200
0300
0020
0032
0003
2000
3020
0230
,
0320
0030
2000
3002
0003
0020
0230
2300
,
3002
0003
0200
0320
0030
2000
3200
2300
,
3002
0003
0020
0230
0300
2000
3002
2003
,
3002
0000
0000
0000
,
0203
0000
0000
0000
,
0320
0000
0000
0000
,
2030
0000
0000
0000
,
3002
0000
0000
0000
,
2003
0000
0000
0000
,
3002
0000
0000
0000
,
1000
0103
0010
0001
0010
0100
1000
0100
0010
0001
1000
0001
0010
0000
0000
0000
,
1000
0001
0010
0001
1000
0010
0100
0001
0100
0010
1000
0001
0010
0100
1000
0010
,
0100
0001
1000
0100
0010
0001
1000
0100
1000
0001
0100
0010
0100
0001
1000
0001
,
0010
0100
1000
0001
0100
0001
1000
0010
0100
0001
0100
0010
1000
0001
0010
0001
,
1000
0100
1000
0010
0100
0001
0100
0010
1000
0001
1000
0100
0010
0001
0100
0010
,
0100
0001
1000
0100
0010
0001
1000
0001
0100
0010
1000
0001
0010
0001
0100
0010
,
1000
0001
0010
0100
1000
0001
0100
0001
0010
0100
1000
0010
0100
0001
1000
0100
,
1000
0010
0100
0001
0100
0010
1000
0001
1000
0100
0010
0001
0100
0010
0100
0001
,
1000
0010
1000
0001
0100
0010
0100
0001
1000
0100
0010
0001
1000
0010
0100
0001
,
0100
0010
1000
0001
1000
0100
0010
0001
0100
0010
1000
0010
0100
0001
1000
0001
,
0010
0100
1000
0001
0010
0001
0100
0010
0100
0001
1000
0010
1000
0100
0010
0001
,
0100
0010
0100
0001
1000
0100
1000
0010
0100
0001
1000
0100
0010
0001
1000
0100
,
1000
0001
0100
0010
0100
0001
1000
0010
1000
0100
0010
0001
0100
0010
1000
0001
,
0010
0001
0100
0010
0100
0001
1000
0010
1000
0100
0010
0001
0100
0010
1000
0010
,
0100
0001
1000
0100
1000
0010
0100
0001
1000
0100
0010
0001
1000
0100
1000
0001
,
0100
0010
0100
0001
1000
0010
1000
0001
0100
0001
0010
0100
1000
0001
0010
0001
,
0100
0010
0100
0001
1000
0010
1000
0100
0010
0001
0100
0010
1000
0010
0100
0001
,
1000
0100
1000
0001
0100
0010
0100
0001
1000
0001
0010
0100
1000
0001
0010
0001
,
0100
0010
1000
0001
0010
0100
1000
0001
0100
0001
1000
0010
0100
0001
0100
0010
,
1000
0001
0010
0001
1000
0100
1000
0010
0100
0001
0100
0010
1000
0001
1000
0100
,
0010
0001
0100
0010
1000
0100
1000
0001
0010
0001
0100
0010
1000
0001
0100
0001
,
1000
0100
0010
0001
0100
0001
1000
0010
0100
0001
0100
0010
1000
0001
1000
0100
,
0010
0001
1000
0100
1000
0001
0100
0010
2000
0000
0000
0000
3002
0000
0000
0000
,
1003
0100
0010
0001
1000
0010
0100
0001
0100
0010
1000
0001
0010
0001
0100
0010
,
1000
0010
0100
0001
1000
0100
1000
0001
0100
0010
0100
0001
1000
0000
0000
0000
,
1000
0010
0100
0001
0100
0010
1000
0001
0010
0001
0100
0010
0100
0001
1000
0010
,
1000
0100
0010
0001
1000
0100
1000
0001
0100
0010
0100
0001
1000
0001
0100
0010
,
0100
0001
1000
0100
0010
0001
1000
0100
1000
0001
0100
0010
1000
0000
0000
0000
,
0100
0010
0100
0001
1000
0100
1000
0010
0100
0001
1000
0100
0010
0001
1000
0010
,
0100
0010
1000
0001
0010
0001
0100
0010
0100
0001
1000
0010
1000
0100
0010
0001
,
1000
0100
1000
0010
0100
0001
0100
0010
1000
0001
1000
0100
0010
0001
1000
0010
,
0100
0010
1000
0001
0010
0001
0100
0010
0100
0001
1000
0100
1000
0010
0100
0001
,
1000
0100
0010
0001
0100
0010
0100
0001
1000
0100
1000
0010
0100
0001
1000
0100
,
0010
0001
1000
0010
0100
0001
1000
0100
1000
0010
0100
0001
0100
0010
1000
0001
,
0010
0001
0100
0010
1000
0001
0010
0100
1000
0001
0010
0001
0100
0010
0100
0001
,
1000
0010
1000
0100
0010
0001
0100
0010
1000
0001
0100
0001
0010
0100
1000
0001
,
0100
0010
1000
0100
1000
0001
0010
0001
1000
0100
0010
0001
0100
0010
0100
0001
,
1000
0100
1000
0010
0100
0001
1000
0100
0010
0001
0100
0010
0100
0001
1000
0010
,
0100
0010
1000
0001
0100
0001
0010
0100
1000
0010
0100
0001
1000
0100
1000
0001
,
0100
0010
0100
0001
1000
0100
1000
0010
0100
0001
0100
0010
1000
0001
1000
0100
,
0010
0001
1000
0010
0100
0001
0100
0010
1000
0001
0010
0100
1000
0001
0100
0010
,
1000
1000
0002
0000
0103
0100
0020
0000
,
1030
1000
0002
0000
0103
0100
0020
0000
,
1030
1000
0002
0000
0103
0100
0020
0000
,
1030
0000
1000
0000
0002
0000
0000
0000
0103
0001
1000
0100
0010
0000
0010
0000
,
0200
0000
1300
1000
0002
0000
0103
0100
,
0020
0000
1030
0001
0200
0000
0310
1000
,
0002
0000
0103
0010
2000
0000
3001
0100
,
0020
0000
0000
0000
1030
0000
0001
0000
0100
0001
1000
0010
1000
0000
0000
0000
,
1000
0100
0010
0001
1000
0010
0100
0010
1000
0001
0100
0001
0010
0100
1000
0001
,
0010
0001
0100
0010
0100
0001
1000
0010
1000
0100
0010
0001
0100
0010
0100
0001
,
1000
0100
1000
0010
0100
0001
1000
0100
0010
0001
1000
0100
1000
0001
0100
0010
,
0100
0001
1000
0010
1000
0100
0010
0001
0100
0010
1000
0001
0010
0001
0100
0010
,
1000
0100
1000
0100
0010
0001
0010
0001
,
0100
0010
0100
0010
1000
0100
1000
0100
,
0010
0001
0010
0001
1000
0100
1000
0100
,
0010
0001
0010
0001
0100
0010
0100
0010
,
1000
0100
1000
0100
0010
0001
0100
0010
1000
0100
0010
0001
0010
0000
0000
0000
,
0100
1000
0001
0010
0001
1000
0100
1000
0010
0100
0001
1000
0100
0010
0001
0100
,
0010
1000
0001
0100
0010
0100
0001
1000
0100
1000
0010
0100
0001
1000
0100
0010
,
0001
0100
0001
1000
0010
0100
0001
0100
0010
1000
0001
0010
0100
1000
0001
1000
,
0100
0010
0001
1000
0100
1000
0001
0100
0010
0100
0001
1000
0010
1000
0100
0010
,
0001
1000
0010
1000
0100
0010
0001
0100
0001
1000
0010
0100
0010
1000
0001
0010
,
0001
0100
0010
0100
0001
1000
0010
1000
0100
0010
0001
1000
0010
0100
0001
1000
,
0010
0100
0010
1000
0001
0010
0100
1000
0001
0010
0001
1000
0010
0100
0010
1000
,
0002
0013
0200
2300
3010
0200
0302
2003
,
3200
0310
0002
2003
3010
0200
0302
2003
,
3200
1300
0020
0230
0301
2000
3002
0023
,
0230
1300
0020
0230
0310
2000
3002
0023
,
0032
1003
0200
2300
3010
0200
0302
2003
,
3200
0310
0002
2003
3010
0200
0302
2003
,
3200
1300
0020
0230
0301
2000
3002
0023
,
0230
1300
0020
0230
0310
2000
3002
0023
,
0031
1000
0010
1000
0100
0010
0001
0100
0010
1000
0010
0100
0001
1000
0100
1000
,
0001
0100
0010
0100
0001
1000
0001
0010
0100
1000
0001
0010
0001
0100
0010
1000
,
0001
0010
0100
1000
0001
0100
0001
1000
0010
0100
0001
0100
0010
1000
0001
0010
,
0001
1000
0100
1000
0010
0100
0001
0010
0100
1000
0001
0010
0001
0100
0010
0100
,
0001
1000
0010
1000
0100
0010
0001
0100
0010
0100
0001
1000
0100
1000
0010
0100
,
0001
1000
0100
0010
0001
1000
0100
1000
0001
0100
0010
0100
0001
1000
0010
1000
,
0100
0010
0001
0100
0010
1000
0001
0010
0001
0100
0010
0100
0001
1000
0010
1000
,
0100
0010
0001
0100
0010
1000
0010
0100
0001
1000
0010
1000
0100
0010
0001
0100
,
0010
0000
0000
1000
0100
0000
1000
0100
0000
1000
0100
0000
1000
0000
0010
0000
,
0100
0001
0000
0100
0001
0000
0100
0001
0000
0100
0001
0000
0010
0000
0100
0000
,
1000
0010
0000
1000
0010
0000
1000
0010
0000
1000
0010
0000
0100
0000
0001
0000
,
1000
0001
0000
1000
0001
0000
1000
0001
1000
0010
0100
0010
1000
0001
0010
0100
,
1000
0010
0000
1000
0010
0000
1000
0010
0000
1000
0010
0000
1000
0000
0001
0000
,
0010
0001
0000
0010
0001
0000
0010
0001
0000
0010
0001
0000
0100
0000
0010
0000
,
1000
0100
0000
1000
0100
0000
1000
0100
0000
1000
0100
0000
1000
0000
0010
0000
,
0100
0010
0000
0100
0010
0000
0100
0010
0100
0001
1000
0001
0010
0100
1000
0010
,
0100
0001
1000
0000
0100
0010
0001
1000
0010
0000
1000
0100
0010
0001
1000
0010
,
1000
0001
0100
0000
0010
1000
0010
0100
0001
1000
0100
0000
0010
0001
1000
0010
,
0100
0001
0100
0000
0010
1000
0010
0100
0001
1000
0100
0000
1000
0010
0100
0010
,
1000
0001
0010
0000
0100
1000
0001
0100
0001
1000
0010
0000
0100
0001
0100
0000
,
0020
0000
1030
0100
1000
0001
0100
0010
0100
0001
1000
0100
0010
0001
1000
0010
,
2000
0000
0000
0000
3100
0010
0001
1000
0001
0100
0010
0100
0001
1000
0100
0010
,
0002
0000
0103
0010
1000
0010
0100
0001
1000
0100
0010
0001
0100
0001
1000
0010
,
0200
0000
0000
0000
0301
1000
0010
1000
0100
0010
0001
0100
0001
1000
0010
0100
,
0002
0000
0013
0100
1000
0010
0100
0010
1000
0001
0010
0001
0100
0010
1000
0001
,
0020
0000
0000
0000
0130
1000
0001
0100
0010
1000
0001
0010
0001
1000
0010
0100
,
0020
0000
1030
0001
0100
0001
0010
0100
1000
0001
0100
0010
0100
0001
1000
0010
,
2000
0000
0000
0000
3001
0010
0100
1000
0010
0100
0001
1000
0010
1000
0100
0010
,
0002
0000
0103
0010
1000
0010
0100
0001
1000
0100
0010
0001
0100
0001
1000
0010
,
0200
0000
0000
0000
0301
1000
0010
1000
0100
0010
0001
0100
0001
1000
0010
0100
,
0002
0000
0013
0100
1000
0010
0100
0010
1000
0001
0010
0001
0100
0010
1000
0001
,
0020
0000
0000
0000
0130
1000
0001
0100
0010
1000
0001
0010
0001
1000
0010
0100
,
0020
0000
1030
0001
0100
0001
0010
0100
1000
0001
0100
0010
0100
0001
1000
0010
,
2000
0000
0000
0000
3010
0100
0001
1000
0001
0100
0010
0100
0001
1000
0100
0010
,
0002
0000
0103
0010
1000
0010
0100
0001
1000
0100
0010
0001
0100
0001
1000
0010
,
0200
0000
0000
0000
0301
1000
0010
1000
0100
0010
0001
0100
0001
1000
0010
0100
,
0001
0010
0000
0001
0010
0000
0001
0010
0000
0001
0010
0000
0001
0000
0000
0000
,
1000
0010
0000
1000
0010
0000
1000
0010
0000
1000
0010
0000
1000
0000
0000
0000
,
0001
0100
0000
0001
0100
0000
0001
0100
0000
0001
0100
0000
0001
0000
0000
0000
,
1000
0001
0000
1000
0001
0000
1000
0001
1000
0100
0010
0001
0100
0010
0100
0001
,
1000
0001
0000
1000
0001
0000
1000
0001
0000
1000
0001
0000
1000
0001
0000
1000
,
0001
0000
1000
0001
0000
1000
0001
0000
1000
0001
0000
1000
0001
0000
1000
0001
,
0000
1000
0001
0000
1000
0001
0000
1000
0001
0000
1000
0001
0000
1000
0001
0000
,
1000
0001
0000
1000
0001
0000
0000
0000
0000
0000
0000
0000
0000
0000
0000
0000
;

//---------------dance-single - ----------------
#NOTES:
     dance-single:
     :
     Medium:
     10:
     0.724,1.000,0.040,0.726,0.135,1303.000,12.000,220.000,0.000,0.000:
1000
0100
0000
1000
0100
0000
1000
0100
0000
1000
0100
0000
2000
0000
0000
0000
,
3001
0010
0000
0001
0010
0000
0001
0010
0000
0001
0010
0000
0002
0000
0000
0000
,
1003
0010
0000
1000
0010
0000
1000
0010
0000
1000
0010
0000
2000
0000
0000
0000
,
3001
1000
0000
0001
1000
0000
0001
1000
0001
0100
0010
1000
0010
0100
0001
1000
,
0001
0100
0010
0000
0100
0000
0010
0000
1000
0000
0010
0000
0100
0000
0001
0000
,
0010
0001
1000
0001
0100
0010
1000
0010
,
0100
0001
0010
0001
1000
0001
0100
0010
,
1000
0100
0010
0001
0100
0010
1000
0010
,
1010
0000
0010
0000
0110
0000
0010
0100
,
0110
0000
0001
0000
0011
0000
0001
0100
,
0001
0000
0100
0000
0110
0000
0010
1000
,
0010
0000
0100
0000
0101
0000
0001
0010
,
0001
0000
0100
0000
0110
0000
0010
1000
,
0001
0000
0101
0000
0010
0000
1000
0001
,
0100
0000
0010
0000
1010
0000
0001
0100
,
0001
0000
1000
0000
1001
0000
0000
0010
,
0200
2300
3020
0230
0302
2003
3002
0023
,
0230
2300
3020
0230
0320
2030
3002
2003
,
3200
0320
0032
0203
0302
2003
3020
0230
,
0302
2003
3002
0023
0230
2300
3020
0230
,
0320
2030
3002
0023
0032
0203
0320
2030
,
3002
0023
0230
2300
3002
0203
0302
2003
,
3020
0230
0320
2030
3002
0023
0230
2300
,
3002
0203
0320
0230
0302
2003
3020
1030
,
0100
0010
0001
0010
0100
1000
0001
0100
,
0010
1000
0100
0010
0001
0010
0100
1000
,
0001
0100
0010
1000
0001
0010
0100
1000
,
0100
0010
0001
0100
0010
0100
0001
0010
,
0100
1000
0100
0010
0001
0100
0010
0100
,
0001
0010
0100
1000
0100
0010
0100
1000
,
0001
0100
0010
1000
0100
0010
0100
1000
,
0001
0010
0100
1000
0100
0010
0001
0100
,
0010
0100
0001
0010
0100
1000
0100
0010
,
0100
1000
0001
0100
0010
1000
0100
0010
,
0100
1000
0001
0010
0100
1000
0100
0010
,
0001
0100
0010
0100
0001
0010
0100
1000
,
0100
0010
0001
0100
0010
0100
0001
0010
,
0100
1000
0100
0010
0100
1000
0001
0100
,
0010
1000
0001
0010
0100
1000
0100
0010
,
0001
0100
0010
1000
0001
0010
0100
1000
,
0100
0010
0100
1000
0001
0100
0010
1000
,
0001
0010
0100
1000
0100
0010
0001
0100
,
0010
1000
0001
0100
0010
1000
0001
0010
,
0100
1000
0100
0010
0001
1000
0001
0100
,
1000
0002
0013
0200
1300
0002
0103
0002
,
1003
0020
0130
0002
1003
0200
1300
0020
,
0130
0000
0002
0000
1003
0000
0100
0010
0001
0000
2000
0000
3000
0000
1000
0000
,
0001
0010
0100
1000
0100
1000
0100
0010
,
0001
1000
0100
1000
0010
1000
0100
1000
,
0100
0010
1000
0010
1000
0010
1000
0010
,
0100
0001
0100
0001
0010
0100
1000
0100
,
1000
0001
0010
0100
0010
0100
1000
0100
,
0010
0001
0010
0100
1000
0100
0010
0001
,
1000
0010
0100
0001
1000
0100
1000
0001
,
1000
0010
0001
0100
0010
1000
0100
1000
,
0100
0010
0001
1000
0010
0100
0001
0100
,
0010
1000
0010
1000
0100
1000
0010
0100
,
0001
1000
0100
0010
0100
0010
1000
0100
,
0010
0001
0100
0010
1000
0010
0100
0010
,
1000
0100
1000
0100
0010
0100
0010
0001
,
0010
0100
0010
0001
0100
0010
0100
0001
,
1000
0010
1000
0100
0010
0001
0100
0000
,
0010
0100
0001
1000
0100
1000
0010
0100
,
0001
1000
0100
0010
0001
1000
0010
0100
,
0002
0003
2000
3200
0300
0020
0032
2003
,
3020
0030
0200
0302
0003
2000
3200
2300
,
3020
0030
0200
0302
0003
2000
3200
0320
,
0032
0003
2000
3020
0030
0200
0302
2003
,
3200
0300
0020
0032
0003
2000
3020
0230
,
0320
0030
2000
3002
0003
0020
0230
2300
,
3002
0003
0200
0320
0030
2000
3200
2300
,
3002
0003
0020
0230
0300
2000
3002
2003
,
3002
0000
0000
0000
,
0203
0000
0000
0000
,
0320
0000
0000
0000
,
2030
0000
0000
0000
,
3002
0000
0000
0000
,
2003
0000
0000
0000
,
3002
0000
0000
0000
,
1003
0000
0010
0000
,
0100
0000
0001
0100
0000
0100
0000
0001
,
0010
0000
0010
0001
0000
0001
0000
0001
,
0010
0000
0010
0001
0000
0001
0000
0001
,
0100
0000
0100
0010
0000
0010
0000
1000
,
0010
0000
0010
0100
0000
0100
0000
0100
,
0001
0000
0001
0010
0000
0010
0000
0010
,
0001
0000
0001
0100
0000
0100
0000
0100
,
0001
0000
0001
0010
0000
0010
0000
0010
,
0001
0001
0001
0001
,
1000
0010
1000
0000
0001
0000
0001
0000
,
0100
0010
0100
0000
0001
0000
0010
0000
,
0001
0100
0001
0000
0010
0000
0100
0000
,
0110
0000
0001
0000
1000
0001
1000
0000
,
0010
0000
0100
0000
0001
0010
0001
0000
,
0100
0000
0010
0000
1000
0010
1000
0000
,
0001
0000
0100
0000
0010
1000
0010
0000
,
1010
0000
0010
0000
0100
0001
0010
0001
,
0100
0000
0001
0000
0010
0001
0100
0001
,
0010
0010
0010
0000
0001
1000
0001
0100
,
0001
0001
0001
0000
0010
0100
1000
0100
,
0010
0010
0010
0000
0001
0001
0001
0000
,
1000
0001
2000
3002
,
1003
0010
0100
0001
,
0010
0001
0100
0010
,
1000
0100
1000
0100
0010
0001
0010
0001
,
0100
0010
0100
0010
1000
0100
1000
0100
,
0020
0032
2003
3002
,
1003
0010
0100
0001
,
0010
0001
0100
0010
,
1000
0010
1000
0010
2000
0000
0000
0000
,
3010
0100
0010
0100
0020
0000
0000
0000
,
1030
0001
1000
0001
0100
0001
0010
0001
,
0200
0000
0320
0000
,
2030
0000
3002
0000
,
0203
0000
0320
0000
,
2030
0000
3002
0000
,
0013
0010
0100
0100
,
1000
0001
0100
0010
,
1000
0001
1000
0000
0010
0100
0010
0000
,
1000
1000
0001
0000
,
1000
1000
0002
0000
0103
0100
0020
0000
,
1030
1000
0002
0000
0103
0100
0020
0000
,
1030
1000
0002
0000
0103
0100
0020
0000
,
1030
1000
0002
0000
0103
1000
0100
0010
,
0200
0000
1300
1000
0002
0000
0103
0100
,
0020
0000
1030
0001
0200
0000
0310
1000
,
0002
0000
0103
0010
2000
0000
3001
0100
,
0020
0000
1030
0001
0100
0000
1000
0000
,
0001
0100
0001
0100
0010
1000
0010
1000
,
0001
0100
0001
0100
0010
1000
0010
1000
,
0001
0010
0001
0010
0100
1000
0100
1000
,
0001
1000
0001
1000
0001
1000
0001
1000
,
1000
0100
1000
0100
0010
0001
0010
0001
,
0100
0010
0100
0010
1000
0100
1000
0100
,
0010
0001
0010
0001
1000
0100
1000
0100
,
0010
0001
0010
0001
0100
0010
0100
0010
,
1000
1000
0010
0100
0001
0010
0010
0000
,
0100
0001
0001
0100
0010
0000
0000
0000
,
0010
0001
0010
0001
0010
0001
0010
0001
,
1000
0001
1000
0001
1000
0001
1000
0001
,
0100
0010
0100
0010
0100
0010
0100
0010
,
1000
0010
1000
0010
1000
0010
1000
0010
,
2000
0000
3002
0000
,
0203
0000
0000
0000
0320
0000
0000
0030
,
0002
0013
0200
2300
3010
0200
0302
2003
,
3200
0310
0002
2003
3010
0200
0302
2003
,
3200
1300
0020
0230
0301
2000
3002
0023
,
0230
1300
0020
0230
0310
2000
3002
0023
,
0032
1003
0200
2300
3010
0200
0302
2003
,
3200
0310
0002
2003
3010
0200
0302
2003
,
3200
1300
0020
0230
0301
2000
3002
0023
,
0230
1300
0020
0230
0310
2000
3002
0023
,
0130
1000
0001
0100
,
0010
1000
0010
1000
0010
1000
0010
0000
,
1000
0001
1000
0001
1000
0001
1000
0000
,
0001
0010
0001
0010
0001
0010
0001
0000
,
1000
0100
0010
0001
1000
0100
0010
0001
,
1000
0010
0100
0001
1000
0010
0100
0001
,
1000
0100
0010
0001
1000
0100
0010
0001
,
1000
0001
1000
0001
,
0010
0000
0000
1000
0100
0000
1000
0100
0000
1000
0100
0000
1000
0000
0010
0000
,
0100
0001
0000
0100
0001
0000
0100
0001
0000
0100
0001
0000
0010
0000
0100
0000
,
1000
0010
0000
1000
0010
0000
1000
0010
0000
1000
0010
0000
0100
0000
0001
0000
,
1000
0001
0000
1000
0001
0000
1000
0000
1000
0000
0100
0000
1000
0000
0010
0000
,
1000
0010
0000
1000
0010
0000
1000
0010
0000
1000
0010
0000
1000
0000
0001
0000
,
0010
0001
0000
0010
0001
0000
0010
0001
0000
0010
0001
0000
0100
0000
0010
0000
,
1000
0100
0000
1000
0100
0000
1000
0100
0000
1000
0100
0000
1000
0000
0010
0000
,
0100
0010
0000
0100
0010
0000
0100
0010
0100
0000
0001
0000
0001
0000
0100
0000
,
0010
1000
0100
0010
0001
1000
0010
0100
,
0010
1000
0010
0100
0001
0100
0010
1000
,
0010
1000
0010
0100
0001
0100
0010
1000
,
0010
1000
0100
0010
0001
0010
0100
0001
,
0020
0030
0100
1000
0010
0100
0001
0010
,
0001
0000
0100
0001
0001
0010
0001
0100
,
0002
0003
0010
0010
0001
0010
0001
0001
,
0010
0000
0001
0010
0100
1000
0100
0010
,
0002
0003
0100
0010
1000
0010
0100
0010
,
1000
0000
0100
0001
0010
1000
0001
0100
,
0020
0030
0001
0010
0100
1000
0100
0010
,
0001
0000
0001
0010
0100
1000
0010
0100
,
0002
0003
0010
0001
0010
0001
0010
0001
,
0010
0000
0001
0010
0100
1000
0001
0010
,
0002
0003
0100
0010
0001
0010
0001
0010
,
0001
0000
0100
0001
0010
0100
1000
0001
,
0020
0030
0001
0010
0100
1000
0010
1000
,
0010
0010
0100
0000
,
0001
0000
0010
0000
,
0000
0000
0000
0000
,
0001
0010
0000
0001
0010
0000
0001
0010
0000
0001
0010
0000
0001
0000
0000
0000
,
1000
0010
0000
1000
0010
0000
1000
0010
0000
1000
0010
0000
1000
0000
0000
0000
,
0001
0100
0000
0001
0100
0000
0001
0100
0000
0001
0100
0000
0001
0000
0000
0000
,
1000
0001
0000
1000
0001
0000
1000
0001
1000
0000
0010
0000
1000
0000
0100
0000
,
1000
0001
0000
1000
0001
0000
1000
0001
0000
1000
0001
0000
1000
0001
0000
1000
,
0001
0000
1000
0001
0000
1000
0001
0000
1000
0001
0000
1000
0001
0000
1000
0001
,
0000
1000
0001
0000
1000
0001
0000
1000
0001
0000
1000
0001
0000
1000
0001
0000
,
1000
0001
0000
1000
0001
0000
0000
0000
0000
0000
0000
0000
0000
0000
0000
0000
;

//---------------dance-single - ----------------
#NOTES:
     dance-single:
     :
     Easy:
     5:
     0.256,0.317,0.056,0.049,0.000,510.000,17.000,15.000,0.000,0.000:
1000
0000
0000
0001
,
0100
0000
0000
0010
,
1000
0000
0000
0001
,
0010
0000
0000
0100
,
1000
0000
0000
0000
,
0010
0000
0000
0000
,
0100
0000
0000
0000
,
0001
0000
0000
0000
,
1001
0000
1001
0000
,
0010
0000
1001
0000
,
0100
0000
1001
0000
,
0010
0000
1001
0000
,
0100
0000
1001
0000
,
0010
0000
1001
0000
,
0100
0100
1001
0000
,
0010
0000
0100
0000
,
1000
0000
0010
0000
,
0100
0000
0001
0000
,
0100
0000
0100
0000
,
0010
0000
1000
0000
,
0000
0000
0001
0000
,
0100
0010
1000
0100
,
0001
0100
1000
0010
,
0100
0001
0100
0010
,
2000
0000
3002
0000
,
0203
0000
0320
0000
,
2030
0000
3002
0000
,
0203
0000
0320
0000
,
1030
0001
1000
0001
,
0100
0010
0100
0010
,
1000
0100
1000
0100
,
0020
0000
0000
0000
,
0031
1000
0001
1000
,
0001
0100
0001
0100
,
0010
1000
0010
1000
,
0002
0000
0003
0000
,
0100
0010
0100
0010
,
1000
0100
0010
0001
,
0100
0100
0010
0010
,
1000
1000
0001
0001
,
0200
0000
0000
0000
,
0320
0000
0000
0000
,
1030
0001
0100
0010
,
1000
0001
0010
0100
,
2000
0000
0000
0000
,
3002
0000
0000
0000
,
0103
0000
0000
0000
,
0010
0000
0000
0000
,
1000
0001
0100
0010
,
1000
0100
0010
0001
,
0100
0010
1000
0100
,
0010
0001
0100
0010
,
1001
0100
0010
0100
,
1000
0001
0100
0010
,
1000
0100
0010
0001
,
0100
0010
1000
0001
,
1000
1000
1000
1000
,
0010
0010
0010
0010
,
0100
0100
0100
0100
,
0001
1000
0001
0000
,
1000
0001
1000
0010
,
0100
0001
0010
0001
,
0100
0001
1000
0001
,
0010
0001
1000
0000
,
1000
0000
0000
0000
,
0001
0000
0000
0000
,
0100
0000
0000
0000
,
0010
0000
0000
0000
,
1000
0000
0000
0000
,
0010
0000
0000
0000
,
0100
0000
0000
0000
,
0001
0000
0000
0000
,
1001
0000
0000
0000
,
0010
0000
0000
0000
,
0100
0000
0000
0000
,
0010
0000
0000
0000
,
1000
0000
0000
0000
,
0010
0000
0000
0000
,
0100
0000
0000
0000
,
0010
0000
0000
0000
,
1001
0000
0001
0000
,
0001
0000
0100
0000
,
0100
0000
0010
0000
,
1000
0000
0001
0000
,
0100
0000
0100
0000
,
0010
0000
0010
0000
,
1000
0000
0100
0000
,
0001
0000
0010
0000
,
1001
0000
0001
0000
,
0100
0000
0010
0000
,
0010
0000
0100
0000
,
0100
0000
0010
0000
,
0010
0000
0100
0000
,
1000
0000
0010
0000
,
0010
0000
0100
0000
,
0100
0000
0010
0000
,
0001
0000
0000
0000
,
1000
0000
0000
0000
,
0010
0000
0000
0000
,
0100
0000
0000
0000
,
0001
0000
0000
0000
,
1000
0000
0000
0000
,
0001
0001
0001
0001
,
2000
0000
0000
0000
,
3010
0010
0010
0010
,
0100
0100
0100
0100
,
0001
0010
0001
0100
,
0010
1000
0010
0100
,
0001
0001
0001
0001
,
0010
0010
0010
0100
,
1000
0001
0100
0010
,
1000
0100
0010
0001
,
1001
0010
0010
0010
,
0100
0100
0100
0100
,
0001
0001
0001
0001
,
1000
1000
1000
1000
,
0010
0000
0010
0000
,
0100
0000
0100
0000
,
0100
0000
0010
0000
,
0010
0000
0000
0000
,
1001
0010
0010
0010
,
0010
0100
0001
0010
,
0001
0100
0001
0010
,
0001
0100
0010
1000
,
0001
0001
0100
0100
,
0010
1000
0001
0100
,
0010
1000
0100
0010
,
0001
0000
0000
0000
,
1001
0010
0100
0001
,
0010
0100
1000
0001
,
0010
0010
0100
1000
,
0001
0001
0100
0100
,
0010
1000
0010
0100
,
0001
0010
0100
1000
,
0001
0100
0010
1000
,
0010
0100
0010
1000
,
0001
0010
0100
1000
,
0100
0010
0001
0100
,
0010
1000
0010
0100
,
0001
0010
0100
1000
,
0001
0001
0100
0100
,
0010
0010
1000
1000
,
0001
0100
0010
1000
,
0100
0010
0001
0100
,
1001
0000
0010
0000
,
0100
0000
0000
0000
,
0001
0000
0000
0000
,
1000
0000
0000
0000
,
0010
0000
0000
0000
,
0100
0000
0000
0000
,
0010
0000
0000
0000
,
0100
0000
0000
0000
,
1001
0000
0001
0000
,
0100
0100
0100
0000
,
0010
0000
1000
0000
,
0001
1000
0001
0000
,
1000
0010
0100
0001
,
0010
0100
1000
0001
,
0100
0010
1000
0100
,
0010
0001
0100
0010
,
1000
0000
0000
0001
,
0100
0000
0000
0010
,
1000
0000
0000
0001
,
1000
0000
0000
0010
,
0100
0001
0000
0010
,
0100
1000
0000
0001
,
0100
0010
0000
1000
,
0001
0100
0000
0010
,
1000
0100
0001
0100
,
1000
0010
0001
0010
,
1000
0001
0100
1000
,
0010
0001
0010
0100
,
0001
0100
1000
0100
,
0001
0010
1000
0010
,
0001
0100
1000
0100
,
0001
0010
1000
0010
,
0001
0100
1000
0100
,
0001
0010
1000
0010
,
0001
0100
1000
0100
,
0001
0010
1000
0010
,
0001
0000
0000
0100
,
0010
0000
0000
1000
,
0001
0000
0000
1000
,
0010
0000
0000
0100
,
0001
0000
0000
0001
,
1000
0000
0000
0010
,
0100
0000
0000
0010
,
0100
0000
0000
0001
,
1000
0000
0000
0001
,
0100
0000
0000
0010
,
0100
0000
0000
0010
,
0100
0000
0000
0000
,
0001
0000
0000
0000
;

//---------------dance-single - ----------------
#NOTES:
     dance-single:
     :
     Beginner:
     3:
     0.130,0.158,0.000,0.000,0.000,275.000,0.000,0.000,0.000,0.000:

0000
0000
0000
0000
,
1000
0000
0000
0000
,
0001
0000
0000
0000
,
0100
0000
0000
0000
,
0010
0000
0000
0000
,
1000
0000
0000
0000
,
0010
0000
0000
0000
,
0100
0000
0000
0000
,
0001
0000
0000
0000
,
1000
0000
0000
0000
,
0010
0000
0000
0000
,
0100
0000
0000
0000
,
0001
0000
0000
0000
,
0010
0000
0000
0000
,
0100
0000
0000
0000
,
0010
0000
0000
0000
,
1000
0000
0000
0000
,
0001
0000
0000
0000
,
0100
0000
0000
0000
,
0010
0000
0000
0000
,
0100
0000
0100
0000
,
0100
0000
0010
0000
,
0010
0000
1000
0000
,
1000
0000
1000
0000
,
0001
0000
0100
0000
,
0010
0000
1000
0000
,
0001
0000
0010
0000
,
0100
0000
1000
0000
,
0010
0000
0100
0000
,
0001
0000
0010
0000
,
0100
0000
1000
0000
,
0001
0000
0100
0000
,
0010
0000
0010
0000
,
1000
0000
1000
0000
,
0001
0000
0100
0000
,
0010
0000
1000
0000
,
0100
0000
0010
0000
,
0001
0000
0100
0000
,
0010
0000
1000
0000
,
0001
0000
0010
0000
,
0100
0000
0100
0000
,
0100
0000
1000
0000
,
1000
0000
0001
0000
,
0001
0000
0001
0000
,
0100
0000
0100
0000
,
0100
0000
0100
0000
,
0100
0000
0010
0000
,
0000
0000
0000
0000
,
0010
0000
0000
0000
,
0010
0000
0000
0000
,
1000
0000
0000
0000
,
0001
0000
0000
0000
,
0100
0000
0000
0000
,
0010
0000
0000
0000
,
1000
0000
0000
0000
,
0001
0000
0000
0000
,
1000
0000
0000
0000
,
0010
0000
0000
0000
,
0100
0000
0000
0000
,
0001
0000
0000
0000
,
0010
0000
0000
0000
,
0100
0000
0000
0000
,
1000
0000
0000
0000
,
0010
0000
0000
0000
,
0100
0000
0000
0000
,
0001
0000
0000
0000
,
1000
0000
0000
0000
,
0010
0000
0000
0000
,
0100
0000
0000
0000
,
0001
0000
0000
0000
,
0010
0000
0000
0000
,
0100
0000
0000
0000
,
1000
0000
0000
0000
,
0001
0000
0000
0000
,
0100
0000
0000
0000
,
0010
0000
0000
0000
,
0100
0000
0000
0000
,
0010
0000
0000
0000
,
1000
0000
0000
0000
,
0010
0000
0000
0000
,
0100
0000
0000
0000
,
1000
0000
0000
0000
,
0001
0000
0000
0000
,
0100
0000
0000
0000
,
0010
0000
0000
0000
,
1000
0000
0000
0000
,
0100
0000
0000
0000
,
0010
0000
0000
0000
,
0001
0000
0000
0000
,
0100
0000
0000
0000
,
0010
0000
0000
0000
,
1000
0000
0000
0000
,
0100
0000
0000
0000
,
0010
0000
0000
0000
,
0001
0000
0000
0000
,
0100
0000
0000
0000
,
0010
0000
1000
0000
,
0010
0000
0100
0000
,
0001
0000
1000
0000
,
0100
0000
0010
0000
,
0001
0000
1000
0000
,
0010
0000
0100
0000
,
0001
0000
1000
0000
,
0100
0000
0100
0000
,
0010
0000
0010
0000
,
0010
0000
0001
0000
,
0001
0000
1000
0000
,
0010
0000
0100
0000
,
0001
0000
1000
0000
,
0010
0000
0100
0000
,
0001
0000
1000
0000
,
0100
0000
1000
0000
,
0010
0000
0000
0000
,
0100
0000
0000
0000
,
0001
0000
0000
0000
,
0100
0000
0000
0000
,
0010
0000
0000
0000
,
0010
0000
0000
0000
,
0100
0000
0000
0000
,
0001
0000
0000
0000
,
1000
0000
1000
0000
,
1000
0000
1000
0000
,
1000
0000
1000
0000
,
1000
0000
1000
0000
,
0010
0000
0010
0000
,
0010
0000
0010
0000
,
0100
0000
0100
0000
,
0001
0000
0001
0000
,
1000
0000
0010
0000
,
0100
0000
0001
0000
,
1000
0000
0100
0000
,
0010
0000
0001
0000
,
1000
0000
0010
0000
,
0100
0000
0001
0000
,
1000
0000
0100
0000
,
1000
0000
0001
0000
,
0100
0000
0010
0000
,
1000
0000
0100
0000
,
0010
0000
0010
0000
,
0010
0000
0010
0000
,
0100
0000
0100
0000
,
0100
0000
0100
0000
,
0001
0000
0001
0000
,
0001
0000
0001
0000
,
1000
0000
0000
0000
,
0010
0000
0000
0000
,
0100
0000
0000
0000
,
0001
0000
0000
0000
,
1000
0000
0000
0000
,
0001
0000
0000
0000
,
0100
0000
0000
0000
,
0010
0000
0000
0000
,
1000
0000
1000
0000
,
1000
0000
0010
0000
,
0010
0000
0100
0000
,
0001
0000
0100
0000
,
1000
0000
0001
0000
,
1000
0000
0001
0000
,
0100
0000
0010
0000
,
1000
0000
0001
0000
,
1000
0000
0001
0000
,
1000
0000
0000
0000
,
1000
0000
0000
0000
,
0001
0000
0000
0000
,
0100
0000
0000
0000
,
0010
0000
0000
0000
,
0100
0000
0000
0000
,
0001
0000
0000
0000
,
1000
0000
0001
0000
,
1000
0000
0010
0000
,
0100
0000
0001
0000
,
1000
0000
0100
0000
,
0010
0000
0100
0000
,
0001
0000
0010
0000
,
0100
0000
1000
0000
,
0001
0000
0100
0000
,
0010
0000
0000
0000
,
0010
0000
0000
0000
,
0100
0000
0000
0000
,
0100
0000
0000
0000
,
0010
0000
0000
0000
,
0010
0000
0000
0000
,
0010
0000
0000
0000
,
1000
0000
0000
0000
,
0001
0000
0000
0000
,
1000
0000
0000
0000
,
0001
0000
0000
0000
,
1000
0000
0000
0000
,
0010
0000
0000
0000
,
0010
0000
0000
0000
,
0100
0000
0000
0000
,
0010
0000
0000
0000
,
0100
0000
0000
0000
;
