#TITLE:History;
#SUBTITLE:(Radio Cut);
#ARTIST:Magic D. & 2 Jays feat. Nightcore;
#TITLETRANSLIT:;
#SUBTITLETRANSLIT:;
#ARTISTTRANSLIT:;
#CREDIT:owenviau1;
#BANNER:../owenviau1 Simfiles 5-bn.png;
#BACKGROUND:../owenviau1 Simfiles 5-bg.png;
#LYRICSPATH:;
#CDTITLE:../ov1_title.png;
#MUSIC:Nightcore - History.mp3;
#OFFSET:-1.812;
#SAMPLESTART:36.725;
#SAMPLELENGTH:29.999;
#SELECTABLE:YES;
#DISPLAYBPM:171.610;
#BPMS:0.000=171.640,1.000=171.606,2.000=171.640,3.000=171.606,4.000=171.640,5.000=171.606,6.000=171.640,7.000=171.606,8.000=171.640,9.000=171.606,10.000=171.640,11.000=171.606,12.000=171.640,13.000=171.606,14.000=171.640,15.000=171.606,16.000=171.640,17.000=171.606,18.000=171.640,19.000=171.606,20.000=171.640,21.000=171.606,22.000=171.640,23.000=171.606,24.000=171.640,25.000=171.606,26.000=171.640,27.000=171.606,28.000=171.629,29.000=171.606,30.000=171.629,31.000=171.606,32.000=171.629,33.000=171.606,34.000=171.629,35.000=171.606,36.000=171.629,37.000=171.606,38.000=171.629,39.000=171.606,40.000=171.629,41.000=171.606,42.000=171.629,43.000=171.606,44.000=171.629,45.000=171.606,46.000=171.629,47.000=171.606,48.000=171.629,49.000=171.606,50.000=171.629,51.000=171.606,52.000=171.629,53.000=171.606,54.000=171.629,55.000=171.606,56.000=171.629,57.000=171.606,58.000=171.629,59.000=171.606,60.000=171.629,61.000=171.606,62.000=171.618,63.000=171.606,64.000=171.618,65.000=171.606,66.000=171.618,67.000=171.606,68.000=171.618,69.000=171.606,70.000=171.618,71.000=171.606,72.000=171.618,73.000=171.606,74.000=171.618,75.000=171.606,76.000=171.618,77.000=171.606,78.000=171.618,79.000=171.606,80.000=171.618,81.000=171.606,82.000=171.618,83.000=171.606,84.000=171.618,85.000=171.606,86.000=171.618,87.000=171.606,88.000=171.618,89.000=171.606,90.000=171.618,91.000=171.606,92.000=171.618,93.000=171.606,94.000=171.618,95.000=171.606,96.000=171.618,97.000=171.606,98.000=171.618,99.000=171.606,100.000=171.618,101.000=171.606,102.000=171.618,103.000=171.606,104.000=171.618,105.000=171.606,106.000=171.618,107.000=171.606,108.000=171.618,109.000=171.606,110.000=171.618,111.000=171.606,112.000=171.618,113.000=171.606,114.000=171.618,115.000=171.606,116.000=171.618,117.000=171.606,118.000=171.618,119.000=171.606,120.000=171.618,121.000=171.606,122.000=171.618,123.000=171.606,124.000=171.618,125.000=171.606,126.000=171.618,127.000=171.606,128.000=171.618,129.000=171.606,130.000=171.618,131.000=171.606,132.000=171.618,133.000=171.606,134.000=171.618,135.000=171.606,136.000=171.618,137.000=171.606,138.000=171.618,139.000=171.606,140.000=171.618,141.000=171.606,142.000=171.618,143.000=171.606,144.000=171.618,145.000=171.606,146.000=171.618,147.000=171.606,148.000=171.618,149.000=171.606,150.000=171.618,151.000=171.606,152.000=171.618,153.000=171.606,154.000=171.618,155.000=171.606,156.000=171.618,157.000=171.606,158.000=171.618,159.000=171.606,160.000=171.618,161.000=171.606,162.000=171.618,163.000=171.606,164.000=171.618,165.000=171.606,166.000=171.618,167.000=171.606,168.000=171.618,169.000=171.606,170.000=171.618,171.000=171.606,172.000=171.618,173.000=171.606,174.000=171.618,175.000=171.606,176.000=171.618,177.000=171.606,178.000=171.618,179.000=171.606,180.000=171.618,181.000=171.606,182.000=171.618,183.000=171.606,184.000=171.618,185.000=171.606,186.000=171.618,187.000=171.606,188.000=171.618,189.000=171.606,190.000=171.618,191.000=171.606,192.000=171.618,193.000=171.606,194.000=171.618,195.000=171.606,196.000=171.618,197.000=171.606,198.000=171.618,199.000=171.606,200.000=171.618,201.000=171.606,202.000=171.618,203.000=171.606,204.000=171.618,205.000=171.606,206.000=171.618,207.000=171.606,208.000=171.618,209.000=171.606,210.000=171.618,211.000=171.606,212.000=171.618,213.000=171.606,214.000=171.618,215.000=171.606,216.000=171.618,217.000=171.606,218.000=171.618,219.000=171.606,220.000=171.618,221.000=171.606,222.000=171.618,223.000=171.606,224.000=171.618,225.000=171.606,226.000=171.618,227.000=171.606,228.000=171.618,229.000=171.606,230.000=171.618,231.000=171.606,232.000=171.618,233.000=171.606,234.000=171.618,235.000=171.606,236.000=171.618,237.000=171.606,238.000=171.618,239.000=171.606,240.000=171.618,241.000=171.606,242.000=171.618,243.000=171.606,244.000=171.618,245.000=171.606,246.000=171.618,247.000=171.606,248.000=171.618,249.000=171.606,250.000=171.618,251.000=171.606,252.000=171.618,253.000=171.606,254.000=171.618,255.000=171.606,256.000=171.618,257.000=171.606,258.000=171.618,259.000=171.606,260.000=171.618,261.000=171.606,262.000=171.618,263.000=171.606,264.000=171.618,265.000=171.606,267.000=171.618,268.000=171.606,269.000=171.618,270.000=171.606,271.000=171.618,272.000=171.606,273.000=171.618,274.000=171.606,275.000=171.618,276.000=171.606,277.000=171.618,278.000=171.606,279.000=171.618,280.000=171.606,281.000=171.618,282.000=171.606,283.000=171.618,284.000=171.606,285.000=171.618,286.000=171.606,287.000=171.618,288.000=171.606,289.000=171.618,290.000=171.606,291.000=171.618,292.000=171.606,293.000=171.618,294.000=171.606,295.000=171.618,296.000=171.606,297.000=171.618,298.000=171.606,299.000=171.618,300.000=171.606,301.000=171.618,302.000=171.606,303.000=171.618,304.000=171.606,305.000=171.618,306.000=171.606,307.000=171.618,308.000=171.606,309.000=171.618,310.000=171.606,311.000=171.618,312.000=171.606,313.000=171.618,314.000=171.606,315.000=171.618,316.000=171.606,317.000=171.618,318.000=171.606,319.000=171.618,320.000=171.606,321.000=171.618,322.000=171.606,323.000=171.618,324.000=171.606,325.000=171.618,326.000=171.606,327.000=171.618,328.000=171.606,329.000=171.618,330.000=171.606,331.000=171.618,332.000=171.606,333.000=171.618,334.000=171.606,335.000=171.618,336.000=171.606,337.000=171.618,338.000=171.606,339.000=171.618,340.000=171.606,341.000=171.618,342.000=171.606,343.000=171.618,344.000=171.606,345.000=171.618,346.000=171.606,347.000=171.618,348.000=171.606,349.000=171.618,350.000=171.606,351.000=171.618,352.000=171.606,353.000=171.618,354.000=171.606,355.000=171.618,356.000=171.606,357.000=171.618,358.000=171.606,359.000=171.618,360.000=171.606,361.000=171.618,362.000=171.606,363.000=171.618,364.000=171.606,365.000=171.618,366.000=171.606,367.000=171.618,368.000=171.606,369.000=171.618,370.000=171.606,371.000=171.618,372.000=171.606,373.000=171.618,374.000=171.606,375.000=171.618,376.000=171.606,377.000=171.618,378.000=171.606,379.000=171.618,380.000=171.606,381.000=171.618,382.000=171.606,383.000=171.618,384.000=171.606,385.000=171.618,386.000=171.606,387.000=171.618,388.000=171.606,389.000=171.618,390.000=171.606,391.000=171.618,392.000=171.606,393.000=171.618,394.000=171.606,395.000=171.618,396.000=171.606,397.000=171.618,398.000=171.606,399.000=171.618,400.000=171.606,401.000=171.618,402.000=171.606,403.000=171.618,404.000=171.606,405.000=171.618,406.000=171.606,407.000=171.618,408.000=171.606,409.000=171.618,410.000=171.606,411.000=171.618,412.000=171.606,413.000=171.618,414.000=171.606,415.000=171.618,416.000=171.606,417.000=171.618,418.000=171.606,419.000=171.618,420.000=171.606,421.000=171.618,422.000=171.606,423.000=171.618,424.000=171.606,425.000=171.618,426.000=171.606,427.000=171.618,428.000=171.606,429.000=171.618,430.000=171.606,431.000=171.618,432.000=171.606,433.000=171.618,434.000=171.606,435.000=171.618,436.000=171.606,437.000=171.618,438.000=171.606,439.000=171.618,440.000=171.606,441.000=171.618,442.000=171.606,443.000=171.618,444.000=171.606,445.000=171.618,446.000=171.606,447.000=171.618,448.000=171.606,449.000=171.618,450.000=171.606,451.000=171.618,452.000=171.606,453.000=171.618,454.000=171.606,455.000=171.618,456.000=171.606,457.000=171.618,458.000=171.606,459.000=171.618,460.000=171.606,461.000=171.618,462.000=171.606,463.000=171.618,464.000=171.606,465.000=171.618,466.000=171.606,467.000=171.618,468.000=171.606,469.000=171.618,470.000=171.606,471.000=171.618,472.000=171.606,473.000=171.618,474.000=171.606,475.000=171.618,476.000=171.606,477.000=171.618,478.000=171.606,479.000=171.618,480.000=171.606,481.000=171.618,482.000=171.606,483.000=171.618,484.000=171.606,485.000=171.618,486.000=171.606,487.000=171.618,488.000=171.606,489.000=171.618,490.000=171.606,491.000=171.618,492.000=171.606,493.000=171.618,494.000=171.606,495.000=171.618,496.000=171.606,497.000=171.618,498.000=171.606,499.000=171.618,500.000=171.606,501.000=171.618,502.000=171.606,503.000=171.618,504.000=171.606,505.000=171.618,506.000=171.606,507.000=171.618,508.000=171.606,509.000=171.618,510.000=171.606,511.000=171.618,512.000=171.606,513.000=171.618,514.000=171.606,515.000=171.618,516.000=171.606,517.000=171.618,518.000=171.606,519.000=171.618,520.000=171.606,521.000=171.618,522.000=171.606,523.000=171.618,524.000=171.606,525.000=171.618,526.000=171.606,527.000=171.618,528.000=171.606,529.000=171.618;
#STOPS:;
#BGCHANGES:;
// cache tags:
#FIRSTBEAT:32.000;
#LASTBEAT:530.000;
#SONGFILENAME:Songs/owenviau1 Simfiles 5/History - [owenviau1] v1.4/History.sm;
#HASMUSIC:1;
#HASBANNER:1;
#MUSICLENGTH:187.245;
// end cache tags

//---------------dance-single - ----------------
#NOTES:
     dance-single:
     :
     Hard:
     9:
     0.679,0.708,0.240,0.310,0.117,787.000,45.000,58.000,221.000,1.000:
0000
0000
0000
0000
,
0000
0000
0000
0000
,
0000
0000
0000
0000
,
0000
0000
0000
0000
,
0000
0000
0000
0000
,
0000
0000
0000
0000
,
0000
0000
0000
0000
,
0000
0000
0000
0000
,
MMMM
0000
0000
0000
MMMM
MM0M
MM0M
MM0M
MM0M
MM0M
MM0M
MM0M
MMMM
0000
0000
0000
,
MMMM
M00M
M00M
M00M
MMMM
000M
000M
000M
000M
0000
0000
0000
MMMM
M00M
M00M
M00M
,
MMMM
M00M
M00M
M00M
MMMM
0000
0000
0000
MMMM
000M
000M
000M
000M
000M
000M
000M
,
000M
0000
0000
0000
0MMM
0000
M000
M000
MMMM
M00M
M00M
M00M
MMMM
0000
0000
0000
,
MMMM
M000
M000
M000
MMMM
000M
000M
000M
MMMM
0000
0000
0000
M00M
M00M
M00M
M00M
,
MMMM
000M
000M
000M
000M
0000
0000
0000
0MM0
M00M
000M
000M
0MMM
000M
000M
M00M
,
0MM0
0000
0000
0000
0MM0
M00M
000M
000M
MMMM
M000
M000
M000
MMMM
0000
0000
0000
,
00M0
0MM0
00M0
00M0
00M0
00M0
00M0
00M0
MMMM
0000
0000
0000
MMMM
M00M
M00M
M00M
,
M00M
M00M
M00M
M00M
MMMM
0000
0000
0000
2000
0000
3000
0000
0002
0000
0003
0000
,
1001
1010
0101
1001
,
1000
0100
1000
0100
1000
0000
1000
0001
,
0011
1001
0101
1010
,
0001
1000
0001
1000
0001
0000
1000
0010
,
0110
1001
0011
0110
,
1000
0010
1000
0010
1000
0000
1000
0001
,
0101
0011
1010
1001
,
0010
0100
0010
0100
0010
0000
1000
0001
,
1001
1000
0010
0100
0001
1000
0010
0100
,
0010
1000
0100
0010
0001
0100
0001
1000
,
0001
0010
0100
1000
0100
0010
0100
1000
,
0010
0100
0001
1000
0001
0010
0001
0100
,
0010
1000
0100
1000
0001
0010
0100
1000
,
0010
0100
0001
1000
0100
1000
0010
1000
,
0001
0100
0001
0010
0001
1000
0100
1000
,
0010
0100
0001
1000
0001
0010
0001
1000
,
1100
0010
1000
0001
0010
0100
1000
0010
,
1000
0001
0010
0001
0100
0010
1000
0001
,
1000
0100
1000
0010
0100
0001
0010
0001
,
1000
0010
0100
0001
0010
0100
1000
0010
,
0100
0001
0010
0001
1000
0100
1000
0010
,
0100
0001
1000
0001
0010
0001
1000
0010
,
0100
0001
1000
0001
0010
0001
0100
0010
,
1000
0100
1000
0001
0010
0100
1000
0010
,
1001
0001
0010
0100
1000
0010
0100
0001
,
0010
0100
1000
0010
1000
0001
0010
0001
,
0100
0010
1000
0001
1000
0100
1000
0010
,
0100
0001
0010
0001
0100
0010
1000
0100
,
0010
0001
0100
0001
0010
0100
1000
0010
,
0100
0001
0010
0001
0100
0010
1000
0001
,
1000
0100
1000
0010
0100
0001
0010
0001
,
1000
0010
0100
0001
0010
0001
0100
0010
,
1001
1000
0010
0100
0001
0010
0001
1000
,
0100
0010
0001
0100
0010
1000
0001
1000
,
0100
1000
0010
0100
0001
1000
0001
0010
,
0001
0100
0010
1000
0100
1000
0010
0100
,
0001
1000
0001
0010
0100
1000
0001
0100
,
0001
1000
0100
1000
0001
0010
0001
0100
,
0010
1000
0001
1000
0100
1000
0010
0100
,
0001
0010
0001
1000
0010
0100
0001
1000
,
0011
0100
1000
0001
1000
0100
1000
0010
,
0100
0001
0010
0001
0100
0010
1000
0100
,
0010
0001
0100
0010
1000
0001
1000
0100
,
1000
0010
0100
0001
0010
0001
1000
0010
,
0100
0010
1000
0100
0010
0001
0100
0001
,
1000
0100
1000
0010
0100
0001
0010
0001
,
1000
0010
0100
0010
1000
0100
0010
0001
,
0100
0001
1000
0100
1000
0001
0010
0100
,
2010
0000
0200
0300
0000
0000
0200
0300
,
3002
0000
0020
0030
0000
0000
0020
0030
,
0023
0000
0200
0300
0000
0000
0200
0300
,
0230
0000
2000
3000
0000
0000
2000
3000
,
2300
0000
0200
0300
0000
0000
0200
0300
,
3200
0000
0000
0000
,
0320
0000
0000
0000
,
0032
0000
2000
0000
00M0
0M00
0000
00M0
,
3113
0000
0000
0000
2000
0000
3000
0000
0000
0000
0000
0000
2000
0000
3200
0320
,
0000
0032
0000
0003
0000
2000
3000
0020
,
0030
0200
0300
0002
0003
2000
3000
0020
,
0030
0200
0302
0003
2000
3200
0320
0032
,
0003
2000
3000
0000
0000
2000
3020
0230
,
0300
0200
0300
0000
0000
0002
0003
0200
,
0300
0020
0030
2000
3000
0200
0300
0020
,
0030
0002
0003
0000
2000
3200
0320
0032
,
1003
0010
0100
0001
1000
0001
0010
0001
,
0100
0010
1000
0100
0010
0001
0100
0001
,
1000
0100
1000
0010
0100
0001
1000
0001
,
0010
0001
1000
0100
0010
0001
0100
0001
,
0010
0100
1000
0010
1000
0100
1000
0001
,
0010
0100
1000
0010
0100
0001
0010
0100
,
1000
0010
0100
0001
1000
0001
0010
0001
,
0100
0010
1000
0100
1000
0001
0100
0010
,
1002
M000
M000
M000
,
M003
0000
M000
0000
2000
3000
0002
0003
,
1001
1010
0101
1001
,
1000
0100
1000
0100
1000
0000
1000
0001
,
0011
1001
0101
1010
,
0001
1000
0001
1000
0001
0000
1000
0010
,
0110
1001
0011
0110
,
1000
0010
1000
0010
1000
0000
1000
0001
,
0101
0011
1010
1001
,
0010
0100
0010
0100
0010
0000
1000
0001
,
1001
1000
0010
0100
0001
1000
0010
0100
,
0010
1000
0100
0010
0001
0100
0001
1000
,
0001
0010
0100
1000
0100
0010
0100
1000
,
0010
0100
0001
1000
0001
0010
0001
0100
,
0010
1000
0100
1000
0001
0010
0100
1000
,
0010
0100
0001
1000
0100
1000
0010
1000
,
0001
0100
0001
0010
0001
1000
0100
1000
,
0010
0100
0001
1000
0001
0010
0001
1000
,
1100
0010
1000
0001
0010
0100
1000
0010
,
1000
0001
0010
0001
0100
0010
1000
0001
,
1000
0100
1000
0010
0100
0001
0010
0001
,
1000
0010
0100
0001
0010
0100
1000
0010
,
0100
0001
0010
0001
1000
0100
1000
0010
,
0100
0001
1000
0001
0010
0001
1000
0010
,
0100
0001
1000
0001
0010
0001
0100
0010
,
1000
0100
1000
0001
0010
0100
1000
0010
,
1001
1000
0001
0100
0010
0100
0001
0010
,
0100
1000
0010
0100
0001
1000
0001
0100
,
0001
0010
0100
1000
0010
1000
0001
0010
,
0100
1000
0010
0100
0001
0010
0001
0100
,
0010
1000
0001
1000
0100
1000
0010
0100
,
0001
0010
0001
0100
0010
1000
0100
0010
,
0001
0100
0001
0010
0100
1000
0010
0100
,
0001
1000
0010
0100
0001
1000
0100
0010
,
0110
1000
0001
0010
0001
1000
0010
0100
,
0001
1000
0001
0010
0001
0100
0010
1000
,
0001
1000
0100
1000
0010
0100
0001
1000
,
0100
0010
0001
0100
0010
1000
0001
0010
,
0100
1000
0001
0010
0100
1000
0010
0100
,
0001
1000
0100
0010
0001
0100
0010
1000
,
0100
1000
0001
0010
0001
0100
0010
1000
,
0100
0010
0001
0100
0001
1000
0100
0010
,
1002
M000
M000
M000
,
M000
0000
0000
0000
0000
0000
0000
0000
0000
0000
0000
0000
0000
0000
0000
0000
0000
0000
0000
0000
0000
0000
0000
0000
M000
0000
0000
0000
0000
0000
0000
0000
0000
0000
0000
0000
0000
0000
0000
0000
0000
0000
0000
0000
0000
0000
0000
0003
M000
0000
0000
0000
0000
0000
0000
0000
0000
0000
0000
0000
0000
0000
0000
0000
0000
0000
0000
0000
0000
0000
0000
0000
0000
0000
0000
0000
0000
0000
0000
0000
0000
0000
0000
0000
0000
0000
0000
0000
0000
0000
0000
0000
0000
0000
0000
0000
;

//---------------dance-single - ----------------
#NOTES:
     dance-single:
     :
     Challenge:
     11:
     0.991,1.000,1.000,0.331,0.195,811.000,426.000,62.000,221.000,3.000:
0000
0000
0000
0000
,
0000
0000
0000
0000
,
0000
0000
0000
0000
,
0000
0000
0000
0000
,
0000
0000
0000
0000
,
0000
0000
0000
0000
,
0000
0000
0000
0000
,
0000
0000
0000
0000
,
MMMM
0000
0000
0000
MMMM
MM0M
MM0M
MM0M
MM0M
MM0M
MM0M
MM0M
MMMM
0000
0000
0000
,
MMMM
M00M
M00M
M00M
MMMM
000M
000M
000M
000M
0000
0000
0000
MMMM
M00M
M00M
M00M
,
MMMM
M00M
M00M
M00M
MMMM
0000
0000
0000
MMMM
000M
000M
000M
000M
000M
000M
000M
,
000M
0000
0000
0000
0MMM
0000
M000
M000
MMMM
M00M
M00M
M00M
MMMM
0000
0000
0000
,
MMMM
M000
M000
M000
MMMM
000M
000M
000M
MMMM
0000
0000
0000
M00M
M00M
M00M
M00M
,
MMMM
000M
000M
000M
000M
0000
0000
0000
0MM0
M00M
000M
000M
0MMM
000M
000M
M00M
,
0MM0
0000
0000
0000
0MM0
M00M
000M
000M
MMMM
M000
M000
M000
MMMM
0000
0000
0000
,
00M0
0MM0
00M0
00M0
00M0
00M0
00M0
00M0
MMMM
0000
0000
0000
MMMM
M00M
M00M
M00M
,
M00M
M00M
M00M
M00M
MMMM
0000
0000
0000
2000
0000
3000
0000
0002
0000
0003
0000
,
1001
1010
0101
1001
,
1100
1100
1100
1100
1100
0000
0110
0010
,
0011
1001
0101
1010
,
1001
1001
1001
1001
1001
0000
1010
0010
,
0110
1001
0011
0110
,
1010
1010
1010
1010
1010
0000
1001
0001
,
0101
0011
1010
1001
,
0110
0110
0110
0110
0110
0000
1010
0100
,
1001
0001
0110
1000
0011
0100
1001
0100
,
1010
1001
0101
0011
0101
0010
1100
0100
,
0110
1000
0011
0100
1001
0100
1010
0001
,
0011
0110
1100
0110
0011
0100
1001
1000
,
1100
0001
1010
0100
1001
0100
0011
1000
,
0110
1100
0011
1100
0110
1000
0101
0001
,
1001
0010
1100
1000
0011
1000
0101
0001
,
1010
0101
1010
0110
1001
0100
0011
0001
,
1001
0010
0110
0001
1100
0010
0101
1000
,
1100
0110
0101
1001
0110
0001
1100
1000
,
1010
0100
0101
0010
1001
0001
1010
0100
,
0110
1001
1100
0110
0101
0010
1001
0001
,
0011
1000
1100
0001
1010
0100
1001
0100
,
0011
0110
1100
0101
1001
0010
1100
0001
,
0110
0000
1000
0000
0101
0000
1000
0100
0010
0000
0001
0000
1100
0000
0001
0000
,
1010
0000
0001
0000
0110
0000
1000
0001
0010
0000
1000
0000
0101
0000
0010
0000
,
1100
0000
0001
0000
0110
0000
0001
1000
0010
0000
1000
0000
0101
0000
0010
0000
,
1001
0000
0100
0000
0110
0000
0001
1000
0100
0000
0010
0000
1001
0000
0010
0000
,
1100
0000
0001
0000
0110
0000
1000
0010
0100
0000
1000
0000
0011
0000
0100
0000
,
1010
0000
0010
0000
0101
0000
1000
0100
0010
0000
1000
0000
0101
0000
0010
0000
,
1100
0000
0001
0000
0110
0000
0001
1000
0100
0000
0001
0000
0110
0000
1000
0000
,
1001
0000
0010
0000
0101
0000
1000
0001
1000
0000
0010
0000
0110
0000
0001
0000
,
1010
0000
0010
0000
0101
0000
1000
0010
0100
0000
1000
0000
0101
0000
1000
0000
,
0110
0000
0000
0000
0000
0000
0001
0000
0000
0000
0000
0000
1100
0000
0000
0000
0000
0000
0001
0000
0000
0100
0000
0000
0002
0000
0000
0000
0000
0000
0000
0000
0000
0000
0000
0000
1003
0000
0100
0000
0010
0000
0001
0000
0010
0000
0100
0000
,
1001
0000
0010
0000
0101
0000
1000
0010
0100
0000
0010
0000
1001
0000
0001
0000
,
0110
0000
0100
0000
1001
0000
0001
1000
0010
0000
0100
0000
1010
0000
0001
0000
,
0110
0000
1000
0000
0101
0000
1000
0100
0010
0000
0001
0000
1010
0000
0100
0000
,
1001
0000
1000
0000
0110
0000
0001
0010
0100
0000
1000
0000
0101
0000
0010
0000
,
1001
0000
0001
0000
0110
0000
1000
0001
0010
0000
1000
0000
0101
0000
0001
0000
,
0110
0000
0001
0000
1100
0000
1000
0100
0010
0000
1000
0000
0101
0000
0010
0000
,
1100
0000
0001
0000
0110
0000
0001
1000
0010
0000
0100
0000
1001
0000
0100
0000
,
1010
0000
0010
0000
0101
0000
1000
0100
0010
0000
1000
0000
0101
0000
0010
0000
,
1001
0000
0010
0000
0110
0000
0001
1000
0010
0000
1000
0000
0101
0000
0010
0000
,
1001
0000
0100
0000
0110
0000
0001
1000
0100
0000
0010
0000
1001
0000
0010
0000
,
1100
0000
0001
0000
0110
0000
1000
0010
0100
0000
1000
0000
0011
0000
0100
0000
,
1010
0000
0010
0000
0101
0000
1000
0100
0010
0000
1000
0000
0101
0000
0010
0000
,
1100
0000
0001
0000
0110
0000
0001
1000
0100
0000
0001
0000
0110
0000
1000
0000
,
1001
0000
0010
0000
0101
0000
1000
0001
1000
0000
0010
0000
0110
0000
0001
0000
,
1010
0000
0010
0000
0101
0000
1000
0010
0100
0000
1000
0000
0101
0000
1000
0000
,
0110
0010
2002
3000
0000
0000
2000
3000
,
2013
0000
0200
0300
0000
0000
0200
0300
,
3002
0000
0020
0030
0000
0000
0020
0030
,
0023
0000
0200
0300
0000
0000
0200
0300
,
0230
0000
2000
3000
0000
0000
2000
3000
,
2300
0000
0200
0300
0000
0000
0200
0300
,
3200
0000
0000
0000
,
0320
0000
0000
0000
,
0032
0000
2000
0000
00M0
0M00
0000
00M0
,
3113
0000
0000
0000
2000
0000
3000
0000
0000
0000
0000
0000
2000
0000
3200
0320
,
0000
0032
0000
0003
0000
2000
3000
0020
,
0030
0200
0300
0002
0003
2000
3000
0020
,
0030
0200
0302
0003
2000
3200
0320
0032
,
0003
2000
3000
0000
0000
2000
3020
0230
,
0300
0200
0300
0000
0000
0002
0003
0200
,
0300
0020
0030
2000
3000
0200
0300
0020
,
0030
0002
0003
0000
2000
3200
0320
0032
,
1103
0001
1010
0010
0101
1000
0011
0001
,
1100
0010
1001
0001
0110
0001
1100
0110
,
0101
1000
1010
0010
0101
0010
1001
0010
,
1100
0001
0110
1000
0101
0010
1001
0110
,
1001
0010
1100
0001
0110
0100
1001
0010
,
0101
1000
0110
0001
1100
0001
1010
0101
,
1010
0100
1001
0010
0110
0001
1010
0010
,
0101
0010
1001
1000
0110
0001
1100
0101
,
1002
M000
M000
M000
,
M003
0000
M000
0000
2000
3000
0002
0003
,
1001
1010
0101
1001
,
1100
1100
1100
1100
1100
0000
0110
0010
,
0011
1001
0101
1010
,
1001
1001
1001
1001
1001
0000
1010
0010
,
0110
1001
0011
0110
,
1010
1010
1010
1010
1010
0000
1001
0001
,
0101
0011
1010
1001
,
0110
0110
0110
0110
0110
0000
1010
0100
,
1001
0001
0110
1000
0011
0100
1001
0100
,
1010
1001
0101
0011
0101
0010
1100
0100
,
0110
1000
0011
0100
1001
0100
1010
0001
,
0011
0110
1100
0110
0011
0100
1001
1000
,
1100
0001
1010
0100
1001
0100
0011
1000
,
0110
1100
0011
1100
0110
1000
0101
0001
,
1001
0010
1100
1000
0011
1000
0101
0001
,
1010
0101
1010
0110
1001
0100
0011
0001
,
1001
0010
0110
0001
1100
0010
0101
1000
,
1100
0110
0101
1001
0110
0001
1100
1000
,
1010
0100
0101
0010
1001
0001
1010
0100
,
0110
1001
1100
0110
0101
0010
1001
0001
,
0011
1000
1100
0001
1010
0100
1001
0100
,
0011
0110
1100
0101
1001
0001
1010
0010
,
0110
1000
0101
1000
0110
0001
1100
0010
,
1001
0101
1010
0110
1001
0100
1010
1000
,
1001
0010
0110
1000
0011
0100
1001
0100
,
1010
1001
0101
0011
0101
0010
1100
0100
,
0110
1000
0011
0100
1001
0100
1010
0001
,
0011
0110
1100
0110
0011
0100
1001
1000
,
1100
0001
1010
0100
1001
0100
0011
1000
,
0110
1100
0011
1100
0110
1000
0101
0001
,
1001
0010
1100
1000
0011
1000
0101
0001
,
1010
0101
1010
0110
1001
0100
0011
0001
,
1001
0010
0110
0001
1100
0010
0101
1000
,
1100
0110
0101
1001
0110
0001
1100
1000
,
1010
0100
0101
0010
1001
0001
1010
0100
,
0110
1001
1100
0110
0101
0010
1001
0001
,
0011
1000
1100
0001
1010
0100
1001
0100
,
0011
0110
1100
0101
1001
0001
1010
0010
,
0110
1000
0101
1000
0110
0001
1100
0010
,
1001
0010
1100
0010
1001
0101
0110
1010
,
1002
M000
M000
M000
,
M000
0000
0000
0000
0000
0000
0000
0000
0000
0000
0000
0000
0000
0000
0000
0000
0000
0000
0000
0000
0000
0000
0000
0000
M000
0000
0000
0000
0000
0000
0000
0000
0000
0000
0000
0000
0000
0000
0000
0000
0000
0000
0000
0000
0000
0000
0000
0003
M000
0000
0000
0000
0000
0000
0000
0000
0000
0000
0000
0000
0000
0000
0000
0000
0000
0000
0000
0000
0000
0000
0000
0000
0000
0000
0000
0000
0000
0000
0000
0000
0000
0000
0000
0000
0000
0000
0000
0000
0000
0000
0000
0000
0000
0000
0000
0000
;
