#TITLE:XTC;
#SUBTITLE:;
#ARTIST:Psychic Lover;
#TITLETRANSLIT:;
#SUBTITLETRANSLIT:;
#ARTISTTRANSLIT:;
#CREDIT:;
#BANNER:XTC-bn.png;
#BACKGROUND:a01.jpg;
#LYRICSPATH:;
#CDTITLE:;
#MUSIC:01 - XTC.ogg;
#OFFSET:-0.520;
#SAMPLESTART:59.080;
#SAMPLELENGTH:12.000;
#SELECTABLE:YES;
#BPMS:0.000=270.000,763.000=542.000,764.000=270.200;
#STOPS:435.000=1.780
,756.000=0.120
,757.000=0.100
,758.000=0.440
,759.000=0.120
,760.000=0.120
,761.000=0.120
;
#BGCHANGES:0.000=a04.jpg=1.000=0=0=1,
99999=-nosongbg-=1.000=0=0=0 // don't automatically add -songbackground-
;
// cache tags:
#FIRSTBEAT:12.000;
#LASTBEAT:1104.000;
#SONGFILENAME:Songs/new/XTC/XTC.sm;
#HASMUSIC:1;
#HASBANNER:1;
#MUSICLENGTH:249.196;
// end cache tags

//---------------dance-single - ----------------
#NOTES:
     dance-single:
     :
     Medium:
     10:
     0.611,0.941,0.177,0.277,0.000,952.000,44.000,69.000,0.000,0.000:








0000
0000
0000
0000
,
0000
0000
0000
0000
,
0000
0000
0000
0000
,
0100
1000
0100
1000
,
0100
1000
0100
1000
,
0100
0010
0001
0100
0010
1000
0001
0000
,
0000
0001
0000
0000
0100
0000
0010
0000
,
0100
0000
0000
0100
0000
0000
0010
0000
,
0001
0000
1000
0000
0100
0000
0000
0100
,
0000
1000
0010
0100
,
0000
0010
0000
0000
1000
0000
0010
0000
,
0001
0000
1000
0000
0000
0010
0000
0000
,
0001
0000
0010
0000
0100
0000
0000
0001
,
0000
1000
0001
0100
,
0010
1000
0010
0000
0000
0000
0100
0001
,
0100
0000
1010
0100
,
0001
0000
0010
0000
0100
0000
0010
0100
,
0000
0000
0000
0000
,
1000
0000
0010
1000
,
0001
0010
1000
0001
,
0100
0010
1000
0100
,
0010
0100
1000
0010
,
0100
1000
0010
0100
,
1000
0100
0010
1000
,
0100
0000
0010
0000
1000
0000
0001
1000
,
0001
0000
0000
0100
0001
0000
1000
0000
,
0020
0000
0130
1000
,
0010
0001
0100
0010
,
1000
0001
0010
0100
,
1000
0001
0100
0010
,
1000
0001
0010
0100
,
0000
2000
0000
0000
,
3020
0000
0000
0000
0000
0000
0000
0030
,
0002
0000
0000
0000
0000
0000
0000
0003
,
0010
1000
0100
0010
,
0001
0000
0100
0000
0000
0000
0010
1000
,
0010
1000
0100
0001
,
0010
0001
0100
1000
,
0000
0000
0010
0001
,
0010
0000
0100
0000
0000
0000
0001
0010
,
0100
1000
0010
0100
,
0001
0000
1001
0000
,
0010
0100
0010
0001
,
0100
0000
0010
0000
0000
0000
1000
0010
,
0100
0010
1000
0100
,
0010
1000
0100
0001
,
0200
0000
0010
0320
,
0000
2030
0000
3002
,
0000
0000
0003
0000
0010
0000
0100
0010
,
0100
0000
0010
0100
0010
0100
0010
0100
,
1000
0000
0001
0000
1000
0010
0000
0010
,
0100
0001
0010
0000
0010
0100
0000
1000
,
0001
0000
0100
0000
0010
0000
1000
0100
,
0000
0010
1000
0000
0100
0000
0001
0000
,
0020
0000
0000
0230
0000
0000
2300
0000
,
0000
0000
0000
3000
,
0220
0000
0000
0000
,
0000
0000
0000
0000
0000
0000
0000
0330
,
0000
0000
0001
1000
0001
0000
1000
0010
,
0000
0100
0010
0100
0000
0001
0010
0000
,
0000
0000
0100
0000
1000
0000
0010
0001
,
0000
0100
0000
0010
0100
0000
1000
0000
,
0010
0100
0001
0010
,
1000
0010
0001
0100
,
0020
0000
0230
0000
,
2300
0000
3002
0000
,
0023
0000
0000
1030
,
0000
0000
0200
0000
,
0320
0000
0000
2030
0000
0000
3002
0000
,
0000
0003
0000
0000
0100
0000
0010
0000
,
1000
0000
0000
0100
0000
0000
0010
0000
,
0000
0000
0000
0100
,
0100
0000
0010
1000
,
0000
0100
0010
0001
,
1000
0000
0001
0100
0000
0000
1010
0000
,
0000
0000
0100
0001
,
0020
0000
0000
2000
0030
0000
0200
0000
,
3000
0000
0302
0000
,
0013
1000
0010
0100
,
0010
0001
0010
0100
,
2000
0000
3200
0000
,
0320
0000
0032
0000
,
2003
0000
0000
3020
,
0000
0000
0230
0300
,
1010
0000
0000
1001
0000
0000
0011
0000
,
0000
0000
0100
1000
,
0100
0000
0000
0010
0000
0000
0001
0000
,
0000
0000
0000
0000
0000
0000
0100
0010
,
0100
0000
0010
1000
,
0000
0000
0100
0000
0010
0000
1000
0001
,
1000
0000
0000
0010
0000
0000
0200
0000
,
0000
0000
0000
0000
0000
0000
0301
1000
,
0100
0000
0000
0010
0000
0000
0101
0000
,
0000
0000
0000
0000
0000
0000
1000
0001
,
1000
0000
0000
1001
0000
0000
0010
0100
,
0010
0000
0000
0110
0000
0000
0001
0000
,
0020
0000
2030
0000
,
3200
0000
0320
0000
,
2030
0000
0000
0000
,
0000
0000
0000
0000
,
0000
0000
3000
0000
,
0000
0000
0000
0000
,
0000
0000
0000
0000
,
0000
0000
0000
0000
0010
0000
0000
1000
,
0000
0100
0010
0001
,
0000
0100
0000
0000
0010
0000
1000
0000
,
0100
0000
0001
0000
0000
0010
0000
0000
,
1000
0000
0010
0000
0100
0000
0000
0010
,
0000
0001
1000
0010
,
0100
0100
0010
1000
,
0100
0000
0010
0000
0000
0000
0001
1000
,
0001
0010
0100
0001
,
0010
0000
0100
0000
0001
0010
0000
0000
,
0000
0000
0100
1000
,
0100
0000
0010
0000
0000
0000
1000
0010
,
1000
0010
0100
0001
,
0010
0000
0000
0010
0100
0000
0000
0000
,
0000
1000
0010
0001
,
1000
0000
0010
0000
0000
0000
0100
0001
,
0100
0001
0010
1000
,
0001
0010
1000
0010
,
0100
0000
0010
0010
,
0000
0100
0000
0000
,
2002
0000
0000
0000
,
0000
0000
0000
0000
0000
0000
0000
3003
,
0000
0100
0010
1000
,
0100
0001
0000
0001
,
1000
0100
0010
0001
,
1000
0000
0010
0000
0100
0001
0000
0000
,
0000
0000
0001
1000
,
0100
0000
0010
0000
0000
0000
1000
0010
,
0100
0001
0010
0100
,
0010
1000
0000
1000
0100
0000
0000
0000
,
0000
0000
0001
1000
,
0010
0000
0100
0000
0000
0000
0001
1000
,
0001
0010
1000
0010
,
0001
0100
0010
1000
,
0200
0000
0000
0000
0010
0300
0010
0000
,
0000
1001
0000
0020
,
0100
0130
0100
0100
,
0100
0001
0100
0000
0100
1000
0100
1000
,
0100
0000
0100
1000
0001
0000
0010
0100
,
0000
0100
0010
1000
0000
1000
0100
0000
,
0100
0010
0001
0000
0001
1000
0000
0010
,
0000
0100
0000
0001
0010
0000
1000
0000
,
0020
0000
0000
0230
0000
0000
0302
0000
,
0000
0003
0000
0000
0000
0000
0000
0000
,
0000
0002
0000
0023
,
0000
0230
2300
3002
,
0013
0000
0010
0100
0010
0000
0010
0001
,
0000
1000
0000
0010
0100
0000
0001
0010
,
0000
0010
0100
0000
0100
0010
0000
0001
,
0000
0010
0100
0000
1000
0000
0100
0000
,
0000
0010
1000
0010
,
0100
0010
0001
0010
,
0200
0000
0320
0000
,
2030
0000
3002
0000
,
0203
0000
0000
0310
,
0000
1000
0100
0010
,
1010
0000
0000
0101
0000
0000
0011
0000
,
0000
0000
0100
0000
1000
0000
0010
1000
,
0100
0000
0000
0110
0000
0000
0101
0000
,
0010
0000
0000
0000
0001
0000
0010
1000
,
0010
0000
0100
0001
,
0000
0000
0010
0000
0100
0000
1000
0010
,
1000
0000
1000
0010
0000
0010
0001
0000
,
0000
0000
0010
0000
1000
0000
0100
0010
,
0100
0000
0000
0110
0000
0000
1001
0000
,
0000
1000
0100
0010
,
0001
0000
0100
0010
0000
0000
0010
0000
,
1000
0010
0100
0001
,
0020
0000
2030
3002
,
0023
0000
0230
0000
,
2300
0000
0000
3001
,
0000
0010
1000
0100
,
1010
0000
0000
0101
0000
0000
0011
0000
,
0000
0000
0100
0000
0010
0000
1000
0010
,
1000
0000
1000
0001
0000
0001
0010
0000
,
0000
0000
0100
0000
0100
0000
0010
1000
,
0010
0000
0100
0100
,
0000
0000
0001
0000
1000
0000
0001
0010
,
0001
0000
1000
0000
0001
0100
0001
0000
,
0000
0000
0010
0000
0010
0000
0100
0010
,
0001
0000
0000
1000
0000
0000
0100
0000
,
0010
0000
1000
0000
0100
0000
0010
0001
,
0010
0000
0000
1100
0000
0000
0010
0001
,
0010
0000
0000
1010
0000
0000
0010
0001
,
0010
0000
0101
0000
,
0011
0000
1010
0000
,
1100
0110
0011
1001
,
0110
1001
0110
0000
,
0001
0000
0000
0010
0000
0000
0100
0000
,
0000
0000
0000
0000
1000
0000
0000
0010
,
0000
0100
0020
0000
,
2030
0000
0000
3000
0100
0000
0010
0000
,
0001
1000
0010
0100
,
0001
0010
1000
0010
,
0001
0100
0010
1000
,
0001
0100
0010
1000
,
0001
0100
0010
1000
,
0100
0001
0010
0001
,
1000
0100
0010
1000
,
0100
0000
0010
0000
0001
1000
0100
0000
,
0010
0001
1000
0000
0010
1000
0100
0000
,
0001
0010
1000
0000
0010
0001
1000
0000
,
0100
1000
0100
0010
,
0001
1000
0100
0001
0010
0100
0001
0000
,
0100
0001
0010
1000
,
0010
0001
1000
0001
,
0010
0100
0001
1000
,
0100
0000
0010
0000
1000
0000
0100
1000
,
0000
1000
0100
0000
0010
0000
0001
0100
,
0001
0010
0000
0010
0100
0000
0100
1000
,
0010
0001
0100
0010
1000
0100
0010
0100
,
0000
0100
0010
0000
0010
0100
0000
0000
,
0001
1000
0000
1000
0010
0000
0010
0100
,
0000
0000
0000
0000
1000
0100
1000
0010
,
0000
0000
0001
0100
0001
0010
0000
0000
,
1000
0001
1000
0001
0010
0100
1000
0001
,
1000
0001
1000
0010
0100
0001
0010
0100
,
1000
0100
0010
0001
0000
0100
1000
0000
,
0100
0010
0001
1000
,
0010
0100
0001
0010
,
0100
1000
0100
0010
,
0001
0000
1000
0000
0100
0000
0000
0010
,
0000
2000
0000
0000
,
0000
0000
3000
0020
0000
0000
0000
0000
,
0000
0000
0000
0000
,
0000
0000
0031
0100
,
0010
0000
1000
0100
0000
0000
0010
0000
,
1000
0000
0010
0001
0000
0000
0100
0010
,
0100
0000
1000
0000
0010
0100
0000
0100
,
0001
0010
0000
0100
,
0010
1000
0100
0001
,
0010
0001
1000
0001
,
0100
0010
1000
0100
,
0020
0000
0000
0000
1000
0000
0000
1000
,
0000
0000
1000
0000
0100
0000
0000
0001
,
0000
0031
0100
0000
,
0000
0010
0000
0000
,
0100
0000
0000
0000
0110
0000
0000
1001
,
0000
0110
0000
0001
,
1000
0001
1000
0000
0110
0000
1000
0010
,
0000
0010
1000
0000
0100
0000
0010
0000
,
0100
0010
0001
0100
,
0010
0001
1000
0010
,
0100
0000
1000
0000
0010
0000
0100
1000
,
0000
1000
0100
0000
0001
0000
0100
0000
,
1000
0000
0010
0000
0100
0000
0000
0001
,
0010
1000
0001
0100
,
0010
0000
1000
0000
0100
0010
0000
1000
,
0100
0000
0001
0000
0100
0001
0000
0001
,
0100
0010
0100
0000
,
1100
0000
0101
0000
,
0011
0000
0000
0000
0100
1000
0100
0000
,
0010
1000
0010
0100
,
0001
0000
0010
0100
1000
0000
0000
1010
,
0000
1100
0000
0010
,
0001
1000
0001
0000
0100
0000
0001
1000
,
0001
0000
0010
0000
0001
1000
0001
0000
,
1000
0000
0100
0010
0001
0000
0001
1000
,
0010
0100
0000
0100
0001
0010
0100
1000
,
0010
0100
0001
0000
0010
0100
0010
0000
,
0001
0000
1000
0001
,
1000
0000
0010
0000
0001
0000
0000
0010
,
0100
0001
0010
1000
,
0100
0001
0010
1000
,
0010
0001
0010
0100
,
0010
0001
0010
1000
,
0010
0100
0010
1000
,
0010
0100
0001
0010
,
0100
0000
0100
0010
,
0001
0000
0000
1000
0001
0000
0010
0001
,
0100
0010
0000
0010
0100
0000
0010
0000
,
1000
0000
0220
0000
,
0000
0000
0000
0000
,
0330
0000
0000
0000
;

//---------------dance-single - ----------------
#NOTES:
     dance-single:
     :
     Hard:
     11:
     0.847,0.995,0.562,0.112,0.022,1309.000,140.000,28.000,0.000,0.000:

0000
0000
0000
0000
,
0000
0000
0000
0000
,
0000
0000
0000
0000
,
0010
0100
0010
0100
,
0010
0100
0010
0100
,
0001
0010
0100
1000
0010
0001
0010
0000
,
0000
1001
0000
0000
0100
0000
0011
0000
,
1100
0000
0000
1100
0000
0000
0010
0000
,
1001
0000
1000
0000
0110
0000
0000
0101
,
0000
1001
1010
0100
,
0000
1010
0000
0000
1100
0000
0010
0000
,
0101
0000
1100
0000
0000
0011
0000
0000
,
0001
0000
0011
0000
0101
0000
0000
0011
,
0000
1000
0011
1100
,
0001
1000
0001
1000
0000
0000
1000
0001
,
1000
0001
0000
0000
0100
0001
0010
0100
,
1000
0010
0100
0001
0010
1000
0100
0010
,
0000
0000
0000
0000
,
1001
0000
0000
0000
0100
0000
0001
1000
,
0010
0000
0100
0000
0000
0000
1000
0001
,
0010
0100
0001
0010
,
0100
0000
0010
0000
0001
0100
0000
0000
,
0000
0000
0000
0001
0100
0000
0010
0000
,
0001
0000
0010
0000
0000
0000
0001
0100
,
0010
0000
0100
0000
0001
0000
1000
0001
,
1000
0000
0000
0100
1000
0000
0001
0000
,
0100
0000
0010
0001
,
0100
0000
1000
0000
0010
0000
0100
0010
,
0001
1000
0100
0010
,
0001
1000
0010
0100
,
0002
0000
0203
0320
,
0000
0032
0000
0000
,
0203
0000
0000
0010
0000
0000
0010
0300
,
2000
0000
0000
0000
0100
0000
0000
3000
,
0100
0001
0010
0100
,
1000
0000
0010
0000
0000
0000
0100
0001
,
0100
0001
0010
1000
,
0100
0000
1000
0000
0010
1000
0001
0000
,
0000
0000
0000
0000
0100
0010
1000
0010
,
0100
0000
0010
0000
0000
0000
1000
0100
,
0010
1000
0001
0000
0100
0000
0010
0001
,
1000
0000
0000
2000
0002
0000
3003
0000
,
0100
0001
0010
0001
0100
0000
1000
0000
,
0010
1000
0100
0000
0000
0000
0001
0100
,
0010
1000
0100
0000
0001
0000
0010
0000
,
0100
0001
0010
1000
,
0010
0000
0000
0000
0100
1000
0100
0000
,
0000
0010
0001
0000
0100
0010
1000
0000
,
0000
0000
0000
0000
0100
0000
1000
0010
,
0100
0000
0001
0100
0010
1000
0100
0010
,
0100
0010
1000
0000
0001
0100
0000
0100
,
0010
1000
0100
0001
0100
0010
0000
0001
,
1000
0000
0010
0000
0100
0000
0001
0010
,
0000
0100
0001
0000
0010
0000
1000
0000
,
0101
0000
0000
1010
0000
0000
1001
0000
,
0000
0000
0000
0000
,
2001
0000
0002
0000
0000
3000
2000
0000
,
0003
0000
0002
0003
0020
0030
0200
0000
,
3300
0000
1000
0001
1000
0100
0001
0100
,
0000
0010
0100
0010
0000
1000
0100
0000
,
0000
0100
0010
0000
0001
0000
0100
1000
,
0000
0010
0000
0100
0010
0000
0001
0000
,
0000
0100
0010
0001
1000
0010
0100
1000
,
0001
0010
0100
0001
1000
0000
0010
0000
,
1100
0000
0110
0000
,
0011
0000
1001
0000
,
0200
0010
0010
0301
,
0010
0000
0100
0000
0010
0000
0000
1000
,
0100
0000
0100
0001
0000
0001
1000
0000
,
0000
0000
1000
0000
0010
0000
0100
0010
,
0001
0000
0001
0010
0000
0010
0100
0000
,
0001
0000
0010
0000
0100
1000
0010
1000
,
0010
0000
0000
0010
0100
0010
0001
0000
,
0000
0000
0010
0000
0100
0010
1000
0000
,
0001
0000
1000
0010
0000
0000
0101
0000
,
0010
0000
0100
0000
1000
0000
0010
1000
,
0100
0000
0100
0001
0000
0001
0010
0000
,
1000
0000
0010
0100
1000
0100
0010
0000
,
0100
0000
0001
0100
0010
0100
0001
0000
,
0100
1000
0100
0010
,
0001
0000
0000
0001
0010
0000
0000
0010
,
0100
0000
0000
0100
1000
0000
0000
0000
,
0002
0000
1000
0000
1000
0003
1000
0000
,
0010
0000
0100
0000
0001
0000
0010
0001
,
0100
0000
1000
0001
0000
0100
1000
0000
,
0100
0000
0001
0000
0010
0000
0001
0100
,
0010
0000
0010
0100
0000
0100
1000
0000
,
0001
0000
1000
0000
0100
0000
0010
0100
,
0010
0000
0001
0010
0100
0000
0001
1000
,
0100
0000
0010
0001
0100
0010
0001
1000
,
0001
0000
1000
0100
0000
0001
0010
0000
,
1000
0000
0000
0001
0100
0000
1000
0001
,
0010
0000
0010
0100
0000
0010
1000
0000
,
0000
0100
0010
0000
1000
0000
0001
1000
,
0001
0000
1001
1001
0000
0000
0100
0010
,
0100
0000
1001
0110
0000
0000
1000
0000
,
0100
0000
0000
0100
0001
0000
0000
0001
,
0010
0000
0000
0010
0100
0000
0000
0100
,
0101
0000
0000
0011
0000
0000
1100
0000
,
0110
0000
0011
0000
0000
1010
0000
0000
,
0101
0110
1100
0101
,
0000
0110
0000
0000
1010
0000
0101
0000
,
0011
0000
0000
1100
0000
0000
0110
0000
,
0101
0000
1010
0000
1100
0000
0000
1001
,
0000
1010
0101
1001
,
0000
0011
0000
0000
0110
0000
0011
0000
,
1010
0000
0110
0000
0000
0101
0000
0000
,
1001
0000
1100
0000
1010
0000
0000
0110
,
0000
0000
0000
0000
1100
0000
0000
0000
0101
0000
0000
0000
2200
3300
0000
0000
,
0000
0000
0010
0000
0100
1000
0001
1000
,
0010
0000
0100
0000
0000
0000
1000
0001
,
1000
0100
0010
1000
,
0100
0001
0010
0000
1000
0100
0000
0000
,
0010
0000
1000
0100
0010
1000
0001
0100
,
0010
0000
0100
0000
0010
0000
0001
0100
,
0001
0000
0100
0000
0010
0000
1000
0100
,
1000
0000
0000
0100
0010
0001
1000
0000
,
0000
1000
0001
0000
0100
0000
1000
0000
,
0001
1000
0100
0000
0000
0000
0010
1000
,
0010
1000
0100
0001
,
1000
0100
0001
0100
,
0010
0000
0000
0010
0100
0010
0100
0000
,
0000
0100
0010
0000
0000
0000
0000
0000
,
0000
0000
0000
0000
,
2002
0000
0000
0000
,
3003
0000
0010
1000
0100
0000
0001
0100
,
0010
0001
1000
0000
0000
0000
1000
0100
,
0001
1000
0010
0001
0100
0010
1000
0000
,
0001
0000
0100
0001
0010
1000
0000
0000
,
0000
0000
0000
0000
1000
0000
0001
1000
,
0010
0000
0101
0000
0000
0000
0001
0100
,
0010
1001
0110
1010
,
0100
0001
0000
0001
0010
0000
0100
0000
,
0001
0010
1100
0011
,
0101
0110
0000
1010
,
1100
0110
1001
0110
,
1001
0011
1100
1001
,
0020
0000
0000
0000
0100
0030
0100
0000
,
0000
1001
0000
0100
,
1010
0011
0110
0011
,
0010
1000
0010
0100
0010
0001
0110
1000
,
0100
0010
0001
1001
0100
0010
0100
0010
,
0000
0010
0100
0001
1000
0001
0010
0000
,
0000
0100
1000
0010
1000
0001
0000
0100
,
0000
0010
0000
1000
0100
0000
0001
0010
,
0100
0000
0100
0010
0000
0010
1000
0000
,
1000
0100
0010
0001
,
1000
0001
1000
0000
0100
0010
0100
0000
,
0010
0100
0010
0000
0101
1000
0010
0000
,
0100
0000
0100
0010
0100
0000
0001
1000
,
0000
0001
0000
0100
0010
0000
1000
0100
,
0000
0001
1000
0100
0010
0100
0001
1000
,
0000
0100
0010
0000
0001
1000
0010
0000
,
0000
0010
0100
0000
0001
0000
0100
0010
,
0000
1000
0100
0000
1000
0010
0001
0100
,
0010
0000
0000
0010
0100
0000
0000
0100
,
0001
0000
0000
0001
1000
0000
0000
0000
,
0010
0000
0000
0101
,
0000
0001
0010
0100
,
0101
0000
0000
1010
0000
0000
1100
0000
,
0000
0000
0010
0000
0001
0000
0100
0001
,
0010
0000
0000
0110
0000
0000
1010
0000
,
0100
0000
0010
0000
1000
0000
0100
0001
,
0100
0010
0000
0100
0010
0000
1000
0100
,
0001
1000
0001
0000
0010
0000
0001
0100
,
1000
0000
0001
0010
0000
0010
1000
0000
,
0100
0010
0100
0000
0001
1000
0010
0100
,
0010
0001
0000
0100
0010
1000
0001
0000
,
1000
0100
0001
0100
0010
0001
0100
1000
,
0100
0000
0010
0100
0000
0010
0100
1000
,
0100
0010
0000
0100
0010
0000
1000
0010
,
0100
0000
0000
0100
0001
0010
1000
0010
,
0100
0010
0000
0100
0010
0001
0000
0010
,
0001
0000
1000
0000
0001
0100
0010
0000
,
1000
0100
0010
0000
0001
1000
0010
0100
,
0010
0000
1000
0010
0000
0100
1000
0000
,
0000
0100
0010
0000
0100
0000
0001
0100
,
0001
0000
0001
0010
0000
1000
0100
0000
,
0000
0000
0010
0000
0010
0000
0100
0001
,
0100
0000
0000
0100
0010
0001
0010
0000
,
0000
0100
1000
0100
0001
0000
1000
0100
,
1000
0000
0000
0001
1000
0010
1000
0100
,
0000
0010
0100
0000
0100
0000
0010
0100
,
1000
0000
1000
0001
0000
0001
0010
0000
,
0100
0000
0001
0000
0010
0000
0100
1000
,
0100
0000
0001
0010
0000
0010
0100
1000
,
0100
0000
0100
0001
0000
0001
0100
1000
,
0100
1010
1010
1100
,
1100
0101
0101
0011
,
0001
0010
0100
1000
0001
0010
0100
1000
,
0001
0010
0100
1000
0000
0000
1000
0000
,
0010
0000
0100
0001
0000
1000
0010
0000
,
0000
0000
0000
0100
0001
0000
1000
0010
,
0000
0100
0001
0000
0110
0000
0000
0000
,
1001
0000
0000
0000
0010
0100
1000
0001
,
0100
0010
1000
0100
0010
0001
0010
1000
,
0010
0001
0100
0010
1000
0100
0010
0100
,
1000
0010
0100
1000
0100
0010
0100
0001
,
0010
1000
0010
0100
0001
0100
0010
1000
,
0010
0100
1000
0010
0100
0001
1000
0001
,
0010
0100
1000
0010
0100
0001
0010
1000
,
0010
0100
0001
0010
0100
1000
0001
1000
,
0010
0100
0001
1000
0001
0010
0100
0010
,
0100
1000
0001
0010
0100
0001
0010
0001
,
1000
0100
0001
1000
0100
1000
0001
0100
,
0010
0100
0001
1000
0010
0001
0100
0010
,
1000
0001
0010
1000
0100
0010
1000
0001
,
0010
0001
1000
0001
0100
0010
0001
0010
,
0100
0010
1000
0100
0001
0100
1000
0010
,
0100
1000
0010
0100
1000
0100
0001
1000
,
0010
1000
0100
1000
0001
1000
0010
0001
,
0000
0001
0010
0000
0100
0000
1000
0010
,
1000
0010
0000
0100
0010
0000
0010
0001
,
0100
1000
0010
0100
0001
0010
0100
1000
,
0000
0010
0001
0000
0100
0010
0000
0100
,
1000
0001
0000
0001
0100
0000
0100
0010
,
0000
0000
0000
0100
0001
0010
0001
0100
,
0000
0100
1000
0010
1000
0100
0000
0000
,
0001
1000
0001
1000
0100
0010
0001
1000
,
0001
1000
0001
0100
0010
1000
0100
0010
,
0001
0010
0100
1000
0000
0010
0001
0000
,
0010
0000
0100
0000
0000
1000
0001
0100
,
0000
0100
0010
0000
1000
0000
0100
0000
,
0010
0001
0000
0001
0010
0000
0100
0000
,
1000
0100
0001
1000
0010
0000
0010
0100
,
0000
0010
0002
0000
0000
0000
0000
0000
,
0000
0000
0003
0200
0000
0000
0001
0000
,
0000
0001
0000
0000
,
0000
0000
1300
0010
,
0100
0000
0001
0010
0000
0000
0100
0000
,
0001
0000
0100
1000
0000
0000
0010
0100
,
0010
0000
0001
0000
0100
0010
0000
0010
,
1000
0100
0000
1010
,
1100
0011
0110
1001
,
0101
1100
0101
1001
,
0011
1100
0101
0011
,
0200
0000
0000
0000
0000
0000
0000
0000
0301
0000
0000
0010
0001
0000
0000
0010
,
0001
0000
0000
0001
1000
0000
0000
0100
0010
0000
0001
0100
0000
0010
1000
0000
,
0000
0100
0000
0010
1000
0000
0000
0000
0220
0000
0000
0000
0000
0000
0000
0000
,
0000
0000
0000
0000
,
0000
0000
0330
0000
0110
0000
0110
1001
,
0000
1001
0110
0000
0000
0000
1000
0000
,
0001
1000
0001
0000
0110
0000
0001
0100
,
1000
0100
0001
0000
0010
1000
0100
0000
,
0010
0001
0100
0000
1000
0100
0010
0000
,
0100
0010
1000
0000
0001
1000
0100
0000
,
0010
1000
0001
0000
0100
0001
0010
0001
,
0000
0001
0010
0000
1000
0000
0010
0000
,
0001
0000
0100
0001
0010
0100
0000
1000
,
0100
0001
1000
0010
,
0100
0000
0001
0000
0010
0100
0000
0001
,
0010
0000
1000
0000
0010
1000
0000
1000
,
0010
0000
0100
0000
0010
0000
0000
0010
,
0001
0000
0000
1000
0010
0000
0000
0100
,
1000
0000
0000
0000
0010
0001
0010
0000
,
0100
0001
0000
0001
0100
0000
0010
0000
,
1000
0010
0100
0010
0001
0000
0000
0101
,
0000
0000
0011
0000
0100
0010
0100
0000
,
0010
0001
1000
0000
0010
0000
0100
0001
,
1000
0000
0100
0000
0010
0001
1000
0000
,
0001
0000
0010
0100
1000
0000
1000
0001
,
0100
0010
1000
0010
1000
0100
0010
0001
,
0100
0010
1000
0000
0100
0010
0100
0000
,
1000
0000
0000
0100
0001
0000
0000
1000
,
0001
0000
0100
0000
1000
0000
0000
0100
,
0010
1000
0100
0001
,
0010
0000
0000
0000
1000
0000
0100
0000
1000
0000
0000
1000
0001
0000
0000
0000
,
1000
0000
0100
0000
1000
0000
0000
0010
0001
0000
0000
0100
0010
0000
0000
0000
,
0100
1000
0000
0000
1100
0000
0001
0000
,
0101
0010
0110
0001
,
0101
0000
0010
0000
1001
0000
0000
0101
,
0000
0000
0011
0000
0010
1000
0100
0000
,
1000
0100
0000
0001
1000
0000
0100
1000
,
0010
0100
0001
0100
0010
1000
0100
1000
,
0001
0100
0010
0001
2002
0000
0000
0000
,
0000
0000
3003
0000
;

//---------------dance-single - ----------------
#NOTES:
     dance-single:
     :
     Easy:
     5:
     0.451,0.496,0.108,0.000,0.000,760.000,27.000,0.000,0.000,0.000:






0000
0000
0000
0000
,
0000
0000
0000
0000
,
0000
0000
0000
0000
,
0010
0100
0010
0100
,
0010
0100
0010
0100
,
0010
1000
0001
1000
,
0000
0000
0010
0001
,
0010
0000
0000
0001
,
1000
0100
0010
0000
,
0000
0100
0001
0010
,
0000
0000
0100
0001
,
1000
0100
0000
0000
,
1000
0001
0010
0000
,
0000
0100
1000
0010
,
0001
0001
0000
0010
,
0010
0000
0101
0010
,
1000
0001
0010
0001
,
0000
0000
0000
0000
,
0100
0000
0001
0100
,
1000
0001
0100
1000
,
0010
0001
0100
0010
,
0001
0010
0100
0001
,
0010
0100
0001
0010
,
0100
0010
0001
0100
,
0010
0001
0100
1000
,
1000
0000
1000
0100
,
0001
0000
0010
0100
,
0001
1000
0010
0001
,
0100
1000
0001
0010
,
0100
1000
0010
0001
,
0100
1000
0001
0010
,
0000
0100
0000
0000
,
0001
0000
0000
0000
,
1000
0000
0000
0000
,
0001
0100
0010
0001
,
1000
0010
0000
0001
,
0001
0100
0010
1000
,
0001
1000
0010
0100
,
0000
0000
0001
1000
,
0001
0010
0000
1000
,
0010
0100
0001
0010
,
1000
0000
1100
0000
,
0001
0010
0001
1000
,
0010
0001
0000
0100
,
0010
0001
0100
0010
,
0001
0100
0010
1000
,
0010
0000
0001
0001
,
0000
0100
0000
1000
,
0000
0000
0001
0010
,
0010
0001
0001
0001
,
0100
1000
0100
0000
,
0010
0001
0001
0000
,
1000
0010
0001
0100
,
0000
0100
0010
1000
,
0001
0000
0000
0100
,
0000
0000
0000
0000
,
0011
0000
0000
0000
,
0000
0000
0000
0000
,
0000
1000
1000
0100
,
0000
0001
0000
0001
,
0000
0010
0100
0001
,
0000
0000
0010
0100
,
0001
0010
1000
0001
,
0100
0001
1000
0010
,
0001
0000
0010
0000
,
0100
0000
1000
0000
,
0001
0000
0000
0100
,
0000
0000
0010
0000
,
0001
0000
0000
1000
,
0000
0000
0010
0001
,
0100
0000
0000
0001
,
0000
0000
0000
0010
,
0010
0000
0001
0100
,
0000
0010
0001
1000
,
0100
1000
0000
0101
,
0000
0000
0010
1000
,
0001
0000
0000
0010
,
0000
0000
1000
0000
,
0001
0100
0001
0010
,
0001
1000
0001
0010
,
0100
0000
0010
0000
,
0001
0000
1000
0000
,
0100
0000
0000
0001
,
0000
0000
0010
0000
,
0101
0000
0000
1001
,
0000
0000
0010
0100
,
0010
0000
0000
1000
,
0000
0000
0000
0010
,
0010
0000
0001
0100
,
0000
0010
0001
0100
,
0100
0000
0000
0010
,
0000
0000
0000
1000
,
0010
0000
0000
1010
,
0000
0000
0000
0100
,
0100
0000
0000
0001
,
0001
0000
0000
1000
,
0001
0000
0100
0000
,
0010
0000
0001
0000
,
0100
0000
0000
0000
,
0000
0000
0000
0000
,
0000
0000
0000
0000
,
0000
0000
0000
0000
,
0000
0000
0000
0000
,
0000
0000
0001
0000
,
0000
0010
0001
1000
,
0000
0000
0001
0100
,
0010
1000
0000
0000
,
0100
0001
0010
0000
,
0000
1000
0100
0001
,
0000
0000
0001
0100
,
0010
0001
0000
1000
,
1000
0001
0010
1000
,
0001
0010
1000
0000
,
0000
0000
0010
0100
,
0010
0001
0000
0100
,
0100
0001
0010
1000
,
0001
0000
0010
0000
,
0000
0100
0001
1000
,
0100
0001
0000
0010
,
0010
1000
0001
0100
,
1000
0001
0100
0001
,
0010
0000
0001
0001
,
0000
0010
0000
0000
,
1100
0000
0000
0000
,
0000
0000
0000
0000
,
0000
0010
0001
0100
,
0010
1000
0000
1000
,
0100
0010
0001
1000
,
0100
0001
0010
0000
,
0000
0000
1000
0100
,
0010
0001
0000
0100
,
0010
1000
0001
0010
,
0001
0000
0010
0000
,
0000
0000
1000
0100
,
0001
0010
0000
1000
,
1000
0001
0100
0001
,
1000
0010
0001
0100
,
0010
0000
0001
0001
,
0000
1100
0000
0001
,
0010
0010
0010
0010
,
0010
0010
0010
0010
,
0010
0010
1000
0001
,
0000
0001
0000
0010
,
0010
1000
1000
0000
,
0000
0000
0001
0100
,
0001
0000
0000
1000
,
0000
0000
0000
0000
,
0000
1000
0000
0001
,
0000
0010
0100
1000
,
0001
0001
0001
0001
,
0000
0000
0010
1000
,
0000
0010
0010
0000
,
0000
0010
0100
0010
,
0000
0001
0100
0001
,
0010
0001
1000
0001
,
0010
0000
0001
0000
,
0100
0000
1000
0000
,
0010
0000
0000
0001
,
0000
0100
0010
0001
,
0101
0000
0000
1001
,
0000
0010
0100
0001
,
0010
0000
0000
1010
,
0001
0000
1000
0001
,
0001
0000
0010
1000
,
0000
0001
0010
0100
,
0100
0100
0000
1000
,
0000
0001
0100
0010
,
0010
0000
0000
1100
,
0000
0100
0010
0001
,
1000
0010
0000
0001
,
0100
0001
0010
1000
,
0001
0000
0100
1000
,
0001
0000
0010
0000
,
0100
0000
0000
1000
,
0000
0001
0100
0010
,
0101
0000
0000
1001
,
0000
0010
0001
0100
,
0100
0100
0000
0001
,
0000
0010
0010
0001
,
0001
0000
0010
0010
,
0000
1000
0100
1000
,
1000
0100
1000
1000
,
0000
0001
0001
0010
,
1000
0000
0000
0010
,
0001
0100
0010
0001
,
0001
0000
0000
0001
,
0001
0000
0000
0001
,
0001
0000
1010
0000
,
1001
0000
0101
0000
,
0010
0010
0010
0100
,
0100
0100
1001
0000
,
1000
0000
0000
1000
0000
0000
1000
0000
,
0000
0000
0000
0000
0001
0000
0000
0001
,
0000
0001
1000
0000
,
0100
0000
0010
0001
,
1000
0100
0001
0010
,
1000
0001
0100
0001
,
1000
0010
0001
0100
,
1000
0010
0001
0100
,
1000
0010
0001
0100
,
0010
1000
0001
1000
,
0100
0010
0001
0100
,
0010
0001
1000
0010
,
0001
0100
0001
0010
,
1000
0100
0001
0100
,
0010
0100
0010
0001
,
1000
0010
0001
1000
,
0010
1000
0001
0100
,
0001
1000
0100
1000
,
0001
0010
1000
0100
,
0010
0001
0100
0010
,
0000
0010
0001
1000
,
1000
0000
0010
0010
,
0001
0010
0100
0001
,
0000
0001
0001
0000
,
1000
0000
0001
0001
,
0000
0000
0100
0100
,
0000
1000
1000
0000
,
0100
0100
0001
0100
,
0100
0100
0010
0001
,
0100
0001
0000
0100
,
0010
0001
1000
0100
,
0001
0010
1000
0001
,
0010
0100
0010
0001
,
1000
0100
0010
0000
,
0000
0100
0000
0000
,
0000
0000
0000
0000
,
0000
0000
0000
0000
,
0000
0000
1000
0010
,
0001
0100
0000
0001
,
0100
0001
0000
0010
,
0010
0100
0001
0000
,
1000
0001
0000
0010
,
0001
0100
0010
1000
,
0001
1000
0100
1000
,
0010
0001
0100
0010
,
0001
0000
0100
0000
,
0000
0100
0010
0000
,
0000
1000
0010
0000
,
0000
0001
0000
0000
,
0010
0000
0011
0000
,
0000
0011
0000
1000
,
0100
0100
0011
0100
,
0000
0100
0010
0001
,
0010
0001
1000
0010
,
0001
1000
0100
0001
,
0010
0100
0001
0010
,
0000
0010
1000
0010
,
0100
0001
0010
0000
,
0001
0100
1000
0010
,
0001
0100
0010
0000
,
0010
1000
0010
0000
,
0010
0001
0010
0000
,
0110
0000
1010
0000
,
1001
0000
0010
0010
,
0001
0100
0001
0010
,
1000
0001
0100
0000
,
0000
0110
0000
0001
,
1000
1000
0010
1000
,
1000
0001
1000
1000
,
0100
0010
1000
1000
,
0001
0000
1000
0010
,
0001
1000
0001
0001
,
1000
0000
0100
1000
,
0100
0001
1000
0000
,
0010
1000
0001
0100
,
0010
1000
0001
0100
,
0001
1000
0001
0010
,
0001
1000
0001
0100
,
0001
0010
0001
0100
,
0001
0010
1000
0001
,
0010
0000
0010
0001
,
1000
0000
1000
0001
,
0010
0000
0010
0001
,
0100
0000
0110
0000
;
