#TITLE:Tower Of Saints;
#SUBTITLE:;
#ARTIST:Beridzebeth;
#TITLETRANSLIT:;
#SUBTITLETRANSLIT:;
#ARTISTTRANSLIT:;
#CREDIT:;
#BANNER:../banner.png;
#BACKGROUND:../bg.png;
#LYRICSPATH:;
#CDTITLE:;
#MUSIC:Tower Of Saints.ogg;
#OFFSET:-1.275;
#SAMPLESTART:22.323;
#SAMPLELENGTH:20.000;
#SELECTABLE:YES;
#BPMS:0.000=193.998;
#STOPS:;
#BGCHANGES:;
// cache tags:
#FIRSTBEAT:4.000;
#LASTBEAT:364.000;
#SONGFILENAME:Songs/Cirque du Lykan/Tower Of Saints - [Zaia]/Tower Of Saints.sm;
#HASMUSIC:1;
#HASBANNER:1;
#MUSICLENGTH:121.312;
// end cache tags

//---------------dance-single - Zaia - 14(mid)----------------
#NOTES:
     dance-single:
     Zaia - 14(mid):
     Challenge:
     14:
     1.000,1.000,0.082,0.231,1.000,927.000,10.000,28.000,0.000,0.000:
0000
0000
0000
0000
,
0001
1000
0100
0010
0100
1000
0001
0100
,
0010
1000
0100
1000
0010
0100
0001
0100
,
0010
1000
0001
0010
0100
0010
0001
1000
,
0010
0100
0001
0010
0001
0100
0010
1000
,
0100
1000
0001
0100
0010
1000
0001
0010
,
0100
1000
0010
1000
0100
0010
0001
0010
,
0100
1000
0001
0100
0010
0100
0001
1000
,
0100
0010
0001
0100
0001
0010
0100
1000
,
0002
0000
0000
0010
0000
0000
0000
0010
,
0000
1000
0000
0100
0000
0000
0003
0000
,
2000
0000
0000
0100
0000
0000
0000
0100
,
0000
0001
0000
0010
0000
0000
3000
0000
,
0020
0000
0000
0100
0000
0000
0000
0100
,
0000
0000
1030
0000
0001
0100
0001
0100
0010
1000
0001
1000
0100
0010
0100
1000
,
0001
0010
0001
1000
0010
1000
0001
0100
0010
1000
0001
1000
0001
0010
0100
1000
,
0001
1000
0001
1000
0001
1000
0001
1000
0001
1000
0001
1000
0001
1000
0001
1000
,
0010
0100
0001
1000
0100
1000
0001
0010
0001
0100
0010
1000
0001
0010
0100
0010
,
0001
1000
0010
0100
0001
0010
0100
1000
0001
1000
0010
0100
0001
0100
0010
1000
,
0100
0010
0001
0100
0010
1000
0001
0010
0100
1000
0001
0100
0001
1000
0100
1000
,
0010
0100
0001
1000
0001
0010
0100
1000
0001
1000
0010
0100
0001
0010
0001
1000
,
0100
0010
0001
1000
0010
1000
0001
0100
0001
0010
0100
1000
0001
0100
0010
0100
,
0001
1000
0100
0010
0001
0100
0010
1000
0001
1000
0100
0010
0001
0010
0100
1000
,
0010
0100
0001
0010
0100
1000
0001
0100
0010
1000
0001
0010
0001
1000
0010
1000
,
0100
0010
0001
1000
0001
0100
0010
1000
0001
1000
0100
0010
0001
0100
0001
1000
,
0002
0000
0000
0000
0000
0000
1003
0010
0100
0000
0001
0010
0100
1000
0001
1000
,
0020
0000
0000
0000
0000
0000
0130
0001
1000
0000
0100
0010
0001
1000
0001
0100
,
0010
0000
1000
0010
0100
0001
0010
0100
1000
0001
0100
0001
1000
0100
1000
0001
,
0200
0320
2030
3200
,
0310
0000
0100
1000
0001
1000
0010
0000
0100
0001
0010
0001
1000
0010
1000
0001
,
0100
0000
0010
1000
0001
1000
0100
0000
0010
0001
0100
0001
1000
0100
1000
0001
,
0100
0000
0010
1000
0001
0010
0100
0010
0001
1000
0001
0100
0010
0100
0001
1000
,
0100
0010
0001
1000
0001
0100
0010
1000
0001
0100
0001
0010
0100
1000
0001
1000
,
0001
0100
0010
0100
0001
1000
0100
1000
0010
0100
0001
1000
0100
0010
0001
0100
,
0010
1000
0001
0100
0001
1000
0001
0010
0100
1000
0001
1000
0010
0100
0001
1000
,
0100
0010
0001
0100
0010
1000
0010
0100
0001
1000
0100
1000
0001
0010
0001
0100
,
0001
1000
0100
1000
0001
0010
0100
1000
0001
1000
0010
0100
0010
1000
0010
1000
,
0010
0100
0001
1000
0100
1000
0001
1000
0100
0010
0001
1000
0010
0100
0001
0010
,
0100
1000
0001
0010
0001
1000
0001
0100
0010
1000
0001
1000
0100
0010
0001
1000
,
0010
0100
0001
0010
0100
1000
0100
0010
0001
1000
0010
1000
0001
0100
0001
0010
,
0001
1000
0010
1000
0001
0100
0010
1000
0001
1000
0100
0010
0100
1000
0001
0010
,
0200
0000
0000
0000
0000
0000
1300
0001
0010
0000
0100
1000
0001
1000
0010
0100
,
0002
0000
0000
0000
0000
0000
0013
0100
1000
0000
0010
0100
0001
1000
0001
0010
,
0100
0000
1000
0100
0010
0001
0100
0010
1000
0001
0010
0001
1000
0010
1000
0001
,
0020
0230
2300
3020
,
0130
0000
0010
1000
0001
1000
0100
0000
0010
0001
0100
0001
1000
0100
1000
0001
,
0010
0000
0100
1000
0001
1000
0010
0000
0100
0001
0010
0001
1000
0010
1000
0001
,
0010
0000
0100
1000
0001
0100
0010
0100
0001
1000
0001
0010
0100
0010
0001
1000
,
0010
0100
0001
1000
0001
0010
0100
1000
0001
0010
0001
0100
0010
1000
0001
0010
,
0001
0000
0001
1000
0000
1000
0010
0000
,
0010
0100
0000
0100
0001
0000
0001
0010
,
0100
1000
1000
0001
0100
0100
0010
1000
,
1000
0001
0010
0010
0100
1000
1000
0010
,
0100
0000
0100
0001
0000
0001
0010
0000
,
0010
0100
0000
0100
1000
0000
1000
0001
,
0100
0010
0010
1000
0001
0001
0100
0010
,
0010
0000
1000
0000
0001
0000
0001
0000
1000
0000
0001
0010
0100
0010
0100
1000
,
0001
0000
0001
0010
0000
0010
0001
0000
,
0001
1000
0000
1000
0100
0000
0010
0001
,
0100
0010
0010
1000
0001
0001
0010
0100
,
0100
1000
0001
0001
0100
0010
0010
0100
,
0001
0000
0001
1000
0000
1000
0100
0000
,
0100
0010
0000
0010
0001
0000
1000
0001
,
0100
0100
0010
0000
0010
1000
0000
1000
,
0100
0000
0000
0000
1000
0000
0001
0000
1000
0000
0100
0010
0001
0010
0001
1000
,
0002
0000
0000
0203
0000
0000
0320
0000
,
0000
2030
0000
0000
3200
0000
0320
0000
,
0032
0000
0000
0203
0000
0000
0302
0000
,
0000
0023
0000
0000
0230
0000
1300
0100
,
0020
0000
0000
0000
,
0031
1000
0001
0100
0001
1000
0100
0010
0100
1000
0001
1000
0010
0100
0010
1000
,
0001
0100
0001
0100
0010
1000
0001
0010
0100
1000
0001
1000
0001
0100
0010
1000
,
0001
0010
0001
1000
0100
1000
0001
0010
0100
1000
0001
0100
0010
1000
0001
1000
,
0100
0010
0100
1000
0010
0100
0001
1000
0010
1000
0001
0010
0100
1000
0001
0010
,
0001
1000
0010
1000
0001
0010
0001
1000
0100
1000
0001
0100
0001
1000
0100
1000
,
0010
0100
0001
0010
0100
1000
0001
0100
0010
1000
0100
0010
0100
1000
0001
0100
,
0001
1000
0100
1000
0001
0010
0100
1000
0001
1000
0001
0100
0010
1000
0001
0010
,
0100
1000
0010
0100
0001
1000
0010
1000
0001
1000
0100
0010
0001
1000
0010
1000
,
0001
0100
0010
1000
0100
1000
0010
0100
0001
0010
0100
1000
0001
1000
0100
0010
,
0100
1000
0001
0100
0001
0010
0100
1000
0001
1000
0010
1000
0001
0010
0001
1000
,
0001
0100
0010
0100
0001
0100
0010
1000
0001
1000
0010
0100
0010
1000
0010
0100
,
0001
0000
0000
1001
0000
0000
1100
0000
,
0000
0110
0000
0000
0011
0000
0000
1001
,
0000
0000
1010
0000
0000
0110
0000
0000
,
0101
0000
0000
1001
0000
0000
0011
0000
,
1000
0100
0100
0010
0001
0001
1000
0010
,
0010
0100
0001
0001
0010
0100
0100
1000
,
0001
0001
0100
0010
0010
1000
0001
0001
,
0010
0100
1000
0001
1000
0100
1000
0100
0010
0100
1000
0001
0100
0010
1000
0001
,
0200
0000
0000
0000
,
0000
0000
0000
0000
,
0300
0000
0000
0000
;

//---------------dance-single - Zaia - 12(mid)----------------
#NOTES:
     dance-single:
     Zaia - 12(mid):
     Hard:
     12:
     0.981,1.000,0.082,0.231,0.841,795.000,10.000,28.000,0.000,0.000:
0000
0000
0000
0000
,
0001
1000
0100
0010
0100
1000
0001
0100
,
0010
1000
0100
1000
0010
0100
0001
0100
,
0010
1000
0001
0010
0100
0010
0001
1000
,
0010
0100
0001
0010
0001
0100
0010
1000
,
0100
1000
0001
0100
0010
1000
0001
0010
,
0100
1000
0010
1000
0100
0010
0001
0010
,
0100
1000
0001
0100
0010
0100
0001
1000
,
0100
0010
0001
0100
0001
0010
0100
1000
,
0002
0000
0000
0010
0000
0000
0000
0010
,
0000
1000
0000
0100
0000
0000
0003
0000
,
2000
0000
0000
0100
0000
0000
0000
0100
,
0000
0001
0000
0010
0000
0000
3000
0000
,
0020
0000
0000
0100
0000
0000
0000
0100
,
0000
0000
1030
0000
0001
0100
0001
0100
0010
1000
0001
1000
0100
0010
0100
1000
,
0001
0010
0001
1000
0010
1000
0001
0100
0010
1000
0001
1000
0001
0010
0100
1000
,
0001
1000
0001
1000
0001
1000
0001
1000
0001
1000
0001
1000
0001
1000
0001
1000
,
0010
0100
0001
1000
0100
0010
0100
1000
,
0001
0010
0001
0100
0010
1000
0001
0100
,
0001
0010
0001
1000
0100
1000
0010
1000
,
0001
0010
0100
1000
0010
0100
0001
1000
,
0100
1000
0001
0100
0001
1000
0010
0100
,
0001
0010
0100
1000
0001
1000
0010
0100
,
0010
1000
0001
1000
0001
0010
0100
0010
,
0001
1000
0010
0100
0001
1000
0100
0010
,
0002
0000
0000
0000
0000
0000
1003
0010
0100
0000
0001
0010
0100
1000
0001
1000
,
0020
0000
0000
0000
0000
0000
0130
0001
1000
0000
0100
0010
0001
1000
0001
0100
,
0010
0000
1000
0010
0100
0001
0010
0100
1000
0001
0100
0001
1000
0100
1000
0001
,
0200
0320
2030
3200
,
0310
0000
0100
1000
0001
1000
0010
0000
0100
0001
0010
0001
1000
0010
1000
0001
,
0100
0000
0010
1000
0001
1000
0100
0000
0010
0001
0100
0001
1000
0100
1000
0001
,
0100
0000
0010
1000
0001
0010
0100
0010
0001
1000
0001
0100
0010
0100
0001
1000
,
0100
0010
0001
1000
0001
0100
0010
1000
0001
0100
0001
0010
0100
1000
0001
1000
,
0001
0100
0010
0100
0001
1000
0100
1000
0010
0100
0001
1000
0100
0010
0001
0100
,
0010
1000
0001
0100
0001
1000
0001
0010
0100
1000
0001
1000
0010
0100
0001
1000
,
0100
0010
0001
0100
0010
1000
0010
0100
0001
1000
0100
1000
0001
0010
0001
0100
,
0001
1000
0100
1000
0001
0010
0100
1000
0001
0000
1000
0000
0001
0000
1000
0000
,
0001
0100
0001
1000
0100
1000
0001
1000
0100
0010
0001
1000
0010
0100
0001
0010
,
0100
1000
0001
0010
0001
1000
0001
0100
0010
1000
0001
1000
0100
0010
0001
1000
,
0010
0100
0001
0010
0100
1000
0100
0010
0001
1000
0010
1000
0001
0100
0001
0010
,
0001
1000
0010
1000
0001
0100
0010
1000
0001
1000
0100
0010
0100
1000
0001
0010
,
0200
0000
0000
0000
0000
0000
1300
0001
0010
0000
0100
1000
0001
1000
0010
0100
,
0002
0000
0000
0000
0000
0000
0013
0100
1000
0000
0010
0100
0001
1000
0001
0010
,
0100
0000
1000
0100
0010
0001
0100
0010
1000
0001
0010
0001
1000
0010
1000
0001
,
0020
0230
2300
3020
,
0130
0000
0010
1000
0001
1000
0100
0000
0010
0001
0100
0001
1000
0100
1000
0001
,
0010
0000
0100
1000
0001
1000
0010
0000
0100
0001
0010
0001
1000
0010
1000
0001
,
0010
0000
0100
1000
0001
0100
0010
0100
0001
1000
0001
0010
0100
0010
0001
1000
,
0010
0100
0001
1000
0001
0010
0100
1000
0001
0010
0001
0100
0010
1000
0001
0010
,
0001
0000
0001
1000
0000
1000
0010
0000
,
0010
0100
0000
0100
0001
0000
0001
0010
,
0100
1000
1000
0001
0100
0100
0010
1000
,
1000
0001
0010
0010
0100
1000
1000
0010
,
0100
0000
0100
0001
0000
0001
0010
0000
,
0010
0100
0000
0100
1000
0000
1000
0001
,
0100
0010
0010
1000
0001
0001
0100
0010
,
0010
0000
1000
0000
0001
0000
0001
0000
1000
0000
0001
0010
0100
0010
0100
1000
,
0001
0000
0001
0010
0000
0010
0001
0000
,
0001
1000
0000
1000
0100
0000
0010
0001
,
0100
0010
0010
1000
0001
0001
0010
0100
,
0100
1000
0001
0001
0100
0010
0010
0100
,
0001
0000
0001
1000
0000
1000
0100
0000
,
0100
0010
0000
0010
0001
0000
1000
0001
,
0100
0100
0010
0000
0010
1000
0000
1000
,
0100
0000
0000
0000
1000
0000
0001
0000
1000
0000
0100
0010
0001
0010
0001
1000
,
0002
0000
0000
0203
0000
0000
0320
0000
,
0000
2030
0000
0000
3200
0000
0320
0000
,
0032
0000
0000
0203
0000
0000
0302
0000
,
0000
0023
0000
0000
0230
0000
1300
0100
,
0020
0000
0000
0000
,
0031
1000
0001
0100
0001
1000
0100
0010
0100
1000
0001
1000
0010
0100
0010
1000
,
0001
0100
0001
0100
0010
1000
0001
0010
0100
1000
0001
1000
0001
0100
0010
1000
,
0001
0010
0001
1000
0100
1000
0001
0010
0100
1000
0001
0100
0010
1000
0001
1000
,
0100
0010
0001
1000
0010
0100
0010
1000
,
0001
0100
0001
0010
0100
1000
0001
0010
,
0001
0100
0001
1000
0010
1000
0100
1000
,
0001
0100
0010
1000
0100
0010
0001
1000
,
0010
1000
0001
0010
0001
1000
0100
0010
,
0001
0100
0010
1000
0001
1000
0100
0010
,
0100
1000
0001
1000
0001
0100
0010
0100
,
0001
1000
0100
0010
0001
1000
0010
0100
,
0001
0000
0000
1001
0000
0000
1100
0000
,
0000
0110
0000
0000
0011
0000
0000
1001
,
0000
0000
1010
0000
0000
0110
0000
0000
,
0101
0000
0000
1001
0000
0000
0011
0000
,
1000
0100
0100
0010
0001
0001
1000
0010
,
0010
0100
0001
0001
0010
0100
0100
1000
,
0001
0001
0100
0010
0010
1000
0001
0001
,
0010
0100
1000
0001
1000
0100
1000
0100
0010
0100
1000
0001
0100
0010
1000
0001
,
0200
0000
0000
0000
,
0000
0000
0000
0000
,
0300
0000
0000
0000
;

//---------------dance-single - Zaia - 11(mid)----------------
#NOTES:
     dance-single:
     Zaia - 11(mid):
     Medium:
     11:
     0.825,1.000,0.082,0.321,0.305,652.000,10.000,39.000,0.000,0.000:
0000
0000
0000
0000
,
0001
1000
0100
0010
0100
1000
0001
0100
,
0010
1000
0100
1000
0010
0100
0001
0100
,
0010
1000
0001
0010
0100
0010
0001
1000
,
0010
0100
0001
0010
0001
0100
0010
1000
,
0100
1000
0001
0100
0010
1000
0001
0010
,
0100
1000
0010
1000
0100
0010
0001
0010
,
0100
1000
0001
0100
0010
0100
0001
1000
,
0100
0010
0001
0100
0001
0010
0100
1000
,
0002
0000
0000
0010
0000
0000
0000
0010
,
0000
1000
0000
0100
0000
0000
0003
0000
,
2000
0000
0000
0100
0000
0000
0000
0100
,
0000
0001
0000
0010
0000
0000
3000
0000
,
0020
0000
0000
0100
0000
0000
0000
0100
,
0000
1030
0001
0100
0001
1000
0010
0100
,
0001
1000
0100
0010
0100
1000
0010
0100
,
0001
1000
0001
1000
0001
1000
0001
1000
,
0010
0100
0001
1000
0100
0010
0100
1000
,
0001
0010
0001
0100
0010
1000
0001
0100
,
0001
0010
0001
1000
0100
1000
0010
1000
,
0001
0010
0100
1000
0010
0100
0001
1000
,
0100
1000
0001
0100
0001
1000
0010
0100
,
0001
0010
0100
1000
0001
1000
0010
0100
,
0010
1000
0001
1000
0001
0010
0100
0010
,
0001
1000
0010
0100
0001
1000
0100
0010
,
0002
0000
0000
0000
0000
0000
1003
0010
0100
0000
0001
0010
0100
1000
0001
1000
,
0020
0000
0000
0000
0000
0000
0130
0001
1000
0000
0100
0010
0001
1000
0001
0100
,
0010
0000
1000
0010
0100
0001
0010
0100
1000
0001
0100
0001
1000
0100
1000
0001
,
0200
0320
2030
3200
,
0310
0000
0100
1000
0001
1000
0010
0000
0100
0001
0010
0001
1000
0010
1000
0001
,
0100
0000
0010
1000
0001
1000
0100
0000
0010
0001
0100
0001
1000
0100
1000
0001
,
0100
0000
0010
1000
0001
0010
0100
0010
0001
0000
1000
0000
0001
0000
0100
0000
,
0001
0010
0100
1000
0010
1000
0001
1000
,
0100
0010
0100
1000
0001
0100
0010
0100
,
0001
1000
0100
0010
0001
1000
0010
0100
,
0001
1000
0010
1000
0100
1000
0001
0010
,
0001
0100
0001
1000
0100
0010
0001
1000
,
0010
1000
0001
0010
0100
1000
0001
0100
,
0001
1000
0100
0010
0100
1000
0001
1000
,
0010
0100
0001
1000
0100
0010
0001
0010
,
0100
1000
0001
0100
0010
1000
0001
1000
,
0200
0000
0000
0000
0000
0000
1300
0001
0010
0000
0100
1000
0001
1000
0010
0100
,
0002
0000
0000
0000
0000
0000
0013
0100
1000
0000
0010
0100
0001
1000
0001
0010
,
0100
0000
1000
0100
0010
0001
0100
0010
1000
0001
0010
0001
1000
0010
1000
0001
,
0020
0230
2300
3020
,
0130
0000
0010
1000
0001
1000
0100
0000
0010
0001
0100
0001
1000
0100
1000
0001
,
0010
0000
0100
1000
0001
1000
0010
0000
0100
0001
0010
0001
1000
0010
1000
0001
,
0010
0000
0100
1000
0001
0100
0010
0100
0001
0000
1000
0000
0001
0000
0010
0000
,
0001
0100
0010
1000
0100
1000
0010
1000
,
0001
0000
0001
1000
0000
1000
0010
0000
,
0010
0100
0000
0100
0001
0000
0001
0010
,
0100
1000
1000
0001
0100
0100
0010
1000
,
1000
0001
0010
0010
0100
1000
1000
0010
,
0100
0000
0100
0001
0000
0001
0010
0000
,
0010
0100
0000
0100
1000
0000
1000
0001
,
0100
0010
0010
1000
0001
0001
0100
0010
,
0010
0000
1000
0000
0001
0000
0001
0000
1000
0000
0001
0010
0100
0010
0100
1000
,
0001
0000
0001
0010
0000
0010
0001
0000
,
0001
1000
0000
1000
0100
0000
0010
0001
,
0100
0010
0010
1000
0001
0001
0010
0100
,
0100
1000
0001
0001
0100
0010
0010
0100
,
0001
0000
0001
1000
0000
1000
0100
0000
,
0100
0010
0000
0010
0001
0000
1000
0001
,
0100
0100
0010
0000
0010
1000
0000
1000
,
0100
0000
0000
0000
1000
0000
0001
0000
1000
0000
0100
0010
0001
0010
0001
1000
,
0002
0000
0000
0203
0000
0000
0320
0000
,
0000
2030
0000
0000
3200
0000
0320
0000
,
0032
0000
0000
0203
0000
0000
0302
0000
,
0000
0023
0000
0000
0230
0000
1300
0100
,
0020
0000
0000
0000
,
0032
0000
0000
2003
0000
0000
3020
0000
,
0230
0000
0000
0302
0000
0000
0023
0000
,
0230
0000
0000
0000
2300
3020
0230
0302
,
0013
0100
1000
0001
0100
0010
0100
0001
,
1000
0010
1000
0100
0010
0001
1000
0100
,
1000
0010
1000
0001
0100
0001
0010
0001
,
1000
0010
0100
0001
0010
0100
1000
0001
,
0100
0001
1000
0100
1000
0001
0010
0100
,
1000
0010
0100
0001
1000
0001
0010
0100
,
0010
0001
1000
0001
1000
0010
0100
0010
,
1000
0001
0010
0100
1000
0001
0100
0010
,
1000
0000
0000
1001
0000
0000
0011
0000
,
0000
0110
0000
0000
1100
0000
0000
1001
,
0000
0000
0101
0000
0000
0110
0000
0000
,
1010
0000
0000
1001
0000
0000
1100
0000
,
0001
0010
0010
0100
1000
1000
0001
0100
,
0100
0010
1000
1000
0100
0010
0010
0001
,
1000
1000
0010
0100
0100
0001
1000
1000
,
0100
0010
0001
1000
0001
0010
0001
0010
0100
0010
0001
1000
0010
0100
0001
1000
,
0020
0000
0000
0000
,
0000
0000
0000
0000
,
0030
0000
0000
0000
;
