#TITLE:close to you;
#SUBTITLE:;
#ARTIST:Reica;
#TITLETRANSLIT:;
#SUBTITLETRANSLIT:;
#ARTISTTRANSLIT:;
#CREDIT:;
#BANNER:banner.png;
#BACKGROUND:bg.png;
#LYRICSPATH:;
#CDTITLE:cdtitle.png;
#MUSIC:close to you.mp3;
#OFFSET:0.000;
#SAMPLESTART:64.617;
#SAMPLELENGTH:15.000;
#SELECTABLE:YES;
#BPMS:0.000=140.000;
#STOPS:;
#BGCHANGES:20.000=-random-=1.000=0=0=1,
36.000=-random-=1.000=0=0=1,
52.000=-random-=1.000=0=0=1,
56.000=-random-=1.000=0=0=1,
72.000=-random-=1.000=0=0=1,
88.000=-random-=1.000=0=0=1,
104.000=-random-=1.000=0=0=1,
120.000=-random-=1.000=0=0=1,
136.000=-random-=1.000=0=0=1,
152.000=-random-=1.000=0=0=1,
168.000=-random-=1.000=0=0=1,
184.000=-random-=1.000=0=0=1,
200.000=-random-=1.000=0=0=1,
216.000=-random-=1.000=0=0=1,
232.000=-random-=1.000=0=0=1,
248.000=bg.png=1.000=0=0=1,
99999=-nosongbg-=1.000=0=0=0 // don't automatically add -songbackground-
;
// cache tags:
#FIRSTBEAT:20.000;
#LASTBEAT:264.021;
#SONGFILENAME:Songs/other/CloseToYou/close to you.sm;
#HASMUSIC:1;
#HASBANNER:1;
#MUSICLENGTH:115.364;
// end cache tags

//---------------dance-single - ----------------
#NOTES:
     dance-single:
     :
     Beginner:
     1:
     0.147,0.200,0.061,0.087,0.000,102.000,7.000,10.000,0.000,0.000:
0000
0000
0000
0000
,
0000
0000
0000
0000
,
0000
0000
0000
0000
,
0000
0000
0000
0000
,
0000
0000
0000
0000
,
0010
0000
0000
0000
,
0010
0000
0000
0000
,
0100
0000
0100
0000
,
0100
0000
0100
0000
,
1000
0000
0000
0000
,
1000
0000
0000
0000
,
0001
0000
0001
0000
,
0001
0000
0001
0000
,
2002
0000
3003
0000
,
0010
0000
0000
0000
,
0010
0000
0000
0000
,
0100
0000
0000
0000
,
0100
0000
0000
0000
,
1000
0000
1000
0000
,
2000
0000
3000
0000
,
0001
0000
0001
0000
,
0002
0000
0003
0000
,
1001
0000
0000
0000
,
0010
0000
0000
0000
,
0100
0000
0000
0000
,
0010
0000
0000
0000
,
1000
0000
1000
0000
,
2000
0000
3000
0000
,
0001
0000
0001
0000
,
0002
0000
0003
0000
,
0010
0000
0010
0010
,
0010
0000
0100
0100
,
0100
0000
0010
0010
,
0010
0000
0100
0100
,
0100
0000
1000
0000
,
0001
0000
0010
0000
,
0010
0000
0100
0000
,
2002
0000
3003
0000
,
0010
0000
0010
0000
,
0100
0000
0100
0000
,
1000
0000
1000
0000
,
0001
0000
0001
0000
,
0100
0000
0100
0000
,
0010
0000
0010
0000
,
0001
0000
0001
0000
,
1000
0000
1000
0000
,
0010
0000
0010
0000
,
0100
0000
0100
0000
,
1000
0000
0001
0000
,
1000
0000
0001
0000
,
0100
0000
0100
0000
,
0010
0000
0010
0000
,
1001
0000
0110
0000
,
1001
0000
0000
0000
,
0010
0000
0010
0000
,
0100
0000
0100
0000
,
1000
0000
0001
0000
,
1000
0000
0001
0000
,
0100
0000
0010
0000
,
0100
0000
0010
0000
,
0001
0000
1000
0000
,
0001
0000
1000
0000
,
0010
0000
0010
0000
,
2002
0000
0000
0000
,
0000
0000
0000
0000
,
0000
0000
0000
0000
,
3003
0000
0000
0000
;

//---------------dance-single - ----------------
#NOTES:
     dance-single:
     :
     Medium:
     7:
     0.519,0.515,0.615,0.381,0.069,304.000,71.000,44.000,0.000,0.000:
0000
0000
0000
0000
,
0000
0000
0000
0000
,
0000
0000
0000
0000
,
0000
0000
0000
0000
,
0000
0000
0000
0000
,
0110
0000
1000
0001
0000
0100
0010
0000
,
1000
0001
0000
0010
0110
0000
1001
0000
,
1000
0100
0010
0002
0000
1003
0010
0002
,
0000
1003
0010
0100
0000
0101
1010
0000
,
1001
0000
0010
0100
0000
1000
0001
0000
,
0100
0010
0000
1000
0001
0000
0110
0000
,
0001
0100
0010
2000
0000
3001
0010
2000
,
0000
3100
0011
0000
0010
0001
0100
0000
,
2002
0000
0000
0000
3003
0010
1000
0100
,
0010
0000
0100
0001
0000
1000
0000
1001
,
0000
0110
0000
1000
0000
0001
0100
0010
,
1000
0000
0100
1000
0000
0010
0000
0101
,
0000
1010
0000
0001
1000
0000
0110
0000
,
2000
0000
3100
0020
0000
0031
0020
0000
,
0001
0000
1000
0031
0000
1000
0001
0010
,
0200
0000
1300
0002
0000
0013
1000
0000
,
1020
0000
0031
0100
0000
0001
0100
0010
,
1000
0000
1000
0010
0000
0100
0000
1001
,
0000
0110
0000
0001
0000
0001
0100
0010
,
1000
0000
0010
0001
0000
1001
0000
1010
,
0000
0101
0000
1000
0001
0000
0110
0000
,
2100
0000
3001
0020
0000
0130
1000
0000
,
0010
0000
1001
0010
0000
1000
0001
0100
,
1020
0000
1030
0200
0000
0310
1001
0000
,
1000
0000
0000
0000
0001
0000
1000
0000
0100
0000
0010
0000
0001
0100
0000
0020
,
0000
0000
1000
0000
0031
0000
0000
0000
0100
0000
0001
0000
1000
0010
0000
0200
,
0000
1000
0301
0000
1000
0100
0010
0001
,
0200
0000
0301
0010
0000
0110
0000
1001
,
0000
0000
0010
0000
0000
0000
1000
0000
0001
0000
0100
0000
0010
1000
0000
0020
,
0000
0000
0031
1000
0000
1100
0000
0101
,
0000
0000
0000
0110
0000
0000
1001
0000
0000
0000
0110
0000
0000
0000
0001
0000
,
1010
0000
0000
0001
0200
0000
0310
0000
,
1100
0000
0000
0101
0000
0000
0011
0000
0000
1010
0000
0000
1100
0000
0000
0000
,
0020
0000
1030
0002
0000
1003
0001
0000
,
0210
0001
1000
0310
,
0020
0000
0031
2000
0000
3001
1000
0000
,
0020
0000
0130
0002
0000
1003
0100
0010
,
0002
0000
1003
0200
0000
0310
0001
0000
,
0101
0000
0000
0000
1010
0000
0000
0000
1001
0000
0000
1010
0000
0000
0101
0000
,
2000
0000
3001
0200
0000
0310
0000
0100
,
1001
0000
0000
0110
0000
0000
1001
0000
0100
0000
0000
0000
0010
0000
0000
0000
,
0020
0000
0031
2000
0000
3001
1000
0000
,
0210
1000
0001
0310
,
0020
0000
0031
2000
0000
3001
1000
0000
,
0210
0000
0000
0000
0301
0000
0100
0000
0010
0000
0000
1000
0000
0000
0100
0000
,
0000
0000
0010
0000
0001
0000
0000
0000
0100
0000
0000
0001
0000
0000
1000
0000
,
0000
0000
0001
0000
0100
0000
0000
0000
0010
0000
0000
1100
0000
0000
0101
0000
,
0010
0101
0010
1100
,
1010
0000
0000
0101
0000
0000
1100
0000
0000
0011
0000
0000
1001
0000
0000
0000
,
0110
0000
1000
0001
0000
0100
0010
0000
,
1000
0001
0000
0010
0110
0000
1001
0000
,
1000
0100
0010
0002
0000
1003
0010
0002
,
0000
1003
0010
0100
0000
0101
1010
0000
,
1001
0000
0010
0100
0000
1000
0001
0000
,
0100
0010
0000
1000
0001
0000
0110
0000
,
0001
0100
0010
2000
0000
3001
0010
2000
,
0000
3100
0011
0000
0010
0001
0100
0000
,
1010
0000
0101
0000
0011
0100
1010
0100
,
2002
0000
0000
0000
,
0000
0000
0000
0000
,
0000
0000
0000
0000
,
0000
3003
0000
0000
0000
0000
0000
0000
0000
0000
0000
0000
0000
0000
0000
0000
0000
0000
0000
0000
0000
0000
0000
0000
0000
0000
0000
0000
0000
0000
0000
0000
0000
0000
0000
0000
0000
0000
0000
0000
0000
0000
0000
0000
0000
0000
0000
0000
0000
0000
0000
0000
0000
0000
0000
0000
0000
0000
0000
0000
0000
0000
0000
0000
0000
0000
0000
0000
0000
0000
0000
0000
0000
0000
0000
0000
0000
0000
0000
0000
0000
0000
0000
0000
0000
0000
0000
0000
0000
0000
0000
0000
0000
0000
0000
0000
0000
0000
0000
0000
0000
0000
0000
0000
0000
0000
0000
0000
0000
0000
0000
0000
0000
0000
0000
0000
0000
0000
0000
0000
0000
0000
0000
0000
0000
0000
0000
0000
0000
0000
0000
0000
0000
0000
0000
0000
0000
0000
0000
0000
0000
0000
0000
0000
0000
0000
0000
0000
0000
0000
0000
0000
0000
0000
0000
0000
0000
0000
0000
0000
0000
0000
0000
0000
0000
0000
0000
0000
0000
0000
0000
0000
0000
0000
0000
0000
0000
0000
0000
0000
0000
0000
0000
0000
0000
0000
0000
0000
0000
0000
0000
0000
;

//---------------dance-single - ----------------
#NOTES:
     dance-single:
     :
     Easy:
     4:
     0.364,0.429,0.529,0.338,0.000,194.000,61.000,39.000,0.000,0.000:
0000
0000
0000
0000
,
0000
0000
0000
0000
,
0000
0000
0000
0000
,
0000
0000
0000
0000
,
0000
0000
0000
0000
,
0010
1100
0010
0101
,
0010
1100
0010
0101
,
1001
0000
0110
0000
,
1000
0001
0100
0010
,
0010
0101
0010
1100
,
0010
0101
0010
1100
,
1001
0000
0110
0000
,
1000
0001
0100
0010
,
2002
0000
3003
0010
,
0100
0000
0000
0010
0000
0000
0011
0000
,
0010
0000
0000
0100
0000
0000
1100
0000
,
0100
0000
0000
0001
0000
0000
1010
0000
,
0010
0000
0000
1000
0000
0000
0101
0000
,
0010
0000
0000
1100
0000
0000
0101
0000
,
0100
0000
0000
1010
0000
0000
0011
0000
,
0010
0000
0000
0101
0000
0000
1100
0000
,
0100
0000
0000
0011
0000
0000
1010
0000
,
0010
0000
0000
0100
0000
0000
1100
0000
,
0100
0000
0000
0010
0000
0000
0011
0000
,
0010
0000
0000
1000
0000
0000
0101
0000
,
0100
0000
0000
0001
0000
0000
1010
0000
,
0100
0000
0000
0011
0000
0000
1010
0000
,
0010
0000
0000
0101
0000
0000
1100
0000
,
0100
0000
0000
1010
0000
0000
0011
0000
,
0010
0000
0000
1100
0000
0000
0101
0000
,
0020
0000
1000
0130
,
0200
0000
0001
0310
,
2000
0000
0010
3001
,
0002
0000
0100
1003
,
0020
0000
1000
0031
,
0200
0000
0001
1300
,
2000
3001
0002
1003
,
0110
1001
0110
1001
,
0020
0031
0200
1300
,
2000
3010
0002
0103
,
0020
1030
0200
0301
,
0002
0013
2000
3100
,
0020
0000
0000
1000
0000
0000
0031
0000
,
0020
0000
0000
0001
0000
0000
1030
0000
,
1001
0000
0000
0110
0000
0000
1001
0000
,
0001
0010
0100
1001
,
0200
1300
0020
0031
,
0002
0103
2000
3010
,
0200
0301
0020
1030
,
2000
3100
0002
0013
,
0200
0000
0000
0302
0000
0000
1003
0000
,
0200
0000
0000
2300
0000
0000
3001
0000
,
2002
3003
0220
0330
,
2000
0001
3100
1001
,
0100
0011
0100
1010
,
0100
0011
0100
1010
,
1001
0000
0110
0000
,
0001
1000
0010
0100
,
0100
1010
0100
0011
,
0100
1010
0100
0011
,
1001
0000
0110
0000
,
0001
1000
0010
0100
,
1000
0010
0100
0001
,
2002
0000
0000
0000
,
0000
0000
0000
0000
,
0000
0000
0000
0000
,
3003
0000
0000
0000
;

//---------------dance-single - ----------------
#NOTES:
     dance-single:
     :
     Hard:
     10:
     0.778,0.772,0.520,0.078,0.711,559.000,60.000,9.000,0.000,0.000:
0000
0000
0000
0000
,
0000
0000
0000
0000
,
0000
0000
0000
0000
,
0000
0000
0000
0000
,
0000
0000
0000
0000
,
0001
0000
0100
0000
0010
1000
0000
0010
1000
0000
0100
0000
0010
0001
0000
0010
,
0001
0000
1000
0000
0001
0100
0000
0010
1000
0000
0001
0000
0001
0000
0000
0000
,
1000
0000
0001
0100
0001
0100
0001
0100
0001
0000
1000
0100
1000
0100
1000
0100
,
0010
0001
0010
0000
0100
1000
0100
0000
0001
0010
0100
1000
0001
0000
0000
0000
,
1000
0000
0100
0000
0010
0001
0000
0010
0001
0000
0100
0000
0010
1000
0000
0010
,
1000
0000
0001
0000
1000
0100
0000
0010
0001
0000
1000
0000
1000
0000
0000
0000
,
0001
0000
1000
0100
1000
0100
1000
0100
1000
0000
0001
0100
0001
0100
0001
0100
,
0010
1000
0010
0000
0100
0001
0100
0000
1000
0010
0100
0001
1000
0000
0000
0000
,
0110
0000
1001
0000
0011
1000
0100
0010
,
0011
0000
1000
0100
1000
0000
1100
0000
0001
0100
0001
0000
1000
0000
0001
0000
,
1100
0000
0001
0010
0001
0000
0011
0000
1000
0000
0010
0000
0100
0000
0001
0000
,
0101
0000
1000
0010
1000
0000
1010
0000
0001
0010
0001
0000
1000
0000
0001
0000
,
1010
0000
0001
0100
0001
0000
0101
0000
0000
0000
0110
0000
1001
0000
0000
0000
,
1100
0000
0001
0010
0001
0000
0011
0000
1000
0010
1000
0000
0001
0000
1000
0000
,
0011
0000
1000
0100
1000
0000
1100
0000
0001
0000
0100
0000
0010
0000
1000
0000
,
1010
0000
0001
0100
0001
0000
0101
0000
1000
0100
1000
0000
0001
0000
1000
0000
,
0101
0000
1000
0010
1000
0000
1010
0000
0000
0000
0110
0000
1001
0000
0000
0000
,
0101
0000
1000
0010
1000
0000
1010
0000
0001
0010
0001
0000
1000
0000
0001
0000
,
1010
0000
0001
0100
0001
0000
0101
0000
1000
0000
0100
0000
0010
0000
0001
0000
,
0011
0000
1000
0100
1000
0000
1100
0000
0001
0100
0001
0000
1000
0000
0001
0000
,
1100
0000
0001
0010
0001
0000
0011
0000
0000
0000
0110
0000
1001
0000
0000
0000
,
1010
0000
0001
0100
0001
0000
0101
0000
1000
0100
1000
0000
0001
0000
1000
0000
,
0101
0000
1000
0010
1000
0000
1010
0000
0001
0000
0010
0000
0100
0000
1000
0000
,
1100
0000
0001
0010
0001
0000
0011
0000
1000
0010
1000
0000
0001
0000
1000
0000
,
0011
0000
1000
0100
1000
0000
1100
0000
0000
0000
0110
0000
1001
0000
0000
0000
,
0001
0000
1000
0200
0000
1300
0000
0001
1000
0000
0100
0000
0010
0000
0001
0000
,
1000
0000
0001
0200
0000
0301
0000
1000
0001
0000
0100
0000
0010
0000
1000
0000
,
0010
0000
0100
2000
0000
3100
0000
0010
0001
0000
0100
0000
0010
0000
1000
0000
,
0100
0000
0010
0002
0000
0013
0000
0100
1000
0000
0010
0000
0100
0000
0001
0000
,
0001
0000
1000
0200
0000
1300
0000
0001
1000
0000
0100
0000
0010
0000
0001
0000
,
0001
0000
1000
0020
0000
1030
0000
0001
1000
0000
0010
0000
0100
0000
0001
0000
,
0020
0000
0000
0000
0030
0000
1000
0001
0100
0000
0000
0000
0011
0000
0000
0000
,
1000
0001
0000
0100
0010
0000
0001
1000
0000
0010
0100
0000
1001
0000
0000
0000
,
0011
0000
1000
0000
0100
1000
0000
0010
0001
0000
0100
0000
0010
0000
1000
0000
,
1100
0000
0001
0000
0010
0001
0000
0100
1000
0000
0010
0000
1001
0000
0000
0000
,
1010
0000
0001
0000
0100
0001
0000
0010
1000
0000
0100
0000
0010
0000
0001
0000
,
0101
0000
1000
0000
0010
1000
0000
0100
0001
0000
0010
0000
1001
0000
0000
0000
,
0001
0000
0100
0000
0010
1000
0000
0010
1000
0000
0100
0000
0010
0001
0000
0010
,
0001
0000
1000
0000
0001
0100
0000
0010
1000
0000
0100
0000
0010
0000
0001
0000
,
1000
0000
0001
0100
0001
0100
0001
0100
0001
0000
1000
0100
1000
0100
1000
0100
,
1000
0001
0000
0100
0010
0000
0001
1000
0000
0010
0100
0000
1001
0000
0000
0000
,
1100
0000
0001
0000
0010
0001
0000
0100
1000
0000
0010
0000
0100
0000
0001
0000
,
0011
0000
1000
0000
0100
1000
0000
0010
0001
0000
0100
0000
1001
0000
0000
0000
,
0101
0000
1000
0000
0010
1000
0000
0100
0001
0000
0010
0000
0100
0000
1000
0000
,
1010
0000
0001
0000
0100
0001
0000
0010
1000
0000
0100
0000
1001
0000
0000
0000
,
1000
0000
0010
0000
0100
0001
0000
0100
0001
0000
0010
0000
0100
1000
0000
0100
,
1000
0000
0001
0000
1000
0010
0000
0100
0001
0000
0010
0000
0100
0000
1000
0000
,
0001
0000
1000
0010
1000
0010
1000
0010
1000
0000
0001
0010
0001
0010
0001
0010
,
0001
1000
0000
0010
0100
0000
1000
0001
0000
0100
0010
0000
1001
0000
0000
0000
,
0001
0000
0100
0000
0010
1000
0000
0010
1000
0000
0100
0000
0010
0001
0000
0010
,
0001
0000
1000
0000
0001
0100
0000
0010
1000
0000
0100
0000
0010
0000
0001
0000
,
1000
0000
0001
0100
0001
0100
0001
0100
0001
0000
1000
0100
1000
0100
1000
0100
,
0010
0001
0010
0000
0100
1000
0100
0000
0001
0010
0100
1000
0001
0000
0100
0000
,
1000
0000
0100
0000
0010
0001
0000
0010
0001
0000
0100
0000
0010
1000
0000
0010
,
1000
0000
0001
0000
1000
0100
0000
0010
0001
0000
1000
0000
0010
0000
0100
0000
,
0001
0000
1000
0100
1000
0100
1000
0100
1000
0000
0001
0100
0001
0100
0001
0100
,
0010
1000
0010
0000
0100
0001
0100
0000
1000
0010
0100
0001
1000
0000
0000
0000
,
0001
0100
0001
0000
1000
0100
1000
0000
0001
0010
0100
1000
0010
0100
0001
0000
,
2200
0000
0000
0000
,
0000
0000
0000
0000
,
0000
0000
0000
0000
,
3300
0000
0000
0000
;
