#TITLE:Frosty The Snowman;
#SUBTITLE:;
#ARTIST:Terry And The Physicist;
#TITLETRANSLIT:;
#SUBTITLETRANSLIT:;
#ARTISTTRANSLIT:;
#CREDIT:;
#BANNER:FTS - BN.png;
#BACKGROUND:FTS - Bg.png;
#LYRICSPATH:;
#CDTITLE:;
#MUSIC:Terry and the Physicist - Frosty The Snowman.mp3;
#OFFSET:-5.960;
#SAMPLESTART:28.300;
#SAMPLELENGTH:12.000;
#SELECTABLE:YES;
#BPMS:0.000=171.700;
#STOPS:;
#BGCHANGES:;
// cache tags:
#FIRSTBEAT:0.000;
#LASTBEAT:222.000;
#SONGFILENAME:Songs/DDRExtreme.co.uk presents ChristmasMix/Frosty The Snowman/Frosty The Snowman.sm;
#HASMUSIC:1;
#HASBANNER:1;
#MUSICLENGTH:84.062;
// end cache tags

//---------------dance-single - ----------------
#NOTES:
     dance-single:
     :
     Hard:
     8:
     0.668,0.560,0.178,0.024,0.000,376.000,15.000,2.000,0.000,0.000:
1001
0000
0110
0000
0001
0010
0001
0000
,
1000
0001
0010
0100
0010
0000
0000
0000
,
1000
0001
0010
0100
0010
1000
0001
0010
,
0100
0010
0001
1000
0001
0000
0100
0000
,
1000
0001
0010
0100
0010
0001
1000
0001
,
0010
0100
0010
0001
1000
0000
0000
0000
,
0010
0001
1000
0100
0010
0100
0001
1000
,
0001
0010
0100
0010
0001
0000
0001
0010
,
0100
1000
0100
1000
0100
1000
0001
0010
,
0001
0010
0100
0010
0100
0010
0100
1000
,
0100
1000
0100
1000
0100
0001
0010
0001
,
0010
0001
0100
0010
0100
0010
0100
0010
,
1000
0001
0100
0010
0001
1000
0001
0010
,
0100
0010
0001
1000
0001
0010
0100
0010
,
1000
0001
0010
0100
0010
1000
0001
0010
,
0100
1000
0001
0010
0100
0010
1000
0001
,
0010
0000
1000
0000
0100
0010
0100
0000
,
0001
0010
0100
0010
0001
0000
1001
0000
,
1000
0100
0010
0001
0010
0001
0010
1000
,
0001
0010
0100
0010
0001
0000
0001
0000
,
0100
0000
1000
0000
0100
0010
0100
0000
,
1000
0100
0010
0001
0010
0000
1001
0000
,
1000
0001
0010
0001
0010
0100
0010
0001
,
1000
0001
0010
0100
0010
0000
1001
0000
,
0100
0010
0001
0010
0001
1000
0001
0010
,
0100
0010
0001
1000
0001
0000
1001
0000
,
1000
0100
1000
0001
0010
0100
0010
0001
,
1000
0001
0010
0100
0010
0000
1000
0000
,
0100
1000
0100
1000
0100
1000
0001
0010
,
0001
0010
0100
0010
0100
0010
0100
1000
,
0100
1000
0100
1000
0100
0001
0010
0001
,
0010
0001
0100
0010
0100
0010
0100
0010
,
1000
0001
0010
0100
0010
1000
0001
1000
,
0001
0010
0100
0010
1000
0001
1000
0001
,
0010
0100
0010
0100
0010
1000
0001
0010
,
0100
0010
0001
1000
0001
0010
0100
0010
,
0001
0000
1001
0000
0100
0010
0100
0000
,
1000
0001
1000
0001
0010
0000
1001
0000
,
0001
0010
0001
1000
0010
0100
0010
0001
,
1000
0001
0010
0100
1000
0000
0110
0000
,
0001
0000
1001
0000
0001
0010
0001
0000
,
1000
0001
0010
0100
0010
0000
1000
0000
,
0001
0010
0100
1000
0001
0010
0001
1000
,
0010
0100
0001
1000
0010
0000
0011
0000
,
1000
0001
0010
0100
0010
0001
1000
0001
,
0010
0001
1000
0001
0010
0000
1010
0000
,
0001
0010
0001
1000
0001
0010
0100
0010
,
1000
0001
0010
0100
0010
0000
1001
0000
,
1000
0100
1000
0000
0001
0010
0001
0000
,
0100
0010
0100
0000
1000
0001
1000
0000
,
0100
0010
0100
0000
0001
0010
0001
0000
,
1001
0001
1000
0000
0100
0010
0001
0000
,
1000
0001
0010
0000
0100
0010
0001
0000
,
1000
0001
0100
0000
1000
0001
1000
0000
,
0100
0010
0100
0000
2002
0000
0000
0000
,
0000
0000
0000
3003
0000
0000
0000
0000
;

//---------------dance-single - Copied from----------------
#NOTES:
     dance-single:
     Copied from:
     Easy:
     4:
     0.376,0.330,0.024,0.024,0.000,217.000,2.000,2.000,0.000,0.000:
1000
0010
0001
0010
,
1000
0001
0010
0000
,
1000
0010
0010
1000
,
0010
0001
1000
0100
,
1000
0010
0010
1000
,
0001
0100
0001
0000
,
0010
1000
0100
0001
,
1000
0100
0010
0001
,
0010
1000
0100
1001
,
0001
0010
0100
0100
,
1000
0100
1000
0001
,
0010
0100
0010
0100
,
0010
0001
0010
0001
,
0010
0001
1000
0010
,
1000
0010
0010
1000
,
0010
0001
0010
1000
,
0010
1000
0100
0010
,
0001
0100
0010
0001
,
1000
0010
0001
0010
,
0001
0100
0010
0001
,
0100
1000
0100
0010
,
1000
0010
0010
0001
,
1000
0010
0001
0010
,
0001
0010
0100
1000
,
0100
0010
0001
1000
,
0010
0010
1000
0001
,
1000
1000
0001
0010
,
1000
0010
0100
1000
,
0100
1000
0100
1000
,
0001
0010
0100
0010
,
0100
1000
0100
0001
,
0010
0100
0100
0010
,
1000
0010
0100
0001
,
1000
0010
1000
0001
,
0010
0100
0010
1000
,
0010
0001
1000
0010
,
0010
0001
0100
0010
,
1000
0001
0010
0001
,
1000
0001
0010
0100
,
1000
0010
1000
0100
,
0001
1000
0001
0010
,
1000
0001
0100
1000
,
0001
0100
1000
0001
,
0010
0001
1000
0010
,
1000
0010
0100
0001
,
0010
1000
0001
1000
,
0001
0001
1000
0010
,
1000
0001
0100
1000
,
1000
1000
0001
0001
,
0100
0100
1000
1000
,
0100
0010
0001
0010
,
0001
1000
0100
0010
,
1000
0010
0100
0010
,
1000
0001
1000
0001
,
0100
0100
2002
0000
,
0000
0000
3003
0000
;

//---------------dance-single - Copied from Copied f----------------
#NOTES:
     dance-single:
     Copied from Copied f:
     Medium:
     4:
     0.464,0.396,0.024,0.024,0.000,269.000,2.000,2.000,0.000,0.000:
1000
0000
0010
0000
0001
0000
0010
0100
,
1000
0001
0010
0000
,
1000
0001
0010
0000
0010
0000
1000
0000
,
0010
0001
1000
0100
,
1000
0001
0010
0000
0010
0000
1000
0000
,
0001
1000
0100
0000
0001
0000
0000
0000
,
0010
0100
1000
0000
0100
0000
0001
0000
,
1000
0001
0100
0000
0010
0000
0001
0000
,
0010
0100
1000
0000
0100
0000
1001
0000
,
0001
1000
0010
0000
0100
0000
0100
0000
,
1000
0001
0100
0000
1000
0000
0001
0000
,
0010
1000
0100
0000
0010
0000
0100
0000
,
0010
0100
0001
0000
0010
0000
0001
0000
,
0010
1000
0001
0000
1000
0000
0010
0000
,
1000
0001
0010
0000
0010
0000
1000
0000
,
0010
0100
0001
0000
0010
0000
1000
0000
,
0010
0001
1000
0000
0100
0000
0010
0000
,
0001
1000
0100
0000
0010
0000
0001
0000
,
1000
0001
0010
0000
0001
0000
0010
0000
,
0001
1000
0100
0000
0010
0000
0001
0000
,
0100
1000
0100
0010
,
1000
0001
0010
0000
0010
0000
0001
0000
,
1000
0100
0010
0000
0001
0000
0010
0000
,
0001
0100
0010
0000
0100
0000
1000
0000
,
0100
0001
0010
0000
0001
0000
1000
0000
,
0010
1000
0010
0000
1000
0000
0001
0000
,
1000
0001
1000
0000
0001
0000
0010
0000
,
1000
0100
0010
0000
0100
0000
1000
0000
,
0100
0010
1000
0000
0100
0000
1000
0000
,
0001
1000
0010
0000
0100
0000
0010
0000
,
0100
0001
1000
0000
0100
0000
0001
0000
,
0010
1000
0100
0000
0100
0000
0010
0000
,
1000
0001
0010
0000
0100
0000
0001
0000
,
1000
0001
0010
0000
1000
0000
0001
0000
,
0010
1000
0100
0000
0010
0000
1000
0000
,
0010
1000
0001
0000
1000
0000
0010
0000
,
0010
0100
0001
0000
0100
0000
0010
0000
,
1000
0010
0001
0000
0010
0000
0001
0000
,
1000
0100
0001
0000
0010
0000
0100
0000
,
1000
0001
0010
0000
1000
0000
0100
0000
,
0001
0100
1000
0000
0001
0000
0010
0000
,
1000
0010
0001
0000
0100
0000
1000
0000
,
0001
0010
0100
0000
1000
0000
0001
0000
,
0010
1000
0001
0000
1000
0000
0010
0000
,
1000
0001
0010
0000
0100
0000
0001
0000
,
0010
0100
1000
0000
0001
0000
1000
0000
,
0001
1000
0001
0000
1000
0000
0010
0000
,
1000
0100
0001
0000
0100
0000
1000
0000
,
1000
0001
1000
0000
0001
0000
0001
0000
,
0100
1000
0100
0000
1000
0000
1000
0000
,
0100
0001
0010
0000
0001
0000
0010
0000
,
0001
0100
1000
0000
0100
0000
0010
0000
,
1000
0100
0010
0000
0100
0000
0010
0000
,
1000
0010
0001
0000
1000
0000
0001
0000
,
0100
0001
0100
0000
2002
0000
0000
0000
,
0000
0000
3003
0000
;
