#TITLE:Himiko;
#SUBTITLE:;
#ARTIST:Suzaku vs Genbu;
#TITLETRANSLIT:;
#SUBTITLETRANSLIT:;
#ARTISTTRANSLIT:;
#CREDIT:;
#BANNER:../banner.png;
#BACKGROUND:../bg.png;
#LYRICSPATH:;
#CDTITLE:;
#MUSIC:Himiko.ogg;
#OFFSET:0.941;
#SAMPLESTART:46.070;
#SAMPLELENGTH:20.960;
#SELECTABLE:YES;
#DISPLAYBPM:185.000;
#BPMS:0.000=185.000,351.000=175.000,367.000=170.000,383.000=165.000;
#STOPS:382.000=0.040
;
#BGCHANGES:;
// cache tags:
#FIRSTBEAT:4.000;
#LASTBEAT:395.000;
#SONGFILENAME:Songs/Cirque du Lykan/Himiko - [Zaia]/Himiko.sm;
#HASMUSIC:1;
#HASBANNER:1;
#MUSICLENGTH:132.466;
// end cache tags

//---------------dance-single - Zaia - 14(high)----------------
#NOTES:
     dance-single:
     Zaia - 14(high):
     Challenge:
     14:
     1.000,1.000,0.015,0.023,1.000,1130.000,2.000,3.000,0.000,0.000:
0000
0000
0000
0000
,
0001
0000
1001
0000
,
0000
0000
0000
0000
,
0000
0000
0000
0000
,
0000
0000
0000
0000
,
0000
0000
0000
0000
,
0000
0000
0000
0000
,
1000
0010
0100
0001
1000
0100
1000
0010
1000
0001
0100
0001
1000
0100
0010
0100
,
1000
0001
0100
0010
1000
0001
0010
0001
0100
0001
1000
0100
1000
0001
0100
0010
,
1000
0100
0010
0001
1000
0010
1000
0100
1000
0001
0010
0001
1000
0010
0100
0010
,
1000
0001
0010
0100
1000
0001
0100
0001
0010
0001
1000
0010
1000
0001
0100
0010
,
1000
0100
0010
0001
1000
0010
1000
0100
1000
0001
0010
0001
1000
0010
0100
0010
,
1000
0001
0010
0100
1000
0001
0100
0001
0010
0001
1000
0010
1000
0001
0010
0100
,
1000
0010
0100
0001
1000
0100
1000
0010
1000
0001
0100
0001
1000
0100
0010
0100
,
1000
0000
0001
0000
0100
0001
0010
0001
1000
0010
0000
0000
0100
0000
0001
0000
,
1000
0100
0010
0001
1000
0010
1000
0100
1000
0001
0010
0001
1000
0010
0100
0010
,
1000
0001
0010
0100
1000
0001
0100
0001
0010
0001
1000
0010
1000
0001
0010
0100
,
1000
0010
0100
0001
1000
0100
1000
0010
1000
0001
0100
0001
1000
0100
0010
0100
,
1000
0001
0100
0010
1000
0001
0010
0001
0100
0001
1000
0100
1000
0001
0010
0100
,
1000
0010
0100
0001
1000
0100
1000
0010
1000
0001
0100
0001
1000
0100
0010
0100
,
1000
0001
0100
0010
1000
0001
0010
0001
0100
0001
1000
0100
1000
0001
0100
0010
,
1000
0100
0010
0001
1000
0010
1000
0100
1000
0001
0010
0001
1000
0010
0100
0010
,
1000
0000
0001
0000
0010
0001
0100
0001
1000
0001
1000
0100
1000
0001
0100
0001
,
0100
0010
0000
0100
0001
0000
0100
0010
0000
0100
0001
0000
1000
0001
1000
0000
,
0100
0000
1000
0100
0000
0010
0100
0000
1000
0001
1000
0000
0001
0000
1000
0010
,
0000
1000
0001
0000
0100
0010
0100
0000
0001
0000
0010
0100
0000
0010
0001
0000
,
0010
0100
0010
0000
0100
0000
1000
0001
0000
1000
0010
0000
0100
0001
1000
0010
,
0100
0001
1000
0100
1000
0001
0100
0001
1000
0100
1000
0100
0010
0001
1000
0001
,
1000
0010
0100
0010
0100
0001
1000
0010
1000
0001
0010
0001
1000
0100
0010
0001
,
1000
0001
1000
0100
1000
0001
0010
0001
1000
0010
1000
0010
0100
0001
1000
0001
,
1000
0100
0010
0100
0010
0001
1000
0100
1000
0001
0100
0001
1000
0010
0100
0010
,
1000
0001
1000
0001
1000
0100
0010
0100
1000
0001
1000
0001
0010
0001
1000
0010
,
1000
0001
0010
0001
0010
0100
1000
0001
1000
0001
0100
0010
0100
0010
1000
0001
,
0100
0001
1000
0100
1000
0001
0010
0100
1000
0001
1000
0001
0010
0001
1000
0100
,
1000
0001
0100
0001
0100
0010
1000
0001
1000
0001
0010
0100
0010
0100
1000
0001
,
0010
0001
1000
0010
1000
0001
0100
0010
0100
0001
1000
0100
0010
0001
1000
0010
,
0100
0001
0010
0100
1000
0000
0000
0000
0000
0000
0000
0000
0010
0000
0000
0000
,
0000
0100
0000
0001
,
0000
1000
0000
0010
,
1000
0100
0000
1000
,
0000
0001
0000
0010
,
0000
0100
0000
1000
,
0010
0100
0000
0001
,
0010
0001
0100
0010
,
0000
0000
1010
0010
1000
0001
1000
0100
,
0010
0001
1000
0001
0100
0001
1000
0100
,
0010
0100
1000
0010
0100
0001
1000
0100
,
1000
0001
0100
0010
0100
0001
1000
0001
,
0010
0001
1000
0100
1000
0001
1000
0010
,
0100
0001
0100
0010
1000
0001
0100
0001
,
0010
0100
1000
0000
0000
0000
0001
0000
,
1000
0000
0100
0000
0000
0000
1000
0001
,
1000
0000
0000
0000
0001
0100
0010
1000
0001
1000
0001
0010
0100
1000
0001
1000
,
0001
0100
0010
1000
0001
1000
0100
0010
0001
0100
0001
0010
0100
1000
0010
0100
,
0001
1000
0001
0010
0100
1000
0001
1000
0001
0100
0010
1000
0100
1000
0010
0100
,
0001
0010
0100
1000
0100
0010
0001
1000
0001
1000
0010
0100
0010
1000
0001
1000
,
0001
0010
0100
1000
0001
1000
0010
0100
0001
0010
0001
0100
0010
1000
0100
0010
,
0001
1000
0001
0100
0010
1000
0001
1000
0001
0010
0100
1000
0010
1000
0100
0010
,
0001
0100
0010
1000
0001
0010
0100
1000
0001
1000
0001
0100
0010
1000
0001
1000
,
0001
0010
0100
1000
0001
1000
0010
0100
0001
0010
0001
0100
0010
1000
0100
0010
,
0001
1000
0001
0100
0010
1000
0001
1000
0001
0010
0100
1000
0010
1000
0100
0010
,
0001
0100
0010
1000
0010
0100
0001
1000
0001
1000
0100
0010
0100
1000
0001
1000
,
0001
0100
0010
1000
0001
1000
0100
0010
0001
0100
0001
0010
0100
1000
0001
0100
,
0010
1000
0001
0010
0001
0100
0010
1000
0001
0010
0100
0010
0001
1000
0001
0100
,
0010
1000
0001
0100
0001
0010
0100
1000
0001
0100
0010
0100
0001
1000
0100
0010
,
0100
1000
0001
0010
0001
0100
0010
1000
0001
0010
0100
0010
0001
1000
0001
0100
,
0010
1000
0001
0100
0001
0010
0100
1000
0001
1000
0010
0100
0001
1000
0001
0010
,
0100
1000
0001
1000
0001
0100
0010
1000
0001
0010
0100
0010
0001
1000
0001
0100
,
0010
1000
0001
0100
0001
0010
0100
1000
0001
0100
0010
0100
0001
1000
0001
0100
,
0010
1000
0001
0100
0001
0010
0100
1000
0001
0100
0010
0100
0001
1000
0001
0010
,
0100
1000
0001
0010
0001
0100
0010
1000
0001
0010
0100
0010
0001
1000
0001
0100
,
0010
1000
0001
1000
0010
0100
0001
1000
0100
1000
0001
1000
0001
0100
0010
0100
,
0001
1000
0100
0010
0001
1000
0001
0100
0010
1000
0001
0010
0100
1000
0001
1000
,
0010
1000
0001
0100
0001
1000
0100
0010
0001
1000
0010
0100
0001
0010
0100
0010
,
0001
1000
0010
1000
0001
0100
0001
1000
0100
0010
0001
1000
0010
0100
0010
1000
,
0001
1000
0100
1000
0001
0010
0001
0100
0001
1000
0010
1000
0100
0010
0100
1000
,
0001
1000
0010
0100
0001
1000
0001
0010
0100
0010
0001
1000
0010
0100
0001
1000
,
0100
1000
0001
0010
0001
1000
0010
0100
0001
1000
0100
0010
0001
0100
0010
0100
,
0001
1000
0100
1000
0001
0010
0001
1000
0010
0100
0001
0010
0100
1000
0001
0100
,
0001
1000
0010
1000
0001
0100
0001
0010
0001
1000
0100
1000
0010
0100
0001
1000
,
0001
0010
0100
0010
0001
1000
0001
0100
0010
1000
0001
0010
0100
1000
0001
1000
,
0010
1000
0001
0100
0001
1000
0100
0010
0001
1000
0010
0100
0001
1000
0100
0010
,
0001
1000
0010
1000
0001
0100
0001
1000
0100
0010
0001
1000
0010
0100
0010
1000
,
0001
1000
0100
1000
0001
0010
0001
1000
0001
1000
0010
1000
0100
0010
0001
0100
,
0001
1000
0010
0100
0001
1000
0100
1000
0010
0100
0001
0010
0100
1000
0001
1000
,
0100
1000
0001
0010
0001
1000
0010
1000
0100
0010
0001
0100
0010
1000
0001
0100
,
0001
1000
0100
1000
0001
0010
0001
1000
0010
1000
0001
0010
0100
1000
0001
0100
,
0001
1000
0010
1000
0001
0100
0001
0010
0001
1000
0100
1000
0010
0000
0100
0000
,
0000
0001
1000
0000
0100
0100
0010
0001
,
0000
1000
0001
0000
0100
0100
0010
1000
,
0000
0001
0100
0000
0001
0001
1000
0100
,
0000
0010
0001
0000
1000
1000
0010
0100
,
0000
0001
1000
0000
0001
0001
0010
0100
,
0000
1000
0100
0000
1000
1000
0010
0100
,
0000
0001
0100
0000
0010
0010
2000
0000
,
0000
3002
0000
0023
,
0000
0000
0000
0000
,
0000
0000
0000
0000
,
0000
0000
0000
0030
;

//---------------dance-single - Zaia - 13(mid-high)----------------
#NOTES:
     dance-single:
     Zaia - 13(mid-high):
     Hard:
     13:
     0.992,1.000,0.068,0.023,1.000,908.000,9.000,3.000,0.000,0.000:
0000
0000
0000
0000
,
0001
0000
1001
0000
,
0000
0000
0000
0000
,
0000
0000
0000
0000
,
0000
0000
0000
0000
,
0000
0000
0000
0000
,
0000
0000
0000
0000
,
1000
0000
0010
0000
0100
0000
0001
0010
0001
0000
1000
0000
0001
0000
0010
0000
,
0100
0000
0010
0000
0001
0000
1000
0010
1000
0000
0001
0000
0100
0000
0001
0000
,
1000
0000
0100
0000
0010
0000
0001
0100
0001
0000
1000
0000
0100
0000
0010
0000
,
0100
0000
1000
0000
0010
0000
0100
0001
0100
0000
0010
0000
1000
0000
0001
0000
,
1000
0000
0100
0000
0010
0000
0001
0100
0001
0000
1000
0000
0001
0000
0100
0000
,
0010
0000
0100
0000
0001
0000
1000
0100
1000
0000
0001
0000
0010
0000
0001
0000
,
1000
0000
0010
0000
0100
0000
0001
0010
0001
0000
1000
0000
0010
0000
0100
0000
,
0001
0000
1000
0000
0010
1000
0100
1000
0001
0100
0000
0000
0010
0000
1000
0000
,
0001
0000
0010
0000
0100
0000
1000
0010
1000
0000
0001
0000
1000
0000
0010
0000
,
0100
0000
0010
0000
1000
0000
0001
0010
0001
0000
1000
0000
0100
0000
1000
0000
,
0001
0000
0100
0000
0010
0000
1000
0100
1000
0000
0001
0000
0100
0000
0010
0000
,
0100
0000
0001
0000
0010
0000
0100
1000
0100
0000
0010
0000
0001
0000
1000
0000
,
0001
0000
0100
0000
0010
0000
1000
0100
1000
0000
0001
0000
1000
0000
0100
0000
,
0010
0000
0100
0000
1000
0000
0001
0100
0001
0000
1000
0000
0010
0000
1000
0000
,
0001
0000
0010
0000
0100
0000
1000
0010
1000
0000
0001
0000
0010
0000
0100
0000
,
1000
0000
0001
0000
0100
0000
0010
1000
0010
0000
0100
0001
1000
0000
0100
1000
,
0001
0100
0000
0010
1000
0000
0010
0100
0000
0010
1000
0000
0001
1000
0001
0000
,
0010
0000
0001
0010
0000
0100
0010
0000
0001
1000
0001
0000
1000
0000
0001
0100
,
0000
0001
1000
0000
0010
0100
0010
0000
1000
0000
0100
0010
0000
0100
1000
0000
,
0100
0010
0100
0000
0010
0000
0001
1000
0000
0001
0100
0000
0010
1000
0001
0100
,
0010
0000
1000
0000
0001
0000
1000
0100
0000
1000
0001
0000
1000
0010
1000
0000
,
0001
0000
0100
0001
0000
1000
0001
0000
0010
0100
0000
1000
0001
0000
1000
0010
,
0000
1000
0001
0000
1000
0100
1000
0000
0001
0000
0100
0001
0000
1000
0001
0000
,
0010
0001
0010
0000
0001
0000
1000
0010
0000
1000
0001
0000
0010
0100
1000
0100
,
1000
0001
1000
0001
1000
0010
0100
0001
1000
0000
0001
0000
1000
0000
0001
0010
,
0000
0001
1000
0000
0001
0100
0001
0000
1000
0000
0010
1000
0000
0001
1000
0000
,
0100
0010
0000
0001
1000
0000
0001
0100
0000
0001
1000
0000
0001
0010
0001
0000
,
1000
0000
0010
1000
0000
0001
1000
0000
0100
1000
0100
0000
1000
0000
0001
0100
,
0000
0001
1000
0000
0100
0010
0001
0000
1000
0001
1000
0010
0100
0001
1000
0100
,
0010
0001
0100
0010
1000
0000
0000
0000
0000
0000
0000
0000
0010
0000
0000
0000
,
0000
0100
0000
0001
,
0000
1000
0000
0010
,
1000
0100
0000
1000
,
0000
0001
0000
0010
,
0000
0100
0000
1000
,
0010
0100
0000
0001
,
0010
0001
0100
0010
,
0000
0000
1010
0010
1000
0001
1000
0100
,
0010
0001
1000
0001
0100
0001
1000
0100
,
0010
0100
1000
0010
0100
0001
1000
0100
,
1000
0001
0100
0010
0100
0001
1000
0001
,
0010
0001
1000
0100
1000
0001
1000
0010
,
0100
0001
0100
0010
1000
0001
0100
0001
,
0010
0100
1000
0000
0000
0000
0001
0000
,
1000
0000
0100
0000
0000
0000
1000
0001
,
1000
0000
0000
0000
0001
0100
0010
1000
0001
1000
0001
0010
0100
1000
0001
1000
,
0001
0100
0010
1000
0001
1000
0100
0010
0001
0100
0001
0010
0100
1000
0010
0100
,
0001
1000
0001
0010
0100
1000
0001
1000
0001
0100
0010
1000
0100
1000
0010
0100
,
0001
0010
0100
1000
0100
0010
0001
1000
0001
1000
0010
0100
0010
1000
0001
1000
,
0001
0010
0100
1000
0001
1000
0010
0100
0001
0010
0001
0100
0010
1000
0100
0010
,
0001
1000
0001
0100
0010
1000
0001
1000
0001
0010
0100
1000
0010
1000
0100
0010
,
0001
0100
0010
1000
0001
0010
0100
1000
0001
1000
0001
0100
0010
1000
0001
1000
,
0001
0010
0100
1000
0001
1000
0010
0100
0001
0010
0001
0100
0010
1000
0100
0010
,
0001
1000
0001
0100
0010
1000
0001
1000
0001
0010
0100
1000
0010
1000
0100
0010
,
0001
0100
0010
1000
0010
0100
0001
1000
0001
1000
0100
0010
0100
1000
0001
1000
,
0001
0100
0010
1000
0001
1000
0100
0010
0001
0100
0001
0010
0100
1000
0001
0100
,
0010
1000
0001
0010
0001
0000
0100
0000
0010
0000
1000
0000
0100
0000
0010
0000
,
0001
0100
0110
0010
1000
0100
0010
0001
,
0100
0010
0110
0100
0001
0010
0100
1000
,
0010
0100
0110
0010
1000
0100
0010
0001
,
0100
0010
0110
0100
0001
0010
0100
1000
,
0010
0100
0110
0010
1000
0100
0010
0001
,
0100
0010
0110
0100
0001
0010
0100
1000
,
0010
0100
0110
0010
1000
0001
0010
0001
,
1000
0000
0010
0000
0100
0000
0001
0000
1000
0000
0000
0000
0001
1000
0010
0100
,
0001
1000
0100
0010
0001
1000
0001
0100
0010
1000
0001
0010
0100
1000
0001
1000
,
0010
1000
0001
0100
0001
1000
0100
0010
0001
1000
0010
0100
0001
0010
0100
0010
,
0001
1000
0010
1000
0001
0100
0001
1000
0100
0010
0001
1000
0010
0100
0010
1000
,
0001
1000
0100
1000
0001
0010
0001
0100
0001
1000
0010
1000
0100
0010
0100
1000
,
0001
1000
0010
0100
0001
1000
0001
0010
0100
0010
0001
1000
0010
0100
0001
1000
,
0100
1000
0001
0010
0001
1000
0010
0100
0001
1000
0100
0010
0001
0100
0010
0100
,
0001
1000
0100
1000
0001
0010
0001
1000
0010
0100
0001
0010
0100
0000
1000
0000
,
0001
0000
1000
0000
0001
0000
1000
0000
0001
0000
0000
0000
1000
0010
1000
0001
,
1000
0100
0010
0100
1000
0001
1000
0010
0100
0001
1000
0100
0010
0001
1000
0001
,
0100
0001
1000
0010
1000
0001
0010
0100
1000
0001
0100
0010
1000
0001
0010
0100
,
1000
0001
0100
0001
1000
0010
1000
0001
0010
0100
1000
0001
0100
0010
0100
0001
,
1000
0001
0010
0001
1000
0100
1000
0001
1000
0001
0100
0001
0010
0100
1000
0010
,
1000
0001
0100
0010
1000
0001
0010
0001
0100
0010
1000
0100
0010
0001
1000
0001
,
0010
0001
1000
0100
1000
0001
0100
0001
0010
0100
1000
0010
0100
0001
1000
0010
,
1000
0001
0010
0001
1000
0100
1000
0001
0100
0001
1000
0100
0010
0001
1000
0010
,
1000
0001
0100
0001
1000
0010
1000
0100
1000
0001
0010
0001
0100
0000
0010
0000
,
0000
1000
0001
0000
0010
0010
0100
1000
,
0000
0001
1000
0000
0010
0010
0100
0001
,
0000
1000
0010
0000
1000
1000
0001
0010
,
0000
0100
1000
0000
0001
0001
0100
0010
,
0000
1000
0001
0000
1000
1000
0100
0010
,
0000
0001
0010
0000
0001
0001
0100
0010
,
0000
1000
0010
0000
0100
0100
0002
0000
,
0000
2003
0000
3200
,
0000
0000
0000
0000
,
0000
0000
0000
0000
,
0000
0000
0000
0300
;

//---------------dance-single - Zaia - 11(low)----------------
#NOTES:
     dance-single:
     Zaia - 11(low):
     Medium:
     11:
     0.809,1.000,0.091,0.596,0.189,659.000,12.000,79.000,0.000,0.000:
0000
0000
0000
0000
,
0001
0000
1001
0000
,
0000
0000
0000
0000
,
0000
0000
0000
0000
,
0000
0000
0000
0000
,
0000
0000
0000
0000
,
0000
0000
0000
0000
,
1000
0000
0010
0000
0100
0000
0001
0010
0001
0000
1000
0000
0001
0000
0010
0000
,
0100
0000
0010
0000
0001
0000
1000
0010
1000
0000
0001
0000
0100
0000
0001
0000
,
1000
0000
0100
0000
0010
0000
0001
0100
0001
0000
1000
0000
0100
0000
0010
0000
,
0100
0000
1000
0000
0010
0000
0100
0001
0100
0000
0010
0000
1000
0000
0001
0000
,
1000
0000
0100
0000
0010
0000
0001
0100
0001
0000
1000
0000
0001
0000
0100
0000
,
0010
0000
0100
0000
0001
0000
1000
0100
1000
0000
0001
0000
0010
0000
0001
0000
,
1000
0000
0010
0000
0100
0000
0001
0010
0001
0000
1000
0000
0010
0000
0100
0000
,
0001
0000
1000
0000
0010
1000
0100
1000
0001
0100
0000
0000
0010
0000
1000
0000
,
0001
0000
0010
0000
0100
0000
1000
0010
1000
0000
0001
0000
1000
0000
0010
0000
,
0100
0000
0010
0000
1000
0000
0001
0010
0001
0000
1000
0000
0100
0000
1000
0000
,
0001
0000
0100
0000
0010
0000
1000
0100
1000
0000
0001
0000
0100
0000
0010
0000
,
0100
0000
0001
0000
0010
0000
0100
1000
0100
0000
0010
0000
0001
0000
1000
0000
,
0001
0000
0100
0000
0010
0000
1000
0100
1000
0000
0001
0000
1000
0000
0100
0000
,
0010
0000
0100
0000
1000
0000
0001
0100
0001
0000
1000
0000
0010
0000
1000
0000
,
0001
0000
0010
0000
0100
0000
1000
0010
1000
0000
0001
0000
0010
0000
0100
0000
,
1000
0000
0001
0000
0100
0000
0010
1000
0010
0000
0100
0001
1000
0000
0100
1000
,
0002
0000
0000
0003
,
0201
0000
0000
0300
,
0120
0000
0000
0030
,
2010
0000
3002
0000
,
2000
0000
0000
3003
0000
0000
0000
0000
0000
0000
0000
0000
0000
0000
0000
0000
0000
0000
0000
0000
0000
0000
0000
0000
0002
0000
0000
0003
0000
0000
0000
0000
0000
0000
0000
0000
0000
0000
0000
0000
0000
0000
0000
0000
0000
0000
0000
0000
2000
0000
0000
3000
0000
0000
0000
0000
0000
0000
0000
0000
0000
0000
0000
0000
0000
0000
0000
0000
0000
0000
0000
0000
0002
0000
0000
0003
0000
0000
0000
0000
0000
0000
0000
0000
0000
0000
0000
0000
0000
0000
0000
0000
0000
0000
0000
0000
2000
0000
0000
3000
0000
0000
0000
0000
0000
0000
0000
0000
0000
0000
0000
0000
0000
0000
0000
0000
0000
0000
0000
0000
0002
0000
0000
0003
0000
0000
0000
0000
0000
0000
0000
0000
0000
0000
0000
0000
0000
0000
0000
0000
0000
0000
0000
0000
0020
0000
0000
0000
0030
0000
0000
0000
0000
0000
0000
0000
0000
0000
0000
0000
0000
0000
0000
0000
0000
0000
0000
0000
0002
0000
0000
0000
0003
0000
0000
0000
0000
0000
0000
0000
0000
0000
0000
0000
0000
0000
0000
0000
0000
0000
0000
0000
,
0020
0000
0000
0000
0030
0000
0000
0000
0000
0000
0000
0000
0000
0000
0000
0000
0000
0000
0000
0000
0000
0000
0000
0000
0002
0000
0000
0000
0003
0000
0000
0000
0000
0000
0000
0000
0000
0000
0000
0000
0000
0000
0000
0000
0000
0000
0000
0000
0020
0000
0000
0000
0030
0000
0000
0000
0000
0000
0000
0000
0000
0000
0000
0000
0000
0000
0000
0000
0000
0000
0000
0000
0002
0000
0000
0000
0003
0000
0000
0000
0000
0000
0000
0000
0000
0000
0000
0000
0000
0000
0000
0000
0000
0000
0000
0000
0020
0000
0000
0000
0030
0000
0000
0000
0000
0000
0000
0000
0000
0000
0000
0000
0000
0000
0000
0000
0000
0000
0000
0000
0200
0000
0000
0000
0000
0000
0300
0000
0000
0000
0000
0000
0000
0000
0000
0000
0000
0000
0000
0000
0000
0000
0000
0000
2000
0000
0000
0000
0000
0000
3000
0000
0000
0000
0000
0000
0000
0000
0000
0000
0000
0000
0000
0000
0000
0000
0000
0000
0200
0000
0000
0000
0000
0000
0300
0000
0000
0000
0000
0000
0000
0000
0000
0000
0000
0000
0000
0000
0000
0000
0000
0000
,
2000
0000
0000
0000
0000
0000
3000
0000
0000
0000
0000
0000
0000
0000
0000
0000
0000
0000
0000
0000
0000
0000
0000
0000
0200
0000
0000
0000
0000
0000
0300
0000
0000
0000
0000
0000
0000
0000
0000
0000
0000
0000
0000
0000
0000
0000
0000
0000
2000
0000
0000
0000
0000
0000
0000
0000
3000
0000
0000
0000
0000
0000
0000
0000
0000
0000
0000
0000
0000
0000
0000
0000
0002
0000
0000
0000
0000
0000
0000
0000
0003
0000
0000
0000
0000
0000
0000
0000
0000
0000
0000
0000
0000
0000
0000
0000
2000
0000
0000
0000
0000
0000
0000
0000
3000
0000
0000
0000
0000
0000
0000
0000
0000
0000
0000
0000
0000
0000
0000
0000
0002
0000
0000
0000
0000
0000
0000
0000
0003
0000
0000
0000
0000
0000
0000
0000
0000
0000
0000
0000
0000
0000
0000
0000
2000
0000
0000
0000
0000
0000
0000
0000
3000
0000
0000
0000
0000
0000
0000
0000
0000
0000
0000
0000
0000
0000
0000
0000
0002
0000
0000
0000
0000
0000
0000
0000
0003
0000
0000
0000
0000
0000
0000
0000
0000
0000
0000
0000
0000
0000
0000
0000
,
0200
0000
0000
0300
0000
0000
0020
0000
0000
0030
0000
0000
0200
0000
0000
0300
0000
0000
0020
0000
0000
0030
0000
0000
0200
0000
0000
0300
0000
0000
0020
0000
0000
0000
0030
0000
2000
0000
0000
0000
3000
0000
0020
0000
0000
0000
0000
0000
,
1030
0000
0000
0000
0001
0000
0000
0000
1000
0000
0000
0000
0001
0000
0000
0000
1000
0000
0000
0000
0000
0000
0000
0000
0000
0000
0000
0000
0000
0000
0000
0000
0002
0003
0000
0000
0000
0000
0000
0000
2000
3000
0000
0000
0000
0000
0000
0000
0002
0003
0000
0000
0000
0000
0000
0000
2000
3000
0000
0000
0000
0000
0000
0000
,
0002
0000
0000
0003
0000
0000
0000
0000
0000
0000
0000
0000
0000
0000
0000
0000
0000
0000
0000
0000
0000
0000
0000
0000
2000
0000
0000
3000
0000
0000
0000
0000
0000
0000
0000
0000
0000
0000
0000
0000
0000
0000
0000
0000
0000
0000
0000
0000
0200
0000
0000
0000
0300
0000
0000
0000
0000
0000
0000
0000
0000
0000
0000
0000
0000
0000
0000
0000
0000
0000
0000
0000
2000
0000
0000
0000
3000
0000
0000
0000
0000
0000
0000
0000
0000
0000
0000
0000
0000
0000
0000
0000
0000
0000
0000
0000
0200
0000
0000
0000
0300
0000
0000
0000
0000
0000
0000
0000
0000
0000
0000
0000
0000
0000
0000
0000
0000
0000
0000
0000
2000
0000
0000
0000
3000
0000
0000
0000
0000
0000
0000
0000
0000
0000
0000
0000
0000
0000
0000
0000
0000
0000
0000
0000
0200
0000
0000
0000
0300
0000
0000
0000
0000
0000
0000
0000
0000
0000
0000
0000
0000
0000
0000
0000
0000
0000
0000
0000
2000
0000
0000
0000
3000
0000
0000
0000
0000
0000
0000
0000
0000
0000
0000
0000
0000
0000
0000
0000
0000
0000
0000
0000
,
0200
0000
0000
0000
0300
0000
0000
0000
0000
0000
0000
0000
0000
0000
0000
0000
0000
0000
0000
0000
0000
0000
0000
0000
0020
0000
0000
0000
0000
0000
0030
0000
0000
0000
0000
0000
0000
0000
0000
0000
0000
0000
0000
0000
0000
0000
0000
0000
0002
0000
0000
0000
0000
0000
0003
0000
0000
0000
0000
0000
0000
0000
0000
0000
0000
0000
0000
0000
0000
0000
0000
0000
0020
0000
0000
0000
0000
0000
0030
0000
0000
0000
0000
0000
0000
0000
0000
0000
0000
0000
0000
0000
0000
0000
0000
0000
0002
0000
0000
0000
0000
0000
0003
0000
0000
0000
0000
0000
0000
0000
0000
0000
0000
0000
0000
0000
0000
0000
0000
0000
0020
0000
0000
0000
0000
0000
0030
0000
0000
0000
0000
0000
0000
0000
0000
0000
0000
0000
0000
0000
0000
0000
0000
0000
0002
0000
0000
0000
0000
0000
0000
0000
0003
0000
0000
0000
0000
0000
0000
0000
0000
0000
0000
0000
0000
0000
0000
0000
2000
0000
0000
0000
0000
0000
0000
0000
3000
0000
0000
0000
0000
0000
0000
0000
0000
0000
0000
0000
0000
0000
0000
0000
,
0002
0000
0003
0000
0000
0000
2000
0000
3000
0000
0000
0000
0002
0000
0003
0000
0000
0000
2000
0000
3000
0000
0000
0000
0020
0000
0000
0030
0000
0000
0200
0000
0000
0300
0000
0000
0020
0000
0000
0030
0000
0000
0200
0000
0000
0300
0000
0000
,
0020
0000
0000
0030
0000
0000
0200
0000
0000
0000
0300
0000
0002
0000
0000
0000
0003
0000
2000
0000
0000
0000
0000
0000
3020
0000
0000
0000
0000
0000
2030
0000
0000
0000
0000
0000
3020
0000
0000
0000
0000
0000
2030
0000
0000
0000
0000
0000
,
3002
2003
3002
0003
0000
0000
0100
0000
,
0000
0010
0000
1000
,
0000
0001
0000
0100
,
0001
0010
0000
0001
,
0000
1000
0000
0100
,
0000
0010
0000
0001
,
0100
0010
0000
1000
,
0100
1000
0010
0100
,
0000
0000
0101
0100
0001
1000
0001
0010
,
0100
1000
0001
1000
0010
1000
0001
0010
,
0100
0010
0001
0100
0010
1000
0001
0010
,
0001
1000
0010
0100
0010
1000
0001
1000
,
0100
1000
0001
0010
0001
1000
0001
0100
,
0010
1000
0010
0100
0001
1000
0010
1000
,
0100
0010
0001
0000
0000
0000
1000
0000
,
0001
0000
0010
0000
0000
0000
0001
1000
,
0001
0000
1000
0010
0100
0001
0010
0100
,
0010
0001
1000
0010
0100
0001
1000
0100
,
0010
0001
0100
0010
0100
0001
1000
0100
,
0010
0001
0100
0010
1000
0100
0010
0100
,
1000
0001
0100
0010
1000
0001
0010
0100
,
1000
0010
0100
0010
1000
0001
0010
0100
,
1000
0001
1000
0010
0100
0001
0010
0100
,
0010
0001
1000
0010
0100
0001
1000
0100
,
0010
0001
0100
0010
0100
0001
1000
0100
,
0010
0001
1000
0100
0010
0001
0100
0010
,
0100
0001
1000
0100
0010
0001
1000
0010
,
0100
0001
1000
0001
1000
0000
0100
0000
0010
0000
0001
0000
0100
0000
0010
0000
,
1000
0100
0110
0010
0001
0100
0010
1000
,
0100
0010
0110
0100
1000
0010
0100
0001
,
0010
0100
0110
0010
0001
0100
0010
1000
,
0100
0010
0110
0100
1000
0010
0100
0001
,
0010
0100
0110
0010
0001
0100
0010
1000
,
0100
0010
0110
0100
1000
0010
0100
0001
,
0010
0100
0110
0010
0001
1000
0010
1000
,
0001
0000
0010
0000
0001
0000
1000
0000
0001
0000
0000
0000
1000
0000
0001
0010
,
0001
0000
0100
0000
0010
0000
1000
0100
1000
0000
0010
0000
0100
0000
0001
0010
,
0001
0000
0100
0000
0010
0000
1000
0100
1000
0000
0010
0000
1000
0000
0001
0100
,
0001
0000
0010
0000
0100
0000
1000
0010
1000
0000
0100
0000
0010
0000
0001
0100
,
0001
0000
0010
0000
0100
0000
1000
0010
1000
0000
0100
0000
0010
0000
0100
1000
,
0100
0000
0010
0000
0001
0000
0100
0001
0100
0000
0001
0000
0010
0000
0100
1000
,
0100
0000
1000
0000
0010
0000
0100
0001
0100
0000
0001
0000
0010
0000
0100
1000
,
0100
0000
1000
0000
0010
0000
0100
0001
0100
0000
0010
0000
1000
0000
1000
0000
,
0001
0000
1000
0000
0001
0000
1000
0000
0100
0000
0000
0000
1000
0000
0001
0010
,
0001
0000
0100
0000
0010
0000
1000
0100
1000
0000
0010
0000
0100
0000
0001
0010
,
0001
0000
0100
0000
0010
0000
1000
0100
1000
0000
0010
0000
1000
0000
0001
0100
,
0001
0000
0010
0000
0100
0000
1000
0010
1000
0000
0100
0000
0010
0000
0001
0100
,
0001
0000
0010
0000
0100
0000
1000
0010
1000
0000
0100
0000
0010
0000
0010
0000
,
0001
0000
1000
0000
0010
0000
1000
0100
1000
0000
0001
0100
0001
0000
1000
0000
,
0001
0000
0010
0000
0100
0000
1000
0010
1000
0000
0001
0010
0001
0000
0100
0000
,
0010
1000
0001
1000
0100
0010
0100
1000
,
0010
0100
0001
0010
0001
1000
0100
0010
,
0000
0001
1000
0000
0100
0100
0010
0001
,
0000
1000
0001
0000
0100
0100
0010
1000
,
0000
0001
0100
0000
0001
0001
1000
0100
,
0000
0010
0001
0000
1000
1000
0010
0100
,
0000
0001
1000
0000
0001
0001
0010
0100
,
0000
1000
0100
0000
1000
1000
0010
0100
,
0000
0001
0100
0000
0010
0010
2000
0000
,
0000
3002
0000
0023
,
0000
0000
0000
0000
,
0000
0000
0000
0000
,
0000
0000
0000
0030
;
