#TITLE:Ashes;
#SUBTITLE:;
#ARTIST:In This Moment;
#TITLETRANSLIT:;
#SUBTITLETRANSLIT:;
#ARTISTTRANSLIT:;
#CREDIT:Patrick Ruckman;
#BANNER:../fallback-bn.png;
#BACKGROUND:../fallback-bg.png;
#LYRICSPATH:;
#CDTITLE:;
#MUSIC:04 - Ashes.ogg;
#OFFSET:0.859;
#SAMPLESTART:55.289;
#SAMPLELENGTH:19.440;
#SELECTABLE:YES;
#BPMS:0.000=93.510,20.000=187.020,436.000=93.510,468.000=187.020,580.000=93.510;
#STOPS:;
#BGCHANGES:;
// cache tags:
#FIRSTBEAT:20.000;
#LASTBEAT:618.000;
#SONGFILENAME:Songs/SSSC PACK/[Ruckman] - Ashes/Ashes sm.sm;
#HASMUSIC:1;
#HASBANNER:1;
#MUSICLENGTH:231.521;
// end cache tags

//---------------dance-single - Ruck----------------
#NOTES:
     dance-single:
     Ruck:
     Challenge:
     13:
     0.876,1.000,0.583,0.263,0.570,1220.000,135.000,61.000,105.000,0.000:

0000
0000
0000
0000
,
0000
0000
0000
0000
,
0000
0000
0000
0000
,
0000
0000
0000
0000
,
0000
0000
0000
0000
,
1000
0100
1000
0000
0001
0000
0100
0000
0010
0000
0100
0000
0001
0010
0001
0000
,
0100
0010
1000
0100
0110
0010
0001
1000
,
0010
0100
0010
0000
1000
0000
0001
0000
0010
0000
0100
0000
1000
0001
0100
0000
,
0010
0000
0000
0000
0000
0000
0000
0000
0000
0000
0000
0000
0000
0000
0000
0000
0000
0000
0000
0000
0000
0000
0000
0000
1000
0000
0000
0000
0000
0000
0000
0000
0000
0000
0000
0000
0000
0000
0000
0000
0000
0000
0000
0000
0000
0000
0000
0000
0001
0000
0000
0000
0000
0000
0000
0000
0000
0000
0000
0000
0000
0000
0000
0000
0000
0000
0000
0000
0000
0000
0000
0000
0010
0000
0000
0000
0000
0000
0000
0000
0000
0000
0000
0000
0000
0000
0000
0000
0000
0000
0000
0000
0000
0000
0000
0000
0011
0000
0000
0000
0000
0000
0000
0000
0000
0000
0000
0000
0000
0000
0000
0000
0000
0000
0000
0000
0000
0000
0000
0000
0001
0000
0000
0000
0000
0000
0000
0000
0000
0000
0000
0000
0000
0000
0000
0000
0000
0000
0000
0000
0000
0000
0000
0000
2002
3003
0000
0000
0000
0000
0000
0000
0000
0000
0000
0000
0000
0000
0000
0000
0000
0000
0000
0000
0000
0000
0000
0000
0100
0000
0000
0000
0000
0000
0000
0000
0000
0000
0000
0000
0000
0000
0000
0000
0000
0000
0000
0000
0000
0000
0000
0000
,
0001
0100
0010
0000
1000
0000
0100
0000
1000
0000
0010
0000
0100
0001
1000
0000
,
0100
0010
0001
1000
1010
1000
0001
1000
,
0100
1000
0001
0000
0100
0000
0001
0000
0010
0000
0100
0000
1000
0001
1000
0000
,
0001
0100
0001
1000
0100
1000
0001
0010
0100
1000
0001
1000
0010
0100
0001
1000
,
0001
0100
0001
0000
1001
0000
1000
0000
1100
0000
0100
1000
0001
0000
0100
0000
,
0101
1000
1100
0100
0110
0010
0014
0000
,
1003
0100
1000
0000
1001
0000
0001
0000
0101
0000
0100
0010
0100
0000
0001
0000
,
1001
0000
0001
0000
0011
0000
1000
0000
1400
0000
0000
0300
2MMM
0000
0000
0000
,
3001
0100
0001
0100
0010
1000
0010
1000
0001
0100
0001
1000
0100
1000
0001
1000
,
0010
0100
0001
1000
0001
1000
0100
0010
0001
0010
0100
1000
0001
0100
0010
1000
,
0001
0100
0001
1000
0010
1000
0010
0100
0001
1000
0001
0010
0100
1000
0001
1000
,
0001
0000
0100
0010
1000
0000
0100
0000
1000
0000
0010
0000
0100
0000
0001
0000
,
M1M1
0100
0010
1010
,
1000
0M00
0001
00M0
0101
0000
0001
0000
,
1000
0000
1100
0000
0100
00M0
0010
0M00
,
MM11
1000
0010
0110
,
0010
0M00
1000
00M0
1MM1
0000
1000
0000
,
0010
0000
0000
0000
0100
0001
0100
0010
1000
0001
1000
0100
0010
0000
MMMM
0000
,
0011
1000
0011
0100
0011
1000
1010
0001
,
1010
0100
0101
1000
1001
0010
1001
0100
,
1001
1000
1100
0010
1100
0001
0101
0010
,
1002
0203
0320
2030
,
3002
0000
0000
0000
0023
0000
0000
0000
0130
1000
0001
0000
0100
0000
0001
0000
,
1000
0000
0000
0000
0000
0000
0000
0000
0000
0000
0000
0000
0000
0000
0000
0000
0000
0000
0000
0000
0000
0000
0000
0000
0010
0000
0000
0000
0000
0000
0000
0000
0000
0000
0000
0000
0000
0000
0000
0000
0000
0000
0000
0000
0000
0000
0000
0000
1000
0000
0000
0000
0000
0000
0000
0000
0000
0000
0000
0000
0000
0000
0000
0000
0000
0000
0000
0100
0000
0000
0000
0000
0000
0000
0000
0000
0000
0000
0000
0000
0000
0000
0000
0000
0000
0000
0000
0000
1000
0000
0000
0000
0000
0000
0000
0000
0000
0000
0000
0000
0000
0000
0000
0000
0000
0000
0000
0000
0000
0000
0000
0000
0000
0000
0000
0000
0000
0000
0000
0000
0010
0000
0000
0000
0000
0000
0000
0000
0000
0000
0000
0000
0000
0000
0000
0000
0000
0000
0000
0000
0000
0000
0000
0000
MMMM
0000
0000
0000
0000
0000
0000
0000
0000
0000
0000
0000
0000
0000
0000
0000
0000
0000
0000
0000
0000
0000
0000
0000
2020
0000
0000
0000
0000
0000
0000
0000
0000
0000
0000
0000
0000
0000
0000
0000
0000
0000
0000
0000
0000
0000
0000
0000
,
0000
3030
1000
0000
0100
0000
1000
0000
0010
0000
0100
0000
0001
0000
1000
0000
,
0010
0100
0001
0010
0100
1000
0001
0010
,
0001
1000
0010
0100
0001
1000
0100
0010
,
0001
1000
0001
0100
0010
1010
0001
1001
,
1000
0001
0100
0010
1000
0100
1000
0010
,
0100
0001
1000
0100
0010
0001
1000
0010
,
0101
0001
1000
0100
1000
0010
0100
0001
,
0010
0001
0010
0001
1000
0100
1000
0100
0010
0001
0100
0010
1000
0001
0010
0100
,
1000
0000
0100
0000
1100
0000
0001
1000
0001
0000
0100
0000
0101
0000
0100
0010
,
1000
0000
0001
0000
0011
0000
0010
0100
1000
0000
0001
0000
0101
0000
0001
0000
,
1000
0000
0100
0000
1100
0000
0010
0001
1000
0000
0010
0000
0110
0000
0100
0000
,
0001
1000
0100
0000
1100
0000
1000
0010
0100
0000
0001
0000
1001
0000
1000
0000
,
0001
0000
0100
0000
0101
0000
0001
0100
0010
0000
0100
0000
0110
0000
0001
0000
,
1000
0001
1000
0000
1100
0000
0100
0010
0001
0000
1000
0000
1010
0000
1000
0000
,
0010
1000
0001
0010
0100
0010
0001
1000
,
0010
0000
1000
0000
0100
0000
0010
0000
0100
0000
1000
0001
1000
0000
0001
0000
,
0100
0001
1000
0000
0100
0000
1000
0000
0010
0000
0100
0000
0001
0100
0010
0000
,
1000
0100
1000
0010
0101
0100
0010
1000
,
0001
1000
0001
0000
0100
0000
0001
0000
0010
0000
0100
0000
1000
0001
0100
0000
,
0010
0000
1000
0100
1000
0000
0001
0100
0001
1000
0100
0010
0001
1000
0001
1000
,
0001
0100
0010
0000
1010
0000
1000
0000
0101
0000
0100
0001
0100
0000
0001
0000
,
1001
0000
1000
0000
1100
0000
0001
0000
0101
0000
0001
0000
4001
0000
0000
3000
,
0100
1000
0010
0000
0110
0000
0100
0000
0101
0000
0001
1000
0001
0000
1000
0000
,
1010
0000
0001
0000
0101
0000
1000
0000
0001
0100
0001
0100
0010
0000
MMMM
0000
,
1000
0100
1000
0100
0010
0001
1000
0001
0100
0001
0100
0010
1000
0001
0010
0001
,
0100
0010
1000
0100
0010
0001
1000
0001
0100
0001
0100
0010
1000
0010
1000
0001
,
0010
0001
0100
0010
1000
0100
1000
0100
0010
0001
0010
0001
1000
0000
MMMM
0000
,
MM11
0001
1000
1010
0010
0100
0101
0001
,
1MM1
0000
1000
0001
0000
0010
0011
0000
,
0002
0000
0000
0000
0203
0000
0000
0300
1M1M
0000
0000
0000
0010
0000
1M00
0000
,
0000
0000
0001
0000
0101
0000
0000
0000
0002
0000
0000
0000
2003
0000
0000
3000
,
11MM
0000
0100
10M0
0000
0001
1001
0000
,
0200
0000
0000
0000
0320
0000
0000
0030
1M1M
0000
0000
0000
0100
0000
00M1
0000
,
0000
0000
1000
0000
2100
0000
0000
0000
3010
0000
1000
0001
4000
0000
0000
3000
,
0010
1000
0010
0000
0101
0000
1000
0000
0101
0000
0010
0000
1010
0000
0001
0000
,
1010
0100
1001
0100
1100
0010
1100
0001
,
1001
0100
0101
0010
1001
0100
1100
1000
,
1001
0001
M100
0110
,
0010
0000
0000
0000
1000
0000
0000
0000
0100
1000
0001
0000
0100
0000
0001
0000
,
0010
0000
0000
0000
0000
0000
0000
0000
0000
0000
0000
0000
0000
0000
0000
0000
0000
0000
0000
0000
0000
0000
0000
0000
0100
0000
0000
0000
0000
0000
0000
0000
0000
0000
0000
0000
0000
0000
0000
0000
0000
0000
0000
0000
0000
0000
0000
0000
1000
0000
0000
0000
0000
0000
0000
0000
0000
0000
0000
0000
0000
0000
0000
0000
0000
0000
0000
0100
0000
0000
0000
0000
0000
0000
0000
0000
0000
0000
0000
0000
0000
0000
0000
0000
0000
0000
0000
0000
0010
0000
0000
0000
0000
0000
0000
0000
0000
0000
0000
0000
0000
0000
0000
0000
0000
0000
0000
0000
0000
0000
0000
0000
0000
0000
0000
0000
0000
0000
0000
0000
0001
0000
0000
0000
0000
0000
0000
0000
0000
0000
0000
0000
0000
0000
0000
0000
0000
0000
0000
0000
0000
0000
0000
0000
MMMM
0000
0000
0000
0000
0000
0000
0000
0000
0000
0000
0000
0000
0000
0000
0000
0000
0000
0000
0000
0000
0000
0000
0000
2002
0000
0000
0000
0000
0000
0000
0000
0000
0000
0000
0000
0000
0000
0000
0000
0000
0000
0000
0000
0000
0000
0000
0000
,
0000
3003
0001
0000
0100
0000
0001
0000
0010
0000
0001
0000
1000
0000
0100
0000
,
1000
0010
0100
1000
0100
0101
1000
1100
,
1000
0001
0100
0010
0001
0010
0100
0001
,
0100
0010
0100
0000
0001
0000
1000
0000
0100
0000
1000
0000
0100
0000
0010
0000
,
0011
0001
0100
0001
0100
1000
0100
0010
,
1000
0100
1000
0001
0100
0010
1000
0100
,
1100
0010
0001
1000
0010
0100
0010
1000
,
0001
0100
0001
0100
0010
1000
0010
1000
0001
0100
0010
1000
0100
1000
0001
1000
,
0001
0000
1000
0000
0001
0000
0100
0010
0100
0000
0010
0000
1000
0000
0001
0000
,
0010
0001
0010
0000
0001
0000
0100
0010
0100
0000
0001
0000
0010
0000
0001
0000
,
1100
0000
0100
0000
1000
0000
0001
0000
0100
0001
1000
0000
0010
0000
1000
0000
,
0001
1000
0100
0000
1000
0000
0001
0000
0100
0000
1001
0000
0100
0000
1100
0000
,
0001
0000
1000
0000
0010
0000
0100
0001
1000
0000
0010
0000
0100
0000
0001
0000
,
1000
0001
0100
0000
0001
0000
0010
0100
1000
0000
0010
0000
0100
0000
0001
0000
,
1010
1000
0010
1000
0100
0010
0001
0100
,
0010
0000
0100
0000
0001
0000
1000
0000
0001
1000
0001
0000
0100
0000
0010
0000
,
1000
0100
1000
0100
1000
0000
0000
0000
0000
0000
1000
0001
0000
0000
1001
0000
,
0001
0100
0001
0100
0001
0000
0000
0000
1000
0100
1000
0100
1000
0000
0000
0000
,
0001
0010
0001
0010
0001
0000
0000
0000
0000
0000
0010
0100
0000
0000
1100
0000
,
1000
0001
1000
0001
1000
0000
0000
0000
0001
0100
0001
0100
0001
0000
0000
0000
,
100M
0010
0100
0001
1000
0000
0000
0000
0000
0000
100M
0100
0000
0000
1100
0000
,
M001
0100
0001
1000
0010
0000
0000
0000
M100
0001
1000
0100
1000
0000
0000
0000
,
0M10
1000
0001
1000
0001
0000
0000
0000
0000
0000
0M10
0001
0000
0000
0011
0000
,
100M
0010
0100
0001
0100
0000
0000
0000
001M
1000
0100
0010
0001
0000
0000
0000
,
1M00
0001
0010
0001
0010
0000
0000
0000
0000
0000
0M01
0010
0000
0000
0110
0000
,
010M
1000
0001
0100
0001
0000
0000
0000
100M
0100
0010
0100
1000
0000
0000
0000
,
M010
0100
0001
1000
0001
0000
0000
0000
0000
0000
M100
0001
0000
0000
1001
0000
,
20M0
3200
M302
2003
30M2
0203
230M
3002
,
0103
0001
1000
0001
0200
0000
0000
0000
03M1
0000
1000
0001
0000
0000
0100
0000
,
0001
0100
0001
1000
0002
0000
0000
0003
0100
0010
1000
0010
0200
0000
0000
0000
,
0301
1000
0100
1000
0002
0000
0000
0000
M013
0000
0001
1000
0000
0000
0001
0000
,
0100
0001
1000
0010
0200
0000
0000
0300
0010
1000
0001
0010
0002
0000
0000
0003
,
1000
0001
0010
0001
2000
0000
0000
0000
30M1
0000
0100
0010
0000
0000
1000
0000
,
0100
1000
0001
1000
0200
0000
0000
0300
0010
0001
1000
0001
2000
0000
0000
3000
,
0010
1000
0001
1000
0002
0000
0000
0000
M013
0000
0001
1000
0000
0000
0001
0000
,
10M1
0002
M023
2030
3M20
0032
M203
0302
,
2M03
0000
0000
00M0
0000
0000
000M
0000
0000
0000
0000
0000
0000
0000
0000
0000
,
00M0
0000
0000
0M00
0000
0000
000M
0000
0000
0000
0000
0000
0000
0000
0000
0000
,
000M
0000
0000
0M00
0000
0000
000M
0000
0000
0000
0000
0000
0000
0000
0000
0000
,
00M0
0000
0000
000M
3000
0000
0M00
0000
0000
0000
0000
0000
0000
0000
0000
0000
,
0001
0000
0000
1000
0000
0000
0200
0000
0000
0000
0000
0000
0000
0000
0300
0000
,
1000
0000
0000
0010
0000
0000
0200
0000
0000
0000
0000
0000
0000
0000
0300
0000
,
0010
0000
0000
1000
0000
0000
0002
0000
0000
0000
0000
0000
0000
0000
0003
0000
,
0010
0000
0000
0001
0000
0000
2000
0000
0000
0000
0000
0000
0000
0000
3000
0000
,
0001
0010
0001
0000
1001
0000
1000
0000
1010
0000
0001
0000
0101
0000
0001
0000
,
1001
0000
1000
0000
1010
0000
0001
0000
1000
0001
1000
0000
1100
0000
0100
0000
,
0110
0001
1001
1000
1010
0001
1001
1000
,
0100
1000
0001
0000
0101
0000
0001
0000
1001
0000
1000
0000
1010
0000
0001
0000
,
1001
0000
1000
0000
1100
0000
0001
0000
0010
0001
1000
0000
1001
0000
0001
0000
,
0101
0000
1000
0000
1100
0000
0100
0000
0110
0000
0010
0000
0014
0000
0000
0003
,
1000
0001
0100
0001
1000
0100
1000
0100
0010
0001
1000
0001
0100
0010
1000
0100
,
0010
0001
0010
0001
1000
0100
1000
0001
0100
0001
1000
0010
0100
0001
0010
0100
,
1000
0001
1000
0010
0100
0001
0100
0001
1000
0100
1000
0010
0100
0001
0010
0100
,
1000
0001
0100
0010
1000
0001
0010
0001
0010
0100
1000
0001
0100
0010
0100
0001
,
1000
0100
1000
0010
0100
0001
0010
0100
1000
0100
1000
0000
0001
0000
0100
0000
,
0010
0000
0000
0000
0000
0000
0000
0000
0000
0000
0000
0000
0000
0000
0000
0000
0000
0000
0000
0000
0000
0000
0000
0000
0100
0000
0000
0000
0000
0000
0000
0000
0000
0000
0000
0000
0000
0000
0000
0000
0000
0000
0000
0000
0000
0000
0000
0000
0001
0000
0000
0000
0000
0000
0000
0000
0000
0000
0000
0000
0000
0000
0000
0000
0000
0000
0000
1000
0000
0000
0000
0000
0000
0000
0000
0000
0000
0000
0000
0000
0000
0000
0000
0000
0000
0000
0000
0000
0100
0000
0000
0000
0000
0000
0000
0000
0000
0000
0000
0000
0000
0000
0000
0000
0000
0000
0000
0000
0000
0000
0000
0000
0000
0000
0000
0000
0000
0000
0000
0000
1000
0000
0000
0000
0000
0000
0000
0000
0000
0000
0000
0000
0000
0000
0000
0000
0000
0000
0000
0000
0000
0000
0000
0000
MMMM
0000
0000
0000
0000
0000
0000
0000
0000
0000
0000
0000
0000
0000
0000
0000
0000
0000
0000
0000
0000
0000
0000
0000
2002
0000
0000
0000
0000
0000
0000
0000
0000
0000
0000
0000
0000
0000
0000
0000
0000
0000
0000
0000
0000
0000
0000
0000
,
0000
3003
0100
0000
1000
0000
0010
0000
0100
0000
1000
0000
0100
0000
0001
0000
,
0010
0100
1000
0100
0001
0100
0010
0001
,
1001
0001
1000
0100
0010
0001
1000
0001
,
0100
1000
0100
0010
1000
1100
0010
0110
,
0100
1000
0001
0100
0010
0001
0010
0100
,
0001
1000
0100
1000
0010
0100
0001
0010
,
1100
0000
1000
0000
0001
0000
0100
0000
0010
0000
1000
0000
0100
0000
1000
0100
,
1000
0000
0001
0000
0101
0000
1000
0000
1001
0000
1000
0100
1000
0000
0001
0000
,
0101
0000
0001
0000
1001
0000
1000
0100
1000
0000
0010
0000
1010
0000
0010
0100
,
0001
0000
1000
0000
1100
0000
0100
0010
0001
0000
1000
0000
1001
0000
0001
0000
,
1000
0000
0100
0000
1100
0000
0100
0010
0100
0000
1000
0000
1001
0000
0001
0000
,
0100
0000
0001
0000
1010
0000
1000
0000
0001
0100
0001
0100
0010
1000
0010
1000
,
0100
1000
0010
0100
0001
1000
0001
0100
,
0010
0100
0001
0010
0100
1000
0001
1000
,
0010
0100
0010
1000
0100
1000
0001
0010
,
0001
1000
0010
0100
0001
1000
0100
1000
,
2MM2
0000
0000
0000
,
0000
0000
0000
3003
,
0010
0000
0000
1000
0000
0000
0M02
0000
0000
0000
0000
0000
M000
0000
0003
0000
,
1000
0000
0000
0001
0000
0000
20M0
0000
0000
0000
0000
0000
000M
0000
0000
0000
,
3001
0000
0000
0100
0000
0000
M020
0000
0000
0000
0000
0000
0M00
0030
0000
0000
,
1000
0000
0000
0100
0000
0000
002M
0000
0000
0000
0000
0000
M000
0030
0000
0000
,
0001
0000
0000
1000
0000
0000
02M0
0000
0000
0000
0000
0000
000M
0300
0000
0000
,
1000
0000
0000
0010
0000
0000
200M
0000
0000
0000
0000
0000
0M00
0000
0000
0000
,
0002
0000
0000
0000
,
0000
0000
3003
0000
;
