#TITLE:Pussycat;
#SUBTITLE:(Loffciamcore Remix);
#ARTIST:CokeMafia & RudeCat;
#TITLETRANSLIT:;
#SUBTITLETRANSLIT:;
#ARTISTTRANSLIT:;
#CREDIT:Aoreo;
#BANNER:../Jawn - ban.png;
#BACKGROUND:../Jawn - bg.png;
#LYRICSPATH:;
#CDTITLE:;
#MUSIC:Pussycat (Loffciamcore Remix).ogg;
#OFFSET:-0.027;
#SAMPLESTART:29.534;
#SAMPLELENGTH:12.000;
#SELECTABLE:YES;
#DISPLAYBPM:240.000;
#BPMS:0.000=240.000;
#STOPS:;
#BGCHANGES:;
// cache tags:
#FIRSTBEAT:24.000;
#LASTBEAT:545.000;
#SONGFILENAME:Songs/Jimmy Jawns/Pussycat (Loffciamcore Remix) - [Aoreo]/Pussycat.sm;
#HASMUSIC:1;
#HASBANNER:1;
#MUSICLENGTH:140.042;
// end cache tags

//---------------dance-single - J. Nero (17+)----------------
#NOTES:
     dance-single:
     J. Nero (17+):
     Challenge:
     17:
     1.000,1.000,0.093,0.364,1.000,1210.000,13.000,51.000,0.000,0.000:
0000
0000
0000
0000
,
0000
0000
0000
0000
,
0000
0000
0000
0000
,
0000
0000
0000
0000
,
0000
0000
0000
0000
,
0000
0000
0000
0000
,
1000
0001
0010
0100
1000
0000
0000
0000
0001
0000
1000
0000
0020
0000
0030
0000
,
0110
0100
0001
0000
,
1000
0100
0010
0100
1000
0010
0100
0001
1000
0001
0010
0100
1000
0001
0100
0001
,
0010
0100
1000
0001
1000
0010
0100
0010
1000
0100
1000
0010
1000
0001
0100
0001
,
0010
0001
1000
0100
1000
0001
0100
0010
0100
0001
1000
0100
0010
0001
1000
0010
,
1000
0000
0000
0000
0001
0100
0001
0100
0010
0000
1000
0000
0001
0000
0000
0000
,
1000
0001
0100
0001
0010
0100
1000
0001
0100
0010
0100
0001
1000
0100
0010
0100
,
1000
0010
0100
0010
1000
0001
0010
0100
1000
0010
0100
0001
0010
0100
1000
0010
,
0400
0300
0004
0003
0040
0030
0400
0300
,
4000
0000
3000
0000
0001
0100
0001
1000
0100
0010
0001
1000
0001
0000
0000
0000
,
1000
0000
1000
0000
0001
0100
0001
1000
0100
0010
0001
0100
0001
1000
0100
1000
,
0001
0100
0010
1000
0100
1000
0001
0100
0004
0000
0003
0000
4000
0000
3000
0000
,
0001
0100
0001
1000
0100
0010
0100
1000
0010
0100
0010
1000
0001
0010
0100
1000
,
0001
0000
0000
0000
1000
0001
1000
0100
0040
0000
0030
0000
0001
0000
0000
0000
,
1000
0010
1000
0001
0010
0100
1000
0010
0100
0010
1000
0001
0100
0001
0010
0100
,
1000
0001
0010
0001
1000
0010
0100
0010
4000
0000
3000
0000
0004
0000
0003
0000
,
1001
0000
0000
0000
1000
0000
0000
0000
0001
0010
0100
1000
0010
0100
0001
1000
,
0010
0000
0000
0000
0000
0000
0100
0100
,
0001
0000
1000
0100
1000
0000
0001
0010
0001
0000
0100
0000
0010
0000
1000
0100
,
1000
0000
0001
0100
0001
0000
1000
0000
0100
0000
0010
0000
0100
0000
1000
0000
,
0010
0000
1000
0100
0010
0000
0001
1000
0001
0000
1000
0000
0001
0000
0200
0000
,
0300
0002
0003
0020
0030
0200
0300
0000
,
1000
0000
0001
0100
0001
0000
1000
0100
1000
0000
0001
0000
1000
0000
0200
0000
,
0300
0020
0030
0002
0003
1000
0000
0001
,
0001
0001
0100
0010
1000
0000
0000
0001
,
0001
0001
0100
0010
1000
0100
0010
0001
,
1000
0000
0001
0100
0001
0000
1000
0100
1000
0000
0010
0000
0100
0000
0001
1000
,
0001
0000
1000
0100
1000
0000
0001
0000
0010
0000
0100
0000
0010
0000
0001
0000
,
1000
0000
0001
0100
0001
0000
1000
0100
1000
0000
0100
0000
0010
0000
0002
0000
,
0003
2000
3000
0020
0030
0200
0300
0000
,
0010
0000
1000
0010
1000
0000
0001
0100
0001
0000
1000
0000
0001
0000
0020
0000
,
0030
0200
0300
2000
3000
0002
0003
1000
,
0100
1000
0010
0100
0001
0000
0000
0000
,
1001
0000
0000
0000
2000
3000
0040
0030
,
1000
0010
0100
0010
1000
0001
0010
0100
0010
0001
0100
0010
1000
0010
0100
0001
,
1000
0001
0010
0100
1000
0001
0100
0010
0100
0001
0010
0100
1000
0010
0100
0010
,
1000
0100
0010
0001
1000
0010
1000
0001
0100
0010
0100
0001
1000
0100
0010
0001
,
1000
0010
0100
0010
1000
0001
0010
0100
1000
0000
0040
0000
0130
0000
0004
0000
,
1003
0000
1000
0000
0001
0000
0000
0000
0020
0000
0030
0000
0001
0100
0001
1000
,
0100
0010
0100
1000
0001
0100
0010
0100
0001
0010
0100
1000
0010
0100
0010
1000
,
0100
0010
0001
1000
0010
1000
0001
0010
0100
1000
0001
0100
0001
1000
0100
1000
,
0001
0000
0000
0000
1001
0000
0000
0000
1000
0100
0010
0001
1000
0000
0000
0000
,
0001
0000
0001
0000
0200
0300
0000
0000
0010
1000
0001
0100
0010
0100
0001
0010
,
0100
1000
0001
0100
0010
0100
0001
1000
0100
0010
0001
1000
0010
0100
0010
1000
,
0001
0010
0100
0010
0001
1000
0010
0100
0010
1000
0001
0100
0001
1000
0100
0010
,
0004
0000
0003
0000
4000
0000
3000
0000
0001
0100
0010
1000
0100
0010
0001
1000
,
0001
0000
0000
0000
1000
0001
1000
0100
0020
0030
0000
0000
0001
0010
0001
0100
,
0010
1000
0001
0100
0001
1000
0100
0010
0100
1000
0001
0100
0010
0100
0001
1000
,
0100
0010
0001
1000
0010
0100
0010
1000
0001
0000
0001
0000
0010
0000
0000
0000
,
0110
0000
0000
0000
0100
0000
0000
0000
2000
0000
0000
3000
0000
0000
0000
0000
,
0001
0000
0001
0000
1000
0100
0010
0100
1000
0001
0100
0010
0100
0001
1000
0100
,
0010
0001
0100
0001
1000
0100
1000
0001
0100
0001
1000
0010
1000
0100
0010
0001
,
0100
0001
1000
0010
0100
0010
1000
0001
0010
0100
0010
0001
1000
0010
0100
0001
,
0100
0010
1000
0001
0100
0001
0010
0100
4000
0000
3000
0000
0000
0000
0000
0000
,
0001
0100
0001
0010
0100
1000
0010
0100
0010
1000
0001
0100
0001
1000
0100
0010
,
0001
1000
0010
0100
0001
0100
0010
1000
0001
0010
0100
0010
0001
0100
0010
1000
,
0100
0010
0100
1000
0001
0100
0001
1000
0100
0010
0001
0100
0001
1000
0010
1000
,
0001
0100
0001
1000
0100
1000
0010
0100
0010
1000
0001
0100
0001
0000
0000
0000
,
1000
0100
1000
0010
0100
0001
0010
0001
0100
0010
1000
0100
0010
0001
0100
0010
,
2000
3000
0000
0000
0002
0003
0000
0000
0200
0300
0000
0000
0002
0003
0000
0000
,
0100
0001
1000
0001
0010
0100
1000
0010
1000
0001
0100
0001
1000
0100
0010
0100
,
1000
0001
0100
0001
0010
0001
1000
0010
0100
0000
0001
0000
1000
0000
0010
0000
,
0100
0001
0010
0100
1000
0000
0000
0000
0200
0300
0020
0000
0032
0003
0000
0000
,
0011
0110
1100
1000
,
0001
0100
0001
1000
0010
0000
0000
0000
1000
0100
1000
0001
0010
0100
1000
0010
,
0100
0010
1000
0100
0010
0001
1000
0100
1000
0001
0100
0010
1000
0000
0000
0000
,
0001
0010
0100
1000
,
0001
0100
0010
1000
,
0100
0010
0001
1000
,
0001
0100
0010
0100
0001
0010
0100
1000
,
0002
0003
0000
0000
1000
0000
0000
0000
0010
0000
0000
0000
0100
0000
0000
0000
,
0001
0010
0100
1000
,
0001
0010
0100
1000
0001
0000
0000
0000
1000
0000
1000
0000
0020
0030
0000
0000
,
0100
0000
0000
0000
0001
0100
0001
0010
0200
0300
0000
0000
1000
0000
0000
0000
,
0010
0100
0001
0000
0010
0000
0100
0000
,
1000
0100
1000
0001
,
1000
0010
0100
0001
,
0100
0010
0100
0001
0010
0100
1000
0001
,
2000
3000
0000
0000
0010
0000
0000
0000
0100
0000
0000
0000
0001
0000
0000
0000
,
0010
0001
0100
0010
,
1000
0010
1000
0100
0010
0000
0000
0000
0001
0000
0001
0000
2000
3000
0000
0000
,
0001
0000
0000
0000
1000
0100
1000
0010
0100
0001
0010
0100
1000
0000
0000
0000
,
0001
0100
0001
0000
0010
0000
0100
0000
,
1000
0010
0100
0001
,
1000
0100
0010
0001
,
1000
0001
0100
0001
0010
0000
0000
0000
0100
0000
0100
0000
2000
3000
0000
0000
,
0001
0010
0001
0100
0010
0000
0000
0000
0100
0000
0000
0000
0001
0000
0000
0000
,
1000
0100
1000
0010
,
0100
0000
0000
0000
0001
0000
0000
0000
0010
0000
0010
0000
0200
0300
0000
0000
,
1100
0000
1000
0000
0001
0000
0200
0300
,
0001
0010
0001
0100
0010
1000
0100
1000
0001
0100
0001
1000
0100
0010
0001
1000
,
0010
0100
0010
1000
0001
0010
0100
1000
0001
0010
0001
1000
0010
0100
0010
1000
,
0001
0100
0001
1000
0100
0010
0001
1000
0010
0100
0010
1000
0001
0010
0100
1000
,
0001
0100
0001
1000
0100
0010
0001
1000
,
0001
0100
0001
1000
0100
0010
0001
1000
0010
0100
0010
1000
0001
0010
0100
0010
,
0001
0100
0010
1000
0010
0100
0001
1000
0100
0010
0001
1000
0010
1000
0001
0100
,
0001
0010
0100
1000
0040
0000
0030
0000
1000
0000
1000
0000
0002
0003
0000
0000
,
2000
0000
0000
3000
0001
0100
0001
0010
0100
1000
0001
0100
0001
0000
0000
0000
,
1000
0000
0001
0100
0001
0000
1000
0100
0010
0000
0001
1000
0001
0000
1000
0001
,
0100
0000
0000
0000
,
0001
0000
1000
0010
1000
0000
0001
0100
0001
0000
1000
0100
0010
0000
0001
0100
,
0001
0000
0000
0000
,
1000
0000
0100
0010
0001
0000
1000
0010
1000
0000
0001
0100
0010
0000
1000
0001
,
1000
0000
0000
0000
,
0001
0000
0100
0001
0100
0000
0001
1000
0100
0000
0010
0001
1000
0000
0001
1000
,
0001
0000
0000
0000
,
1000
0000
0001
0100
0001
0000
1000
0001
1000
0000
0001
0010
0100
0000
1000
0000
,
0001
0000
0100
0010
0100
0000
0001
0000
0010
0000
0100
0000
1000
0000
0010
0000
,
0100
0000
0001
0100
0001
0000
1000
0100
0010
0000
0001
0000
1000
0000
0020
0000
,
0030
0200
0300
0002
0003
0020
0030
0000
,
0100
0000
1000
0001
1000
0000
0001
0100
0010
0000
1000
0000
0010
0000
0200
0000
,
0300
0002
0003
0020
0030
0200
0300
1000
,
0001
0000
0100
0000
0001
0000
0010
0000
0100
0000
0000
0000
2000
0000
0000
3000
,
0001
0100
0001
0010
0200
0000
0000
0300
,
1000
0000
1000
0000
0001
0010
0001
0100
0010
1000
0100
1000
0010
0100
0001
0010
,
0001
1000
0100
0010
0100
1000
0010
0100
0004
0000
0003
0000
4000
0000
3000
0000
,
0001
0100
0001
1000
0100
0010
0001
1000
0010
0100
0010
1000
0001
0010
0100
0010
,
0001
1000
0010
0100
0004
0003
0000
0000
4000
3000
0000
0000
0001
0000
0000
0000
,
0040
0030
0400
0300
4000
3000
0004
0003
,
4000
3000
0001
0010
0100
0000
1000
0000
,
0001
0100
0010
1000
0100
0010
0001
0100
0010
1000
0100
0010
0001
0100
0001
1000
,
0010
1000
0100
0010
0001
1000
0001
0100
0010
0100
0001
0010
0200
0000
0000
0000
,
1300
0010
1000
0100
0010
0001
1000
0001
0100
0010
0100
0001
1000
0001
0010
0100
,
1000
0001
0010
0001
1000
0010
0100
0010
1000
0001
0100
0001
1000
0100
0010
0001
,
4000
3000
0004
0003
1001
0000
0000
0000
,
1000
0100
1000
0010
0100
0001
0010
0001
0100
0010
1000
0100
1000
0010
0100
0001
,
0010
0001
1000
0010
1000
0001
0100
0010
1000
0001
0010
0100
1000
0001
0100
0010
,
0100
0001
1000
0100
0010
0001
1000
0010
0100
0000
0000
0000
0001
0000
0000
0000
,
4000
0000
0000
0000
3000
0000
0000
0000
0001
1000
0100
0010
0001
0100
0010
1000
,
0001
1000
0100
0000
,
2200
3300
0000
0000
;

//---------------dance-single - J. Nero (17-)----------------
#NOTES:
     dance-single:
     J. Nero (17-):
     Hard:
     17:
     1.000,1.000,0.107,0.364,1.000,1053.000,15.000,51.000,0.000,0.000:
0000
0000
0000
0000
,
0000
0000
0000
0000
,
0000
0000
0000
0000
,
0000
0000
0000
0000
,
0000
0000
0000
0000
,
0000
0000
0000
0000
,
1000
0001
0010
0100
1000
0000
0000
0000
0001
0000
1000
0000
0020
0000
0030
0000
,
0110
0100
0001
0000
,
1000
0100
0010
0100
1000
0010
0100
0001
1000
0001
0010
0100
1000
0001
0100
0001
,
0010
0100
1000
0001
1000
0010
0100
0010
1000
0000
0040
0030
0100
0000
0004
0003
,
1000
0100
0010
0100
1000
0001
0100
0010
0100
0001
1000
0100
0010
0001
1000
0010
,
1000
0000
0000
0000
0001
0100
0001
0100
0010
0000
1000
0000
0001
0000
0000
0000
,
1000
0001
0100
0001
0010
0100
1000
0001
0100
0010
0100
0001
1000
0100
0010
0100
,
1000
0010
0100
0010
1000
0001
0100
0001
4000
0000
0000
0000
0000
0000
0000
0000
,
3004
0003
4000
3000
0400
0300
0040
0030
,
0004
0000
0003
0000
1000
0100
1000
0001
0100
0010
1000
0001
1000
0000
0000
0000
,
0001
0000
1000
0000
0001
0100
0001
1000
0100
0010
0001
0100
0001
1000
0100
1000
,
0001
0100
0010
1000
0100
1000
0001
0100
0004
0000
0003
0000
4000
0000
3000
0000
,
0001
0100
0001
1000
0100
0010
0100
1000
0010
0100
0010
1000
0001
0010
0100
1000
,
0001
0000
0000
0000
1000
0001
1000
0100
0040
0000
0030
0000
0001
0000
0000
0000
,
1000
0010
1000
0001
0010
0100
1000
0010
0100
0010
1000
0001
0100
0001
0010
0100
,
1000
0001
0010
0001
1000
0010
0100
0010
4000
0000
3000
0000
0004
0000
0003
0000
,
1001
0000
0000
0000
1000
0000
0000
0000
0004
4000
0000
0000
0000
0000
0000
3003
,
0000
0000
0000
0000
0000
0000
1000
1000
,
0001
0000
1000
0100
1000
0000
0001
0010
0001
0000
0100
0000
0010
0000
1000
0100
,
1000
0000
0001
0100
0001
0000
1000
0000
0100
0000
0010
0000
0100
0000
1000
0000
,
0010
0000
1000
0100
0010
0000
0001
1000
0001
0000
1000
0000
0001
0000
0200
0000
,
0300
0002
0003
0020
0030
0200
0300
0000
,
1000
0000
0001
0100
0001
0000
1000
0100
1000
0000
0001
0000
1000
0000
0200
0000
,
0300
0020
0030
0002
0003
1000
0000
0001
,
0001
0001
0100
0010
1000
0000
0000
0001
,
0001
0001
0100
0010
1000
0100
0010
0001
,
1000
0000
0001
0100
0001
0000
1000
0100
1000
0000
0010
0000
0100
0000
0001
1000
,
0001
0000
1000
0100
1000
0000
0001
0000
0010
0000
0100
0000
0010
0000
0001
0000
,
1000
0000
0001
0100
0001
0000
1000
0100
1000
0000
0100
0000
0010
0000
0002
0000
,
0003
2000
3000
0020
0030
0200
0300
0000
,
0010
0000
1000
0010
1000
0000
0001
0100
0001
0000
1000
0000
0001
0000
0020
0000
,
0030
0200
0300
2000
3000
0002
0003
1000
,
0100
1000
0010
0100
0001
0000
0000
0000
,
1001
0000
0000
0000
2000
3000
0040
0030
,
1000
0010
0100
0010
1000
0001
0010
0100
0010
0001
0100
0010
1000
0010
0100
0001
,
1000
0001
0010
0100
1000
0001
0100
0010
4000
0000
0000
0000
0000
0000
0000
3000
,
0001
1000
0100
0010
0001
1000
0010
1000
0001
0100
0010
1000
0001
0010
0100
1000
,
0001
0100
0010
0100
0001
1000
0100
0010
0001
0000
0400
0000
0310
0000
4000
0000
,
3001
0000
0100
0000
0001
0000
0000
0000
0020
0000
0030
0000
0001
0100
0001
1000
,
0100
0010
0100
1000
0001
0100
0010
0100
0004
0000
0000
0000
0000
0000
0000
0003
,
1000
0100
1000
0001
0100
0001
1000
0100
0010
0001
1000
0010
1000
0001
0010
0001
,
1000
0000
0000
0000
1001
0000
0000
0000
0001
0010
0100
1000
0001
0000
0000
0000
,
1000
0000
0001
0000
0200
0300
0000
0000
0010
1000
0001
0100
0010
0100
0001
0010
,
0100
1000
0001
0100
0010
0100
0001
1000
0100
0010
0001
1000
0010
0100
0010
1000
,
0001
0010
0100
0010
0001
1000
0010
0100
0010
1000
0001
0100
0001
1000
0100
0010
,
0004
0003
4000
3000
0004
0000
0000
0000
,
0003
0000
0000
0000
1000
0001
1000
0100
0020
0030
0000
0000
0001
0010
0001
0100
,
0010
1000
0001
0100
0001
1000
0100
0010
0100
1000
0001
0100
0010
0100
0001
1000
,
0100
0010
0001
1000
0010
0100
0010
1000
0001
0000
1000
0000
0100
0000
0000
0000
,
0110
0000
0000
0000
0010
0000
0000
0000
0002
0000
0000
0003
0000
0000
0000
0000
,
1000
0000
0001
0000
1000
0100
0010
0100
1000
0001
0100
0010
0100
0001
1000
0100
,
0010
0001
0100
0001
1000
0100
1000
0001
0100
0001
1000
0010
1000
0100
0010
0001
,
0100
0001
1000
0010
0100
0010
1000
0001
0010
0100
0010
0001
1000
0010
0100
0001
,
0100
0010
1000
0001
0100
0001
0010
0100
4000
0000
3000
0000
0000
0000
0000
0000
,
4000
0000
3000
0000
0001
1000
0010
0100
0010
1000
0001
0100
0001
1000
0100
0010
,
0001
1000
0010
0100
0001
0100
0010
1000
0001
0000
0400
0300
0001
0000
0040
0030
,
0100
1000
0001
0100
0001
1000
0100
1000
0001
0010
0001
0100
0001
1000
0010
1000
,
0001
0100
0001
1000
0100
1000
0010
0100
0001
0000
0000
0000
0000
0000
0000
0000
,
4000
0004
0000
0000
0000
0000
0000
0000
0000
0000
0000
0000
0000
3003
0000
0000
,
2000
3000
0000
0000
0002
0003
0000
0000
0200
0300
0000
0000
0002
0003
0000
0000
,
0100
0001
1000
0001
0010
0100
1000
0010
1000
0001
0100
0001
1000
0100
0010
0001
,
1000
0000
0040
0030
0100
0000
0004
0003
0010
0000
0100
0000
1000
0000
0010
0000
,
0100
0001
0010
0100
1000
0000
0000
0000
0200
0300
0020
0000
0032
0003
0000
0000
,
0011
0110
1100
1000
,
0001
0100
0001
1000
0010
0000
0000
0000
1000
0100
1000
0001
0400
0040
0000
0000
,
0000
0000
0000
0000
0000
0000
0000
0330
1000
0001
0100
0010
1000
0000
0000
0000
,
0001
0010
0100
1000
,
0001
0100
0010
1000
,
0100
0010
0001
1000
,
0001
0100
0010
0100
0001
0010
0100
1000
,
0002
0003
0000
0000
1000
0000
0000
0000
0010
0000
0000
0000
0100
0000
0000
0000
,
0001
0010
0100
1000
,
0001
0010
0100
1000
0001
0000
0000
0000
1000
0000
1000
0000
0020
0030
0000
0000
,
0100
0000
0000
0000
0001
0100
0001
0010
0200
0300
0000
0000
1000
0000
0000
0000
,
0010
0100
0001
0000
0010
0000
0100
0000
,
1000
0100
1000
0001
,
1000
0010
0100
0001
,
0100
0010
0100
0001
0010
0100
1000
0001
,
2000
3000
0000
0000
0010
0000
0000
0000
0100
0000
0000
0000
0001
0000
0000
0000
,
0010
0001
0100
0010
,
1000
0010
1000
0100
0010
0000
0000
0000
0001
0000
0001
0000
2000
3000
0000
0000
,
0001
0000
0000
0000
1000
0100
1000
0010
0100
0001
0010
0100
1000
0000
0000
0000
,
0001
0100
0001
0000
0010
0000
0100
0000
,
1000
0010
0100
0001
,
1000
0100
0010
0001
,
1000
0001
0100
0001
0010
0000
0000
0000
0100
0000
0100
0000
2000
3000
0000
0000
,
0001
0010
0001
0100
0010
0000
0000
0000
0100
0000
0000
0000
0001
0000
0000
0000
,
1000
0100
1000
0010
,
0100
0000
0000
0000
0001
0000
0000
0000
0010
0000
0010
0000
0200
0300
0000
0000
,
1100
1000
0001
0000
,
4000
0000
0000
0000
0000
0000
0000
3000
0001
0100
0001
1000
0100
0010
0001
1000
,
0010
0100
0010
1000
0001
0010
0100
1000
0001
0010
0001
1000
0010
0100
0010
1000
,
0001
0100
0001
1000
0100
0010
0001
1000
0010
0100
0010
1000
0001
0010
0100
1000
,
0001
0100
0001
1000
0100
0010
0001
1000
,
0001
0100
0001
1000
0100
0010
0001
1000
0010
0100
0010
1000
0001
0010
0100
0010
,
0001
0100
0010
1000
0010
0100
0001
1000
0100
0010
0001
1000
0010
1000
0001
0100
,
0001
0010
0100
1000
0040
0000
0030
0000
1000
0000
1000
0000
0002
0003
0000
0000
,
2000
0000
0000
3000
0001
0100
0001
0010
0100
1000
0001
0100
0001
0000
0000
0000
,
1000
0000
0001
0100
0001
0000
1000
0100
0010
0000
0001
1000
0001
0000
1000
0001
,
0100
0000
0000
0000
,
0001
0000
1000
0010
1000
0000
0001
0100
0001
0000
1000
0100
0010
0000
0001
0100
,
0001
0000
0000
0000
,
1000
0000
0100
0010
0001
0000
1000
0010
1000
0000
0001
0100
0010
0000
1000
0001
,
1000
0000
0000
0000
,
0001
0000
0100
0001
0100
0000
0001
1000
0100
0000
0010
0001
1000
0000
0001
1000
,
0001
0000
0000
0000
,
1000
0000
0001
0100
0001
0000
1000
0001
1000
0000
0001
0010
0100
0000
1000
0000
,
0001
0000
0100
0010
0100
0000
0001
0000
0010
0000
0100
0000
1000
0000
0010
0000
,
0100
0000
0001
0100
0001
0000
1000
0100
0010
0000
0001
0000
1000
0000
0020
0000
,
0030
0200
0300
0002
0003
0020
0030
0000
,
0100
0000
1000
0001
1000
0000
0001
0100
0010
0000
1000
0000
0010
0000
0200
0000
,
0300
0002
0003
0020
0030
0200
0300
1000
,
0001
0000
0100
0000
0001
0000
0010
0000
0100
0000
0000
0000
2000
0000
0000
3000
,
0001
0100
0001
0010
0200
0000
0000
0300
,
1000
0000
0001
0000
0400
0000
0000
0000
0000
0000
0000
0000
0000
0000
0000
0300
,
0001
1000
0100
0010
0100
1000
0010
0100
0004
0000
0003
0000
4000
0000
3000
0000
,
0001
0100
0001
1000
0100
0010
0001
1000
0010
0100
0010
1000
0001
0010
0100
0010
,
0001
1000
0010
0100
0004
0003
0000
0000
4000
3000
0000
0000
0001
0000
0000
0000
,
0040
0030
0400
0300
4000
3000
0004
0003
,
4000
3000
0001
0010
0100
0000
1000
0000
,
0004
0000
0000
0000
0000
0000
0000
0003
,
1000
0001
0100
0001
1000
0100
0010
0001
1000
0010
1000
0001
0200
0000
0000
0300
,
0004
0000
0000
0000
0000
0000
0000
0003
1000
0010
0100
0001
1000
0001
0010
0100
,
1000
0001
0010
0001
1000
0010
0100
0010
1000
0001
0100
0001
1000
0100
0010
0001
,
4000
3000
0004
0003
0200
0000
0300
0000
,
0004
0000
0000
0000
0000
0000
0000
0000
0000
0000
0000
0000
0000
0000
0000
0003
,
1000
0100
1000
0001
0010
0100
1000
0001
0100
0001
1000
0100
1000
0001
0100
0010
,
0100
0001
1000
0100
0010
0001
1000
0010
0100
0000
0000
0000
0001
0000
0000
0000
,
4000
0000
0000
0000
3000
0000
0000
0000
0001
1000
0100
0010
0001
0100
0010
1000
,
0001
1000
0100
0000
,
2200
3300
0000
0000
;
