#TITLE:Sound Of My Dream;
#SUBTITLE:;
#ARTIST:DJ Splash;
#TITLETRANSLIT:;
#SUBTITLETRANSLIT:;
#ARTISTTRANSLIT:;
#CREDIT:;
#BANNER:BN.PNG;
#BACKGROUND:BG.PNG;
#LYRICSPATH:;
#CDTITLE:ov1_title.png;
#MUSIC:DJ Splash - Sound Of My Dream.mp3;
#OFFSET:-14.460;
#SAMPLESTART:29.008;
#SAMPLELENGTH:29.999;
#SELECTABLE:YES;
#BPMS:0.000=145.000;
#STOPS:;
#BGCHANGES:;
// cache tags:
#FIRSTBEAT:0.000;
#LASTBEAT:600.000;
#SONGFILENAME:Songs/Owenviau1 Simfiles 4/Sound Of My Dream - DJ Splash [owenviau1]/DJ Splash - Sound Of My Dream.sm;
#HASMUSIC:1;
#HASBANNER:1;
#MUSICLENGTH:269.043;
// end cache tags

//---------------dance-single - ----------------
#NOTES:
     dance-single:
     :
     Challenge:
     10:
     0.700,0.781,0.643,0.019,0.084,1140.000,173.000,5.000,0.000,2.000:

1000
0001
1000
0010
1000
0100
0010
0001
,
0010
0100
1000
0010
0101
0001
0010
0100
,
0010
0001
1000
0010
0100
1000
0001
1000
,
0100
0010
0001
0010
0100
1000
0010
0100
,
1001
0001
0010
0100
0010
0001
1000
0010
,
0100
0010
1000
0100
0010
0001
1000
0010
,
0001
0100
0001
0010
0100
0010
0001
2000
,
0000
0000
0010
0010
0010
0010
0010
0010
,
3100
0010
0001
1000
1100
0000
0101
0000
,
1001
0001
0100
0010
1000
0010
0100
0001
,
0010
0100
0010
1000
0001
0010
0100
1000
,
0001
1000
0010
0100
0001
0010
0100
0010
,
0001
1000
0010
0100
0001
0010
0100
0010
,
0001
1000
1010
0010
0100
0001
0010
0100
,
1001
0010
0101
0001
0010
0100
1001
0001
,
0100
0010
1010
0010
0100
0001
0110
0001
,
0010
0000
0100
0000
1001
0000
0001
0000
0100
0000
0000
0000
1000
0010
0100
0001
,
1001
0010
0100
0001
1000
0010
0100
0001
,
0010
0100
1000
0001
1000
0010
0100
0001
,
0010
0100
1000
0001
1000
0010
1000
0001
,
0010
0100
0010
0001
1000
0100
0010
0100
,
1001
0010
0100
0001
0010
0100
0010
0001
,
0010
0001
1000
0010
0100
0010
1000
0100
,
0010
0001
1000
0010
0100
0001
0010
0100
,
0010
0001
1000
0010
0100
0010
1000
0100
,
0022
0000
0000
0000
,
1033
0100
0010
0001
0010
0100
1000
0001
,
0100
0010
1000
0010
0100
0001
0010
0100
,
1000
0001
1000
0001
0100
0010
1000
0010
,
0100
0001
0010
0100
0010
0001
1000
0100
,
0010
0001
1001
0001
0100
0010
1010
0010
,
0100
0001
0110
0100
1000
0001
1001
0001
,
0100
0010
1010
0010
0100
0001
0011
0001
,
1000
0100
0110
0100
1000
0001
0101
0001
,
1010
0010
0100
0001
1000
0001
0011
0001
,
1000
0100
0011
0001
1000
0010
0110
0010
,
1000
0100
0110
0100
1000
0001
1010
0001
,
1000
0100
0011
0001
1000
0100
0011
0001
,
1000
0010
1010
0010
0100
0001
0110
0100
,
1000
0001
1001
0001
0100
0010
1010
0010
,
0100
0001
0011
0001
1000
0100
0110
0100
,
1000
0000
0001
0000
1000
0000
0010
0000
0100
0000
0010
0000
1000
0001
0100
0010
,
1001
0100
0011
0001
0100
0010
1000
0001
,
0010
0100
1000
0100
0010
0001
0010
0100
,
1000
0010
0100
0001
1000
0100
0010
0001
,
1000
0010
0100
0001
0010
0100
0010
0001
,
0010
0100
1001
0001
0100
0010
1010
0010
,
0100
0001
0110
0100
1000
0001
0101
0001
,
0010
0100
0110
0100
1000
0001
1001
0001
,
0100
0010
1010
0010
0100
0001
0011
0001
,
1001
0001
0101
0010
1000
0100
0110
0100
,
1000
0001
1001
0001
0100
0010
1010
0010
,
0100
0001
1100
0100
1000
0001
0101
0001
,
1000
0100
0110
0100
1000
0010
0110
0010
,
1000
0100
0101
0001
0010
0100
1001
0001
,
0100
0010
0011
0001
1000
0100
0011
0001
,
1000
0010
0101
0001
0010
0100
1001
0001
,
0100
0010
1010
0010
0110
0100
0101
0001
,
1001
0010
0100
0001
0010
0100
1000
0001
,
0100
0010
1000
0100
0010
0001
1000
0001
,
1000
0010
0100
0001
0010
0100
0010
0001
,
1000
0010
0100
0001
0010
0100
1000
0100
,
0001
0100
1010
0010
0100
0001
0011
0001
,
1000
0100
0110
0100
1000
0001
0101
0001
,
1000
0010
0110
0010
1000
0100
0110
0100
,
1000
0000
0000
0000
,
1000
0001
0100
0010
1000
0100
0010
0001
,
0010
0100
0010
0001
1000
0010
1000
0001
,
0010
0100
0010
0001
1000
0010
0100
0001
,
0010
0001
1000
0010
0100
0010
1000
0100
,
0010
0001
0010
0100
1000
0001
0100
0010
,
1000
0100
0010
0001
0100
0010
0100
0001
,
0010
0100
1000
0100
0001
0100
0010
0001
,
0010
0100
1000
0001
1000
0010
0100
0001
,
1000
0100
0010
0000
0001
0000
0010
0000
0000
0000
0100
0000
1000
0000
0100
0000
,
0010
0001
1000
0000
0010
0000
0100
0000
0000
0000
0001
0000
0010
0000
0100
0000
,
1000
0100
0010
0000
0001
0000
0010
0000
0000
0000
0001
0000
1000
0000
0010
0000
,
1000
0100
0000
0100
0010
0000
0010
0001
0000
0001
0100
0000
0100
0010
0000
0001
1000
0000
0000
0000
0000
0000
0000
0000
1000
0100
0000
0100
0010
0000
0010
0001
,
1000
0100
0001
0100
1010
0001
0010
0100
,
1000
0001
0100
0010
1000
0100
0010
0001
,
1010
0001
0100
0001
0011
0001
1000
0010
,
1000
0100
0010
0001
1000
0010
0100
0001
0010
0001
1000
0010
0100
0001
0010
0100
,
1001
0010
0100
0001
0010
0100
0010
0001
,
1010
0010
0100
0001
0010
0100
0010
0001
,
1010
0001
0100
0001
0010
0100
1000
0001
,
0010
0001
1000
0010
0100
0001
0010
0100
,
1001
0001
0100
0010
1000
0100
0010
0001
,
0010
0100
1000
0010
0100
0001
0010
0100
,
1001
0001
0101
0001
1000
0010
0110
0010
,
1000
0001
1001
0001
0010
0001
0011
0001
,
0101
0100
0110
0010
1000
0001
0011
0001
,
0100
0010
1100
0100
0010
0001
1010
0010
,
0100
0001
1100
0001
0100
0010
0011
0001
,
0100
0010
1100
0100
0010
0001
0101
0001
,
0010
0100
1010
0010
0100
0001
0011
0001
,
1000
0100
0110
0100
1000
0010
0110
0010
,
1000
0001
0011
0001
0100
0010
1001
0001
,
0100
0010
1010
0010
0110
0100
0101
0001
,
1001
0010
1000
0100
,
0010
0001
0010
0100
,
1001
1010
0110
0011
,
0110
0000
1001
0000
0101
0000
1001
1001
,
1001
1010
0110
0011
,
0110
0000
0000
1100
0000
0000
0011
0000
0000
1001
0010
0100
,
1100
1010
0101
0011
,
0101
0000
1010
0000
1001
0000
0110
0110
,
0011
1100
0011
1001
,
1010
0000
0000
0000
0011
0000
0000
0000
0110
0000
0000
0000
1000
0100
0010
0001
,
1001
0110
1010
0011
,
0110
0000
1001
0000
0110
0000
1100
0110
,
0011
0101
0110
1010
,
1001
0000
0011
0000
0110
0000
1100
1100
,
1100
0110
0011
0110
,
1001
0110
1100
0011
,
0110
1001
0110
1001
,
1000
0100
0010
0001
1000
0010
0100
0001
0010
0001
1000
0010
0100
0001
0010
0100
,
1000
0000
0000
0000
,
0002
0000
0000
0000
,
1003
0001
0100
0010
1000
0010
0100
0001
,
0010
0100
0010
0001
1000
0100
0010
0001
,
1000
0010
1000
0010
0100
0001
0010
0100
,
0010
0001
1000
0100
0010
0001
1000
0010
,
0101
0001
0010
0100
0010
0001
0010
0100
,
1000
0010
0100
0010
1000
0100
0010
0001
,
0010
0100
1000
0010
0100
0001
0010
0001
,
0100
0000
0010
0000
1000
0000
0100
0000
1000
0100
0010
0001
0100
0010
1000
0100
,
1001
0100
1000
0001
0100
0010
1000
0010
,
0100
0001
0010
0100
0010
0001
0010
0100
,
1000
0010
0100
0010
1000
0100
0010
0001
,
1000
0010
0100
0001
1000
0001
0010
0100
,
1010
0010
0100
0001
0010
0100
0010
0001
,
1000
0010
0100
0001
0010
0100
0010
0001
,
1000
0010
0100
0010
1000
0100
0010
0001
,
0010
0000
0100
0000
1000
0000
0010
0000
0100
0000
0010
0000
1000
0100
0010
0001
,
0100
0010
1000
0100
0001
0010
0100
1000
,
0100
0010
0001
1000
0010
0100
0001
0010
,
0100
0010
0001
1000
0010
0100
0010
1000
,
0100
0010
0001
0010
0100
0010
0001
1000
,
0010
0100
1000
0100
0010
0001
1000
0010
,
1001
0100
0010
0001
1000
0010
0100
0001
,
1000
0001
0010
0100
1000
0100
0010
0001
,
1000
0010
0100
0001
0010
0100
0010
0001
,
1001
0001
0100
0010
1000
0010
0100
0001
,
0010
0100
0010
0001
1000
0100
0010
0001
,
1000
0010
1000
0010
0100
0001
0010
0100
,
0010
0001
1000
0010
0100
0010
1000
0100
,
1001
0010
0100
0010
1000
0100
0010
0001
,
0010
0100
1000
0010
0100
0010
1000
0100
,
0010
0001
1000
0001
0100
1000
0010
0100
,
1000
0010
0200
0000
0000
0000
0000
0000
,
1301
0000
0000
0000
;

//---------------dance-single - ----------------
#NOTES:
     dance-single:
     :
     Hard:
     9:
     0.415,0.502,0.182,0.011,0.000,730.000,49.000,3.000,0.000,1.000:

1000
0000
0001
0000
0100
0000
0010
1000
,
0001
0000
0010
0000
0100
0000
1000
0001
,
0100
0000
0010
0000
1000
0000
0001
0010
,
0100
0000
1000
0001
0100
0000
0010
0000
,
1000
0000
0001
0000
1000
0000
1000
0001
,
0010
0000
0100
0000
1000
0000
0100
0001
,
0010
0100
1000
0010
,
0100
0000
0001
0010
0001
0010
0001
0010
,
0100
1000
0001
0100
0010
0000
1000
0000
,
1001
0000
0010
0000
1000
0000
1000
0001
,
0010
0000
0100
0000
1000
0000
1000
0001
,
0100
0000
0010
0000
1000
0000
1000
0100
,
0010
0000
0010
0001
0100
0000
0100
0000
,
0010
0000
1001
0000
0100
0000
1000
0001
,
0010
0000
1001
0000
0010
0000
1000
0001
,
0010
0000
1001
0000
0100
0000
0010
0001
,
1000
0000
0100
0010
1000
0000
0001
0001
,
1000
0000
0010
0000
0100
0000
0001
1000
,
0001
0000
0100
0000
0010
0000
1000
0010
,
0100
0000
0001
0000
0010
0000
0100
1000
,
0001
0000
0001
0100
0010
0000
1000
0000
,
1001
0000
0100
0000
1000
0000
1000
0001
,
0010
0000
0100
0000
1000
0000
1000
0001
,
0100
0010
1000
0001
,
0010
0100
0100
1000
,
0001
0100
0010
1000
,
0001
0000
0010
0000
0100
0000
1000
0001
,
0100
0000
0010
0000
1000
0000
0001
1000
,
0010
0000
0100
0000
0001
0000
0010
0100
,
1000
0000
0001
0000
0100
0000
0010
1000
,
0001
0100
0010
1000
,
0001
0000
0010
0000
0100
0000
1000
0001
,
0100
0000
0010
0000
1000
0000
0001
1000
,
0100
0000
0010
0000
0001
0000
1000
0001
,
0010
0000
0100
0000
1000
0000
0001
0100
,
0010
0000
1000
0000
0001
0000
1000
0100
,
0010
0001
1000
0010
,
0100
0001
0010
0000
0100
1000
0001
0000
,
0100
0000
0010
0000
1000
0000
0001
1000
,
0010
0000
0100
0000
0001
0000
1000
0100
,
0010
0001
0100
0010
,
1000
0000
0100
0000
0010
0000
0001
1000
,
0010
0000
0100
0000
0001
0000
1000
0001
,
0010
0000
0100
0000
1000
0000
0010
0100
,
0001
0000
0010
0000
0100
0000
1000
0001
,
0100
0000
0010
0000
1000
0000
0001
0010
,
0100
0000
1000
0000
0100
0000
0010
0001
,
1000
0000
0010
0000
0100
0000
0001
1000
,
0100
0010
0001
1000
,
0001
0000
0010
0000
0100
0000
1000
0001
,
0100
0000
0010
0000
1000
0000
0001
1000
,
0010
0000
1000
0000
0100
0000
1000
0100
,
0001
0000
0100
0000
0010
0000
1000
0001
,
0010
0000
0100
0000
1000
0000
0001
1000
,
0001
0000
0010
0000
0100
0000
1000
0001
,
0100
0010
1000
0001
,
0010
0000
0001
1000
0010
0000
0100
0000
,
0001
0000
1000
0000
0001
0000
0010
0100
,
1000
0001
0100
0010
,
1000
0000
0010
0000
0100
0001
0010
0100
,
1000
0001
0100
0010
,
1000
0000
0010
0000
0100
0001
0010
0100
,
1000
0001
1000
0010
,
1000
0000
0100
0000
1000
0001
0100
0001
,
0010
0100
1000
0010
,
0200
0000
0000
0000
,
0301
0000
1000
0000
0010
1000
0001
0000
,
0010
0000
0100
0000
1000
0001
1000
0001
,
1000
0010
0100
0001
,
0010
0000
0100
0000
1000
0100
0001
0100
,
0010
0001
1000
0010
,
0001
0000
0010
0000
1000
0010
0001
0010
,
1000
0100
0001
0010
,
0100
1000
0001
0100
,
0010
1000
0010
0100
0000
0000
0001
0000
,
1000
0001
0010
0100
0000
0000
1000
0000
,
0010
1000
0001
0010
0000
0000
0100
0000
,
1000
0001
1000
0001
0100
0000
0100
0010
,
1000
0001
0010
0100
0000
0000
1000
0000
,
0001
1000
0010
0100
0000
0000
1001
0000
,
0010
0100
0001
1000
0000
0000
0010
0000
,
0100
0001
1000
0001
0010
0000
0010
0001
,
1000
0010
0100
0001
0010
0000
0001
0000
,
1000
0001
0100
0010
1000
0000
0001
0000
,
1000
0100
0010
0000
0001
0000
0100
0000
,
0010
1000
0001
1000
0001
0000
1000
0010
,
0100
0001
0010
0100
0000
0000
1000
0000
,
0001
0100
0010
1000
0001
0000
0010
0000
,
0100
1000
0001
0000
0100
0000
0010
0000
,
1000
0001
0100
0001
0010
0000
0010
0001
,
1000
0100
0010
0001
0000
0000
1000
0000
,
0010
0100
0001
0010
0000
0000
0100
0000
,
1000
0001
1000
0001
0000
0000
0100
0000
,
0010
1000
0010
0100
0001
0000
0001
1000
,
0100
0010
0001
1000
0010
0000
0100
0000
,
0001
1000
0010
0000
1000
0000
0100
0000
,
1000
0001
0100
0000
0010
0000
1000
0000
,
0001
1000
0001
0010
0100
0000
1000
0001
,
0100
0010
1000
0001
,
1000
0100
0010
0001
,
1001
1010
0110
0101
,
0011
0110
1100
1001
,
1001
1010
0110
0101
,
0011
0110
1100
1001
,
1001
1010
0110
0101
,
0101
0011
0110
1100
,
0110
0011
0101
0101
,
1001
1001
1010
1010
,
0110
0001
1000
0001
,
0100
0000
0010
0000
1000
0000
1000
0100
,
0010
0001
0100
0001
,
1000
0000
0010
0000
0100
0000
1000
0100
,
0010
0001
1000
0010
,
1001
0100
0011
0100
,
1001
0010
1010
0010
,
1001
0101
0011
0110
,
1001
0000
0000
0000
,
2000
0000
0000
0000
,
3010
0000
0100
0001
0000
0000
1000
0000
,
0100
0000
0010
0001
1000
0000
0010
0000
,
0100
0000
0001
1000
0100
0000
0010
0000
,
0001
0000
1000
0010
0100
0000
0001
0000
,
0010
0000
0100
1000
0001
0000
0100
0000
,
0010
0000
1000
0001
0010
0000
0100
0000
,
1000
0000
0001
0100
0010
0000
1000
0000
,
0001
0000
0100
0010
1000
0000
1000
0010
,
0100
0000
0001
0000
0010
0000
0100
1000
,
0001
0000
0100
0010
1000
0000
0001
0000
,
0010
0000
0100
1000
0001
0000
0100
0000
,
0010
0000
1000
0001
0010
0000
0100
1000
,
0001
0000
0100
0000
0010
0000
1000
0001
,
0010
0000
0100
0000
1000
0000
0001
1000
,
0010
0100
0001
0010
,
0100
1000
0100
0000
1000
0001
0100
0000
,
0010
0000
1000
0000
0001
0000
0100
0001
,
0010
0000
0100
0000
1000
0000
0001
1000
,
0001
0000
0100
0000
0010
0000
1000
0010
,
0100
0000
0001
0100
0010
0000
1000
0000
,
0001
0000
0010
0000
0100
0000
1000
0001
,
1000
0000
0010
0000
1000
0000
0001
0100
,
0010
0000
1000
0000
0001
0000
0100
0010
,
1000
0000
1000
0010
0100
0000
0001
0000
,
0010
0000
0100
0000
1000
0000
0001
1000
,
0001
0000
0100
0000
0010
0000
0100
0010
,
0100
0000
1000
0000
0001
0000
1000
0001
,
1000
0000
0001
0000
0010
0000
0001
0010
,
0001
0000
1000
0000
0010
0000
1000
0010
,
1000
0000
0100
0000
1000
0000
0100
1000
,
0100
0010
0001
1000
,
0010
0200
0000
0000
,
1301
0000
0000
0000
;
