#TITLE:Shredder Twins;
#SUBTITLE:Teenage Mutant Ninja Turtles II;
#ARTIST:Unknown artist;
#TITLETRANSLIT:;
#SUBTITLETRANSLIT:;
#ARTISTTRANSLIT:;
#CREDIT:;
#BANNER:Shredder Twins.jpg;
#BACKGROUND:Shredder Twins-bg.jpg;
#LYRICSPATH:;
#CDTITLE:!psychoTitle.png;
#MUSIC:Shredder Twins.mp3;
#OFFSET:-0.060;
#SAMPLESTART:27.326;
#SAMPLELENGTH:12.000;
#SELECTABLE:YES;
#BPMS:0.000=112.700,48.000=225.400,92.000=112.700,132.000=225.400,176.000=112.700;
#STOPS:;
#BGCHANGES:;
// cache tags:
#FIRSTBEAT:0.000;
#LASTBEAT:189.750;
#SONGFILENAME:Songs/VGMP 2/Shredder Twins (Psycho)/Shredder Twins.sm;
#HASMUSIC:1;
#HASBANNER:1;
#MUSICLENGTH:80.091;
// end cache tags

//---------------dance-single - ----------------
#NOTES:
     dance-single:
     :
     Hard:
     11:
     1.000,1.000,0.899,0.499,1.000,764.000,72.000,40.000,0.000,0.000:

1000
0100
0010
0001
1000
0100
0010
0001
1000
0010
0100
0001
1000
0010
0100
0001
1000
0100
0010
0001
1000
0100
0010
0001
1000
0010
0100
0001
1000
0010
0100
0001
,
1000
0100
0010
0001
1000
0100
0010
0001
1000
0010
0100
0001
1000
0010
0100
0001
1010
0000
1000
0000
1000
0000
1010
0000
1000
0000
1000
0000
1010
0000
1000
0000
,
0001
0100
0011
1000
0100
1000
0110
0001
1000
0100
0011
1000
0010
0100
1001
0100
,
0010
0001
1010
0100
0001
0100
1001
0010
0100
1000
0011
1000
0110
0110
0110
0110
,
2000
0000
0000
3002
0000
0000
0000
0003
2000
0000
0000
3020
0000
0000
0000
0030
,
2000
0000
0000
3200
0000
0000
0000
0300
0001
0000
0010
0000
1100
1000
1000
1000
,
0001
0010
0100
1000
0001
0010
0100
1000
0001
0100
0010
1000
0001
0100
0010
1000
0001
0010
0100
1000
0001
0010
0100
1000
0001
0100
0010
1000
0001
0100
0010
1000
,
0001
0001
0011
0001
0001
0101
0001
0011
0101
0101
0011
0011
0101
0101
0011
0011
,
2000
0000
0000
3002
0000
0000
0000
0003
2000
0000
0000
3020
0000
0000
0230
0000
,
0302
0000
0000
0000
0000
0000
0000
0000
0203
0000
0320
0000
2030
0000
3020
0000
0230
0000
0000
0000
0000
0000
0000
0000
0301
0010
0001
0010
0100
1000
0100
1000
,
0010
0100
0001
1000
0010
0100
0001
1000
0001
0010
0100
1000
0001
0010
0100
1000
0010
0100
0001
1000
0010
0100
0001
1000
0001
0010
0100
1000
0001
0010
0100
1000
,
0001
0001
1001
0001
0001
0101
0001
0011
0001
0001
1001
0001
0001
0101
0001
0011
,
1000
0100
0010
0001
0010
0100
0010
0001
1000
0100
0010
0001
0010
0100
0010
0001
,
0100
0010
1000
0100
1000
0001
0010
0001
0100
0010
1000
0100
1000
0001
0010
0001
,
1000
0010
0100
0001
1000
0100
0010
0100
1000
0010
0100
0001
1000
0100
0010
0100
,
1000
0100
0010
0001
1000
0100
0010
0001
0100
0010
1000
0001
0100
0010
1000
0001
,
1000
0100
0010
0001
0010
0100
0010
0001
1000
0100
0010
0001
0010
0100
0010
0001
,
0100
0010
1000
0100
1000
0001
0010
0001
0100
0010
1000
0100
1000
0001
0010
0001
,
1000
0010
0100
0001
1000
0100
0010
0100
1000
0010
0100
0001
1000
0100
0010
0100
,
1000
0100
0010
0001
1000
0100
0010
0001
0100
0010
1000
0001
0100
0010
1000
0001
,
0010
0100
1000
0100
0010
0100
1000
0100
0010
0001
0100
0001
0010
0001
0100
0001
,
1000
0100
0010
0001
1000
0100
0010
0001
1000
0010
0100
0001
1000
0010
0100
0001
,
0100
0010
1000
0001
0100
0010
1000
0001
1000
0100
0010
0100
1000
0100
0010
0100
,
0010
0001
1100
0010
0100
0001
1010
0100
0001
1000
0110
0001
1000
0010
0101
0010
,
1000
0100
0011
1000
0001
0100
1010
0001
0100
0010
0101
0010
1001
1001
1001
1001
,
0200
0000
0000
0320
0000
0000
0000
0030
2000
0000
0000
3002
0000
0000
0000
0000
,
0203
0000
0000
0320
0000
0000
0000
0030
1000
0000
0100
0000
0011
0001
0001
0001
,
1000
0100
0010
0001
1000
0100
0010
0001
1000
0010
0100
0001
1000
0010
0100
0001
1000
0100
0010
0001
1000
0100
0010
0001
1000
0010
0100
0001
1000
0010
0100
0001
,
1000
1000
1100
1000
1000
1001
1000
1100
1001
1001
1100
1100
1001
1001
1100
1100
,
0020
0000
0000
2030
0000
0000
0000
3000
0002
0000
0000
0203
0000
0000
0320
0000
,
2030
0000
0000
0000
0000
0000
0000
0000
3020
0000
0230
0000
0302
0000
0203
0000
0320
0000
0000
0000
0000
0000
0000
0000
1030
0100
1000
0100
0010
0001
0010
0001
,
0100
0010
1000
0001
0100
0010
1000
0001
1000
0100
0010
0001
1000
0100
0010
0001
0100
0010
1000
0001
0100
0010
1000
0001
1000
0100
0010
0001
1000
0100
0010
0001
,
1000
1000
1001
1000
1000
1010
1000
1100
1000
1000
1001
1000
1000
1010
1000
1100
,
0001
0010
0100
1000
0100
0010
0100
1000
0001
0010
0100
1000
0100
0010
0100
1000
,
0010
0100
0001
0010
0001
1000
0100
1000
0010
0100
0001
0010
0001
1000
0100
1000
,
0001
0100
0010
1000
0001
0010
0100
0010
0001
0100
0010
1000
0001
0010
0100
0010
,
0001
0010
0100
1000
0001
0010
0100
1000
0010
0100
0001
1000
0010
0100
0001
1000
,
0001
0010
0100
1000
0100
0010
0100
1000
0001
0010
0100
1000
0100
0010
0100
1000
,
0010
0100
0001
0010
0001
1000
0100
1000
0010
0100
0001
0010
0001
1000
0100
1000
,
0001
0100
0010
1000
0001
0010
0100
0010
0001
0100
0010
1000
0001
0010
0100
0010
,
0001
0010
0100
1000
0001
0010
0100
1000
0010
0100
0001
1000
0010
0100
0001
1000
,
0100
0010
0001
0010
0100
0010
0001
0010
0100
1000
0010
1000
0100
1000
0010
1000
,
0001
0010
0100
1000
0001
0010
0100
1000
0001
0100
0010
1000
0001
0100
0010
1000
,
0010
0100
0001
1000
0010
0100
0001
1000
0001
0010
0100
0010
0001
0010
0100
0010
,
0100
1000
0110
0001
0100
0010
1001
0100
1000
0010
1001
0010
0100
0001
1100
0010
,
1000
0100
0011
0100
1000
0010
1001
0010
0100
0001
0110
0001
1100
1100
1100
1100
,
0020
0000
0000
2030
0000
0000
0000
0000
3200
0000
0000
0320
0000
0000
0000
0000
,
0032
0000
0000
2003
0000
0000
0000
3000
0000
0000
0000
0000
0000
0000
0000
0000
;
