#TITLE:Crowdpleaser;
#SUBTITLE:;
#ARTIST:SGX;
#TITLETRANSLIT:;
#SUBTITLETRANSLIT:;
#ARTISTTRANSLIT:;
#CREDIT:;
#BANNER:crowdpleaser-bn.png;
#BACKGROUND:crowdpleaser-bg.png;
#LYRICSPATH:;
#CDTITLE:!arch0wlTitle.png;
#MUSIC:Crowdpleaser.mp3;
#OFFSET:-8.079;
#SAMPLESTART:52.100;
#SAMPLELENGTH:16.000;
#SELECTABLE:YES;
#DISPLAYBPM:120.000;
#BPMS:0.000=120.000,191.125=110.000,191.250=100.000,191.375=90.000,191.500=80.000,191.625=70.000,191.750=60.000,191.938=120.000,192.063=110.000,192.188=100.000,192.313=90.000,192.438=80.001,192.625=120.001,192.750=110.001,192.875=100.001,193.000=90.001,193.125=80.001,193.250=70.001,193.375=120.001,193.500=110.001,193.625=100.001,193.750=90.001,193.875=80.001,194.000=120.001,194.125=110.001,194.250=100.001,194.375=90.001,194.500=120.001,194.625=110.001,194.750=120.001,194.875=110.001,195.000=120.001,195.125=150.001,195.250=180.001,195.375=210.001,195.500=240.002,195.625=300.001,195.750=360.001,195.875=420.000,196.000=479.999,196.125=539.999,196.250=599.998,196.375=659.998,196.500=779.997,197.500=899.995,198.500=1020.014,199.500=1140.002,202.000=1380.015,277.000=2760.015,336.000=120.000;
#STOPS:;
#BGCHANGES:;
// cache tags:
#FIRSTBEAT:0.000;
#LASTBEAT:336.000;
#SONGFILENAME:Songs/newbie/Crowdpleaser/Crowdpleaser.sm;
#HASMUSIC:1;
#HASBANNER:1;
#MUSICLENGTH:114.006;
// end cache tags

//---------------dance-single - ----------------
#NOTES:
     dance-single:
     :
     Challenge:
     12:
     0.872,1.000,0.474,0.386,1.000,598.000,54.000,44.000,0.000,1.000:  // measure 1
0001
0000
0001
0000
0010
0100
1000
0100
1000
0001
0010
0002
0003
0010
0100
0010
,  // measure 2
1000
0000
1000
0000
0010
0100
1000
0100
1000
0001
0010
0002
0003
0010
0100
0010
,  // measure 3
0001
0000
0001
0000
0100
0001
0010
0001
0010
0100
1000
0200
0300
0010
0001
0010
,  // measure 4
0100
0000
0100
0000
1000
0001
0100
0001
0100
0010
1000
0020
0030
0100
0001
0100
,  // measure 5
1020
0000
0031
0000
0000
0000
0101
0000
0110
0000
0000
0000
0100
0010
0000
0000
,  // measure 6
1020
0000
0031
0000
1000
0000
0102
0000
0100
0000
0013
0000
0100
1000
0001
0000
,  // measure 7
2100
0000
3001
0000
0000
0000
0011
0000
1001
0000
0000
0000
0001
1000
0000
0000
,  // measure 8
2100
0000
3001
0000
0100
0000
0021
0000
0001
0000
1030
0000
0001
0010
1000
0000
,  // measure 9
1020
0000
0031
0000
1000
0010
0001
0010
0100
0001
0010
0002
0103
0010
1000
0100
,  // measure 10
1020
0000
0031
0000
1000
0100
0001
0100
1000
0001
0010
0002
0103
1000
0001
0100
,  // measure 11
1020
0000
0031
0000
1000
0010
0001
0010
0100
0001
0010
0002
0103
0010
1000
0100
,  // measure 12
1020
0000
0031
0000
1000
0100
0001
0100
1000
0001
0010
0002
0103
1000
0001
0010
,  // measure 13
1000
0001
1000
0010
0000
1000
0100
0010
0100
1000
0000
0001
0010
0100
0010
0001
,  // measure 14
0000
0100
0001
1000
0001
0100
0000
0001
0100
1000
0100
0001
0000
1000
0010
0001
,  // measure 15
0010
1000
0000
0100
0010
1000
0010
0100
0000
0010
0100
0001
0100
0010
0000
0001
,  // measure 16
1000
0100
1000
0001
0000
0010
0100
1000
0100
0010
0000
0100
0010
0001
0010
0100
,  // measure 17
0000
1000
0001
0010
0001
1000
0000
0001
0010
1000
0010
0001
0000
1000
0100
0001
,  // measure 18
0100
1000
0000
0100
0001
1000
0001
0100
0000
0010
1000
0001
1000
0010
0000
0100
,  // measure 19
0000
0010
0010
0001
0100
0001
0000
1000
1000
0100
0001
0100
0000
0100
0100
1000
,  // measure 20
0010
1000
0000
0010
0010
0100
0001
0100
0000
0001
0001
1000
0010
1000
0000
0001
,  // measure 21
0000
0010
0010
0100
0100
0100
0000
1000
1000
0100
0100
0100
0000
0010
0010
0001
,  // measure 22
0001
0010
0100
1000
0010
0100
0001
0100
0010
0100
0001
0010
0100
1000
0010
0100
,  // measure 23
0001
0010
0001
0010
0100
0000
0100
0010
0000
0010
0001
0000
0001
0010
0100
0000
,  // measure 24
0001
0010
0100
1000
0010
0100
0102
0000
0003
0000
0101
0000
0110
0000
0000
0000
,  // measure 25
0010
1000
0010
1000
0100
0000
0100
1000
0000
1000
0100
0000
0010
0100
1000
0000
,  // measure 26
1000
0100
0010
0001
0100
0010
2010
0000
3000
0000
1010
0000
0110
0000
0000
0000
,  // measure 27
0100
0001
0100
0001
1000
0000
1000
0001
0000
0001
0100
0000
0100
0001
1000
0000
,  // measure 28
0100
1000
0010
0100
0001
0010
0210
0000
0300
0000
0110
0000
0011
0000
0000
0000
,  // measure 29
0001
0010
0001
0010
1000
0000
1000
0010
0000
0010
1000
0000
1000
0010
0001
0000
,  // measure 30
0010
0100
1000
0010
0100
0001
0022
0000
0033
0000
0011
0000
0220
0000
0330
0000
,  // measure 31
0100
0010
0100
0010
0001
1000
0010
0100
0001
0100
0010
1000
0100
0010
0001
1000
,  // measure 32
0010
0100
0010
0100
0010
0100
0001
0010
0100
1000
0010
0100
0001
0100
0010
0100
,  // measure 33
0001
1000
0001
1000
0010
0100
0001
1000
0010
1000
0001
0100
0010
1000
0010
0100
,  // measure 34
0001
1000
0001
1000
0001
1000
0010
0100
0001
1000
0100
0010
0001
0010
0100
0010
,  // measure 35
0001
1000
0001
1000
0100
0010
0001
0100
0010
0100
0001
0010
0100
1000
0100
0010
,  // measure 36
0001
0100
0001
0100
0001
0100
0010
1000
0001
0100
0010
1000
0100
1000
0010
1000
,  // measure 37
0100
0010
0100
0010
0001
1000
0100
0010
0001
0010
0100
1000
0001
0010
0001
1000
,  // measure 38
0100
0010
0100
0010
0100
0010
0001
1000
0010
0100
0001
1000
0100
1000
0001
1000
,  // measure 39
0100
0010
0100
0010
0001
0000
0010
0001
0000
0001
0010
0000
0001
0010
0100
0010
,  // measure 40
0001
0100
0010
1000
0100
0010
0011
0022
0000
0033
0022
0033
0022
0000
0033
0000
,  // measure 41
0120
0000
0100
0030
0010
0000
0100
0000
1000
0000
0001
0000
0210
0000
0010
0300
1000
0000
0010
0000
0100
0000
0001
0000
0010
0000
0100
0000
1000
0000
0001
0000
,  // measure 42
0110
0000
0110
0000
0110
0000
0110
0000
0110
0000
0010
0000
2100
0000
0100
3000
0010
0000
0001
0000
0210
0000
0010
0300
1000
0000
0010
0000
0100
0000
0010
0000
,  // measure 43
2001
0000
0001
3000
1000
0000
0001
0000
0100
0000
0010
0000
2001
0000
0001
3000
0100
0000
0001
0000
1000
0000
0010
0000
0100
0000
0001
0000
0100
0000
0010
0000
,  // measure 44
1001
0000
1001
0000
1001
0000
1001
0000
1001
0000
0001
0000
0210
0000
0010
0300
1000
0000
0001
0000
0120
0000
0100
0030
1000
0000
0100
0000
0010
0000
0100
0000
,  // measure 45
1000
0001
0100
0001
0010
0100
0001
0100
1000
0001
0100
0001
0010
0100
1000
0100
,  // measure 46
0010
0010
0011
0011
0011
0011
0021
0000
0000
0000
0200
0000
2000
0000
3330
0000
,  // measure 47
2002
0000
0000
0000
,  // measure 48
0000
0000
0000
0000
,  // measure 49
0000
0000
0000
0000
,  // measure 50
0000
0000
0000
0000
,  // measure 51
0000
0000
0000
0000
,  // measure 52
0000
0000
0000
0000
,  // measure 53
0000
0000
0000
0000
,  // measure 54
0000
0000
0000
0000
,  // measure 55
0000
0000
0000
0000
,  // measure 56
0000
0000
0000
0000
,  // measure 57
0000
0000
0000
0000
,  // measure 58
0000
0000
0000
0000
,  // measure 59
0000
0000
0000
0000
,  // measure 60
0000
0000
0000
0000
,  // measure 61
0000
0000
0000
0000
,  // measure 62
0000
0000
0000
0000
,  // measure 63
0000
0000
0000
0000
,  // measure 64
0000
0000
0000
0000
,  // measure 65
0000
0000
0000
0000
,  // measure 66
0000
0000
0000
0000
,  // measure 67
0000
0000
0000
0000
,  // measure 68
0000
0000
0000
0000
,  // measure 69
0000
0000
0000
0000
,  // measure 70
0000
0000
0000
0000
,  // measure 71
0000
0000
0000
0000
,  // measure 72
0000
0000
0000
0000
,  // measure 73
0000
0000
0000
0000
,  // measure 74
0000
0000
0000
0000
,  // measure 75
0000
0000
0000
0000
,  // measure 76
0000
0000
0000
0000
,  // measure 77
0000
0000
0000
0000
,  // measure 78
0000
0000
0000
0000
,  // measure 79
0000
0000
0000
0000
,  // measure 80
0000
0000
0000
0000
,  // measure 81
0000
0000
0000
0000
,  // measure 82
0000
0000
0000
0000
,  // measure 83
0000
0000
0000
0000
,  // measure 84
0000
0000
0000
0000
,  // measure 85
3003
0000
0000
0000
;

//---------------dance-single - ----------------
#NOTES:
     dance-single:
     :
     Hard:
     9:
     0.654,1.000,0.325,0.368,0.728,443.000,37.000,42.000,0.000,0.000:  // measure 1
0001
0000
0001
0000
0010
0000
0100
0000
0100
0000
0000
0000
0100
0000
0000
0100
,  // measure 2
1000
0000
1000
0000
0010
0000
0100
0000
0100
0000
0000
0000
0100
0000
0000
0100
,  // measure 3
0001
0000
0001
0000
1000
0000
0100
0000
0100
0000
0000
0000
0100
0000
0000
0100
,  // measure 4
0010
0000
0010
0000
0001
0000
0100
0000
0100
0000
0000
0001
0100
0000
0001
0100
,  // measure 5
0010
0000
1000
0000
0100
0000
1000
0000
0001
0000
0000
0000
0100
0000
0000
0100
,  // measure 6
0001
0000
0100
0000
0010
0000
1000
0000
0100
0000
0010
0000
0100
0000
0000
0100
,  // measure 7
0010
0000
0001
0000
0100
0000
0001
0000
1000
0000
0000
0000
0100
0000
0000
0100
,  // measure 8
1000
0000
0010
0000
0100
0000
0001
0000
0010
0000
0100
0000
0010
0000
0000
0100
,  // measure 9
0010
0000
0001
0000
1000
0000
0010
0000
0001
0000
0000
0000
0010
0000
0000
0010
,  // measure 10
1000
0000
0100
0000
0010
0000
0100
0000
0001
0000
0100
0000
1000
0000
0000
0010
,  // measure 11
0100
0000
1000
0000
0001
0000
0100
0000
1000
0000
0000
0000
0100
0000
0000
0100
,  // measure 12
0001
0100
0010
0100
1000
0100
0001
0000
,  // measure 13
0100
0000
0100
1000
0000
0100
1000
0000
1000
0100
0000
0100
0010
0000
0010
0100
,  // measure 14
0000
1000
0100
0000
0100
1000
0000
0001
0010
0000
0010
0001
0000
0010
0001
0000
,  // measure 15
0001
0010
0000
0001
0010
0000
0010
0001
0000
0010
0001
0000
0001
0010
0000
0001
,  // measure 16
0100
0000
0100
0001
0000
0010
0100
0000
0100
0010
0000
0100
0010
0000
0010
0100
,  // measure 17
0000
0010
0001
0000
0001
0010
0000
0001
0010
0000
0010
0001
0000
1000
0010
0000
,  // measure 18
0010
1000
0000
0010
1000
0000
1000
0010
0000
1000
0001
0000
0001
1000
0000
0100
,  // measure 19
0000
0100
0010
0100
0000
0010
0000
0001
0100
0001
0000
0100
0000
0010
1000
0010
,  // measure 20
0000
1000
0000
0010
0100
0010
0000
0100
0000
0001
1000
0001
0000
1000
0000
0001
,  // measure 21
0000
0010
0100
0010
0000
0100
0000
1000
0100
1000
0000
0100
0000
0010
0100
0010
,  // measure 22
0001
1000
0000
0001
1000
0000
0110
0000
0000
0000
0110
0000
0110
0000
0000
0000
,  // measure 23
0010
1000
0000
0001
0010
0000
0001
0010
0000
1000
0010
0000
0001
0010
1000
0000
,  // measure 24
0010
0100
0000
0010
0100
0000
2200
0000
3300
0000
1100
0000
1100
0000
0000
0000
,  // measure 25
1000
0100
0000
0001
0100
0000
0001
0100
0000
1000
0100
0000
0001
0100
1000
0000
,  // measure 26
0100
0010
0000
0100
0010
0000
0202
0000
0303
0000
0101
0000
0101
0000
0000
0000
,  // measure 27
1000
0100
0000
0010
0100
0000
0010
0100
0000
1000
0100
0000
0100
0010
1000
0000
,  // measure 28
0010
0001
0000
0010
0001
0000
0220
0000
0330
0000
0110
0000
0110
0000
0000
0000
,  // measure 29
0010
1000
0000
0010
0100
0000
0010
0100
0000
0010
1000
0000
0010
0100
1000
0000
,  // measure 30
0100
0001
0000
0100
0001
0000
2020
0000
3030
0000
1010
0000
2020
0000
3030
0000
,  // measure 31
0010
0100
0001
0100
0010
0000
1000
0001
0100
0001
1000
0000
0100
1000
0001
0000
,  // measure 32
0100
0001
0100
0001
0100
0000
2020
0000
3030
0000
1010
0000
2020
0000
3030
0000
,  // measure 33
0001
0010
0100
0010
0001
0000
0010
0100
1000
0100
0010
0000
0001
0010
0100
0000
,  // measure 34
1000
0100
1000
0100
1000
0000
0022
0000
0033
0000
0011
0000
0022
0000
0033
0000
,  // measure 35
1000
0001
0010
0001
1000
0000
0100
0010
0001
0010
0100
0000
0010
0001
1000
0000
,  // measure 36
0001
0010
0001
0010
0001
0000
2200
0000
3300
0000
1100
0000
2200
0000
3300
0000
,  // measure 37
1000
0100
0010
0100
1000
0000
0100
0010
1000
0010
0100
0000
0010
0100
1000
0000
,  // measure 38
0010
0100
0010
0100
0010
0000
0202
0000
0303
0000
0101
0000
0202
0000
0303
0000
,  // measure 39
0010
0100
0000
0100
1000
0000
0010
0100
0000
0100
1000
0000
1000
0100
0010
0000
,  // measure 40
0100
0001
0100
0001
0100
0001
0010
0220
0000
0330
0220
0330
2200
0000
3300
0000
,  // measure 41
1000
0100
1000
0010
0100
0000
0001
0010
0000
0001
0010
0100
0010
0001
1000
0000
,  // measure 42
0100
1000
0100
1000
0100
1000
2020
0000
3030
0000
1010
0000
2020
0000
3030
0000
,  // measure 43
0001
0010
0100
0010
0001
0000
0010
1000
0000
0010
1000
0001
1000
0100
0010
0000
,  // measure 44
0001
0010
0001
0010
0001
0010
0022
0000
0033
0000
0011
0000
0022
0000
0033
0000
,  // measure 45
0100
0010
0100
0010
1000
0000
0010
0100
0010
0100
0001
0000
0010
0100
1000
0000
,  // measure 46
0010
0100
0010
0100
0010
0100
0001
1000
0010
0100
0001
0010
0100
1000
0010
0100
,  // measure 47
2002
0000
0000
0000
,  // measure 48
0000
0000
0000
0000
,  // measure 49
0000
0000
0000
0000
,  // measure 50
0000
0000
0000
0000
,  // measure 51
0000
0000
0000
0000
,  // measure 52
0000
0000
0000
0000
,  // measure 53
0000
0000
0000
0000
,  // measure 54
0000
0000
0000
0000
,  // measure 55
0000
0000
0000
0000
,  // measure 56
0000
0000
0000
0000
,  // measure 57
0000
0000
0000
0000
,  // measure 58
0000
0000
0000
0000
,  // measure 59
0000
0000
0000
0000
,  // measure 60
0000
0000
0000
0000
,  // measure 61
0000
0000
0000
0000
,  // measure 62
0000
0000
0000
0000
,  // measure 63
0000
0000
0000
0000
,  // measure 64
0000
0000
0000
0000
,  // measure 65
0000
0000
0000
0000
,  // measure 66
0000
0000
0000
0000
,  // measure 67
0000
0000
0000
0000
,  // measure 68
0000
0000
0000
0000
,  // measure 69
0000
0000
0000
0000
,  // measure 70
0000
0000
0000
0000
,  // measure 71
0000
0000
0000
0000
,  // measure 72
0000
0000
0000
0000
,  // measure 73
0000
0000
0000
0000
,  // measure 74
0000
0000
0000
0000
,  // measure 75
0000
0000
0000
0000
,  // measure 76
0000
0000
0000
0000
,  // measure 77
0000
0000
0000
0000
,  // measure 78
0000
0000
0000
0000
,  // measure 79
0000
0000
0000
0000
,  // measure 80
0000
0000
0000
0000
,  // measure 81
0000
0000
0000
0000
,  // measure 82
0000
0000
0000
0000
,  // measure 83
0000
0000
0000
0000
,  // measure 84
0000
0000
0000
0000
,  // measure 85
3003
0000
0000
0000
;

//---------------dance-single - ----------------
#NOTES:
     dance-single:
     :
     Medium:
     7:
     0.376,0.663,0.044,0.202,0.110,272.000,5.000,23.000,0.000,0.000:  // measure 1
0001
0001
0010
0000
0120
0000
0130
0000
,  // measure 2
1000
1000
0010
0000
0110
0000
0100
0000
,  // measure 3
0001
0001
1000
0000
0120
0000
0130
0000
,  // measure 4
0010
0010
1000
0000
0110
0000
0100
0000
,  // measure 5
0010
1000
0000
1000
0100
0000
0100
0000
,  // measure 6
0010
0100
0000
0010
0100
0010
0001
0000
,  // measure 7
0010
0001
0000
0001
0100
0000
0100
0000
,  // measure 8
0010
0100
0000
0001
0010
0001
1000
0000
,  // measure 9
0100
0010
0000
0010
0001
0000
0001
0000
,  // measure 10
0010
0001
0000
0100
0010
0100
0001
0000
,  // measure 11
0100
0010
0000
0010
1000
0000
1000
0000
,  // measure 12
0010
1000
0000
0100
0010
0001
0010
0000
,  // measure 13
0001
0000
0000
0001
0000
0000
1000
0000
0000
1000
0000
0000
0010
0000
0000
0010
,  // measure 14
0000
0000
1000
0000
0000
1000
0000
0000
0001
0000
0000
0001
0000
0000
0100
0000
,  // measure 15
0000
0100
0000
0000
0001
0000
0000
0001
0000
0000
0010
0000
0000
0010
0000
0000
,  // measure 16
0100
0000
0000
0100
0000
0000
0010
0000
0000
0010
0000
0000
0001
0000
0000
0001
,  // measure 17
0000
0000
0100
0000
0000
0100
0000
0000
0001
0000
0000
0001
0000
0000
1000
0000
,  // measure 18
0000
1000
0000
0000
0010
0000
0000
0010
0000
0000
1000
0000
0000
1000
0000
1000
,  // measure 19
0000
0000
0010
0000
0000
0010
0000
0000
0100
0000
0000
0100
0000
0000
0010
0000
,  // measure 20
0000
0010
0000
0000
1000
0000
0000
1000
0000
0000
0100
0000
0000
0100
0000
0100
,  // measure 21
0000
0000
0010
0000
0000
0010
0000
0000
0001
0000
0000
0001
0000
0000
0100
0000
,  // measure 22
0010
1000
0010
0100
0001
0100
0001
0100
,  // measure 23
0001
1000
0000
1000
0100
0000
0100
0000
,  // measure 24
1000
0001
0100
0001
0000
0010
0001
0000
,  // measure 25
0001
0100
0000
0100
0001
0000
0010
0000
,  // measure 26
0001
0100
0010
0100
0000
0100
0001
0000
,  // measure 27
0100
0010
0000
0010
1000
0000
0100
0000
,  // measure 28
1000
0100
0010
0100
0000
0010
0001
0000
,  // measure 29
0010
0100
0000
0100
1000
0000
1000
0000
,  // measure 30
0100
0010
0001
0010
0000
0100
1000
0000
,  // measure 31
0010
0100
0001
0100
0010
0000
1000
0000
,  // measure 32
0010
0000
0100
0000
0001
0000
0200
0000
0000
0300
0200
0000
0320
0000
0000
0030
,  // measure 33
1000
0010
0100
0010
1000
0000
0001
0000
,  // measure 34
0100
0000
0010
0000
1000
0000
0020
0000
0000
0030
0020
0000
2030
0000
0000
3000
,  // measure 35
0100
0010
0001
0010
0100
0000
1000
0000
,  // measure 36
0010
0000
0100
0000
0001
0000
0200
0000
0000
0300
0020
0000
2030
0000
0000
3000
,  // measure 37
0100
1000
0010
1000
0100
0000
0010
0000
,  // measure 38
0010
0000
0001
0000
0100
0000
0002
0000
0000
0003
0200
0000
0320
0000
0000
0030
,  // measure 39
2000
0000
3200
0000
0300
0000
0200
0000
0320
0000
0000
0030
0000
0000
0000
0000
,  // measure 40
0001
0000
0010
0000
0100
0000
0020
0000
0000
0030
0002
0000
0203
0000
0000
0300
,  // measure 41
0010
0100
0001
0010
0100
1000
0001
1000
,  // measure 42
0010
0100
0010
0100
0001
0100
0010
1000
,  // measure 43
0100
0010
0001
0100
0010
1000
0001
1000
,  // measure 44
0010
0100
0010
0100
0001
0100
0010
1000
,  // measure 45
0100
0010
0001
1000
0010
1000
0001
0100
,  // measure 46
0010
1000
0010
0100
0001
1000
0100
0010
,  // measure 47
2002
0000
0000
0000
,  // measure 48
0000
0000
0000
0000
,  // measure 49
0000
0000
0000
0000
,  // measure 50
0000
0000
0000
0000
,  // measure 51
0000
0000
0000
0000
,  // measure 52
0000
0000
0000
0000
,  // measure 53
0000
0000
0000
0000
,  // measure 54
0000
0000
0000
0000
,  // measure 55
0000
0000
0000
0000
,  // measure 56
0000
0000
0000
0000
,  // measure 57
0000
0000
0000
0000
,  // measure 58
0000
0000
0000
0000
,  // measure 59
0000
0000
0000
0000
,  // measure 60
0000
0000
0000
0000
,  // measure 61
0000
0000
0000
0000
,  // measure 62
0000
0000
0000
0000
,  // measure 63
0000
0000
0000
0000
,  // measure 64
0000
0000
0000
0000
,  // measure 65
0000
0000
0000
0000
,  // measure 66
0000
0000
0000
0000
,  // measure 67
0000
0000
0000
0000
,  // measure 68
0000
0000
0000
0000
,  // measure 69
0000
0000
0000
0000
,  // measure 70
0000
0000
0000
0000
,  // measure 71
0000
0000
0000
0000
,  // measure 72
0000
0000
0000
0000
,  // measure 73
0000
0000
0000
0000
,  // measure 74
0000
0000
0000
0000
,  // measure 75
0000
0000
0000
0000
,  // measure 76
0000
0000
0000
0000
,  // measure 77
0000
0000
0000
0000
,  // measure 78
0000
0000
0000
0000
,  // measure 79
0000
0000
0000
0000
,  // measure 80
0000
0000
0000
0000
,  // measure 81
0000
0000
0000
0000
,  // measure 82
0000
0000
0000
0000
,  // measure 83
0000
0000
0000
0000
,  // measure 84
0000
0000
0000
0000
,  // measure 85
3003
0000
0000
0000
;

//---------------dance-single - ----------------
#NOTES:
     dance-single:
     :
     Easy:
     5:
     0.209,0.368,0.009,0.193,0.009,144.000,1.000,22.000,0.000,0.000:  // measure 1
0001
0001
0020
0030
,  // measure 2
0100
0100
2000
3000
,  // measure 3
0010
0010
0200
0300
,  // measure 4
0001
0001
2000
3000
,  // measure 5
0001
0000
0000
0001
0000
0000
0010
0000
,  // measure 6
0100
0000
0000
0100
0000
0000
0100
0000
,  // measure 7
1000
0000
0000
1000
0000
0000
0010
0000
,  // measure 8
0100
0000
0000
0100
0000
0000
0100
0000
,  // measure 9
0001
0000
0000
0001
0000
0000
0010
0000
,  // measure 10
0100
0000
0000
0100
0000
0000
0100
0000
,  // measure 11
1000
0000
0000
1000
0000
0000
0010
0000
,  // measure 12
0100
0000
0000
0100
0000
0000
0100
0000
,  // measure 13
0001
0000
0000
1000
0000
0000
0010
0000
,  // measure 14
0000
1000
0000
0000
0001
0000
0000
0100
,  // measure 15
0000
0000
0001
0000
0000
0010
0000
0000
,  // measure 16
0100
0000
0000
0010
0000
0000
0001
0000
,  // measure 17
0000
0100
0000
0000
0001
0000
0000
1000
,  // measure 18
0000
0000
0000
0000
0010
0000
0000
0000
0000
0000
1000
0000
0000
0000
0000
1000
,  // measure 19
0000
0010
0000
0000
0100
0000
0000
0010
,  // measure 20
0000
0000
0000
0000
1000
0000
0000
0000
0000
0000
0100
0000
0000
0000
0000
0100
,  // measure 21
0000
0010
0000
0000
0001
0000
0000
0010
,  // measure 22
0001
0010
0100
1000
,  // measure 23
0001
0000
0000
1000
0000
0000
0001
0000
,  // measure 24
0010
0000
0000
0100
0000
0000
0010
0000
,  // measure 25
0001
0000
0000
0100
0000
0000
0001
0000
,  // measure 26
1000
0000
0000
0100
0000
0000
1000
0000
,  // measure 27
0010
0000
0000
0100
0000
0000
0010
0000
,  // measure 28
0100
0000
0000
0001
0000
0000
0100
0000
,  // measure 29
0010
0000
0000
1000
0000
0000
0010
0000
,  // measure 30
1000
0000
0000
0100
0000
0000
1000
0000
,  // measure 31
0010
0000
0000
0100
0000
0000
0010
0000
,  // measure 32
0200
0000
0000
0300
0000
0000
0002
0000
0003
0000
0000
0000
0200
0000
0000
0300
,  // measure 33
0001
0000
0000
0010
0000
0000
0001
0000
,  // measure 34
0200
0000
0000
0300
0000
0000
0020
0000
0030
0000
0000
0000
0200
0000
0000
0300
,  // measure 35
0001
0000
0000
1000
0000
0000
0001
0000
,  // measure 36
2000
0000
0000
3000
0000
0000
0200
0000
0300
0000
0000
0000
2000
0000
0000
3000
,  // measure 37
0001
0000
0000
0100
0000
0000
0001
0000
,  // measure 38
0020
0000
0000
0030
0000
0000
0200
0000
0300
0000
0000
0000
0020
0000
0000
0030
,  // measure 39
0002
0000
0000
0023
0000
0000
0000
0000
,  // measure 40
0230
0000
0000
2300
0000
0000
3100
0000
,  // measure 41
0100
0010
0100
0010
,  // measure 42
0001
0100
1000
0010
,  // measure 43
0100
1000
0100
1000
,  // measure 44
0001
0010
1000
0100
,  // measure 45
0010
0001
0010
0001
,  // measure 46
1000
0010
0001
0100
,  // measure 47
2002
0000
0000
0000
,  // measure 48
0000
0000
0000
0000
,  // measure 49
0000
0000
0000
0000
,  // measure 50
0000
0000
0000
0000
,  // measure 51
0000
0000
0000
0000
,  // measure 52
0000
0000
0000
0000
,  // measure 53
0000
0000
0000
0000
,  // measure 54
0000
0000
0000
0000
,  // measure 55
0000
0000
0000
0000
,  // measure 56
0000
0000
0000
0000
,  // measure 57
0000
0000
0000
0000
,  // measure 58
0000
0000
0000
0000
,  // measure 59
0000
0000
0000
0000
,  // measure 60
0000
0000
0000
0000
,  // measure 61
0000
0000
0000
0000
,  // measure 62
0000
0000
0000
0000
,  // measure 63
0000
0000
0000
0000
,  // measure 64
0000
0000
0000
0000
,  // measure 65
0000
0000
0000
0000
,  // measure 66
0000
0000
0000
0000
,  // measure 67
0000
0000
0000
0000
,  // measure 68
0000
0000
0000
0000
,  // measure 69
0000
0000
0000
0000
,  // measure 70
0000
0000
0000
0000
,  // measure 71
0000
0000
0000
0000
,  // measure 72
0000
0000
0000
0000
,  // measure 73
0000
0000
0000
0000
,  // measure 74
0000
0000
0000
0000
,  // measure 75
0000
0000
0000
0000
,  // measure 76
0000
0000
0000
0000
,  // measure 77
0000
0000
0000
0000
,  // measure 78
0000
0000
0000
0000
,  // measure 79
0000
0000
0000
0000
,  // measure 80
0000
0000
0000
0000
,  // measure 81
0000
0000
0000
0000
,  // measure 82
0000
0000
0000
0000
,  // measure 83
0000
0000
0000
0000
,  // measure 84
0000
0000
0000
0000
,  // measure 85
3003
0000
0000
0000
;
