#TITLE:Fuwatanity;
#SUBTITLE:;
#ARTIST:DJ Sharpnel;
#TITLETRANSLIT:;
#SUBTITLETRANSLIT:;
#ARTISTTRANSLIT:;
#CREDIT:;
#BANNER:fuwatanitybn.png;
#BACKGROUND:fuwatanitybg.png;
#LYRICSPATH:;
#CDTITLE:;
#MUSIC:fuwatanity.ogg;
#OFFSET:-1.751;
#SAMPLESTART:108.088;
#SAMPLELENGTH:20.132;
#SELECTABLE:YES;
#BPMS:0.000=190.730;
#STOPS:;
#BGCHANGES:;
// cache tags:
#FIRSTBEAT:12.000;
#LASTBEAT:654.500;
#SONGFILENAME:Songs/SHARPNELSTREAMZ v2/Fuwatanity/fuwatanity.sm;
#HASMUSIC:1;
#HASBANNER:1;
#MUSICLENGTH:211.757;
// end cache tags

//---------------dance-single - 15 (Archi)----------------
#NOTES:
     dance-single:
     15 (Archi):
     Challenge:
     15:
     1.000,1.000,0.137,0.656,1.000,1917.000,29.000,139.000,93.000,2.000:
0000
0000
0000
0000
,
0000
0000
0000
0000
,
0000
0000
0000
0000
,
0202
0000
0303
0000
1000
0000
0000
0000
0100
1000
0001
0100
0010
1000
0001
0010
,
0100
1000
0100
0000
1000
0001
0100
0000
0010
1000
0010
0000
1000
0001
0100
0000
,
0010
1000
0010
0000
1000
0001
0010
0000
0100
1000
0100
0000
1000
0001
0010
0000
,
0100
1000
0100
0000
1000
0001
0100
0000
0010
1000
0010
0000
1000
0001
0100
0000
,
0010
1000
0010
0000
1000
0001
0010
0000
10M0
0001
0100
0000
0010
1000
0100
0000
,
MM10
0001
0010
0000
0001
1000
0010
0000
0100
0001
0100
0000
0001
1000
0010
0000
,
0100
0001
0100
0000
0001
1000
0100
0000
0010
0001
0010
0000
0001
1000
0100
0000
,
0010
0001
0010
0000
0001
1000
0010
0000
0100
0001
0100
0000
0001
1000
0010
0000
,
0100
0001
0100
0000
0001
1000
0100
0000
0M01
1000
0010
0100
0001
0000
1000
0000
,
01MM
1000
0100
0000
1000
0001
0010
0000
0100
1000
0100
0000
1000
0001
0100
0000
,
0010
1000
0010
0000
1000
0001
0100
0000
0010
1000
0010
0000
1000
0001
0010
0000
,
0100
1000
0100
0000
1000
0001
0010
0000
0100
1000
0100
0000
1000
0001
0100
0000
,
0010
1000
0010
0000
1000
0001
0100
0000
1M00
0001
0010
0000
0100
1000
0001
0000
,
MM10
0001
0010
0000
0001
1000
0100
0000
0010
0001
0010
0000
0001
1000
0010
0000
,
0100
0001
0100
0000
0001
1000
0010
0000
0100
0001
0100
0000
0001
1000
0100
0000
,
0010
0001
1000
0100
0010
0001
1000
0100
1000
0001
1000
0100
0010
0001
1000
0010
,
0100
0000
0000
0000
0000
0000
0110
0000
0000
0110
0000
0000
0004
4000
0000
0000
0000
0000
0000
0000
0000
3003
0000
0000
,
0102
0000
0103
0010
1000
0000
M001
0000
1000
0010
0100
0000
0010
1000
0001
1000
,
0200
0000
0310
0001
1000
0000
M001
0000
1000
0001
0010
0000
0100
1000
0001
1000
,
0020
0000
0130
0001
1000
0000
M001
0000
1000
0001
0100
0000
0010
1000
0100
1000
,
0002
0013
0100
1000
0001
0000
1000
0000
0002
0103
0010
0100
0002
1003
0100
0010
,
0002
0000
0103
0010
0100
0000
0M01
0000
0010
0100
0010
0000
0100
1000
0001
0100
,
0020
0000
1030
0010
1000
0000
M100
0000
0010
0001
0010
0000
0100
1000
0010
0100
,
0002
0000
1003
0100
1000
0000
M001
0000
0010
0100
0010
0000
0100
1000
0010
1000
,
0002
0103
0010
1000
0001
0000
1000
0000
0002
0013
0100
0010
0002
1003
0010
0100
,
0002
0000
1003
0100
0010
0000
00M1
0000
0100
0010
1000
0000
0001
1000
0010
1000
,
0002
0000
0013
0100
1000
0000
M001
0000
1000
0010
0100
0000
0001
1000
0100
1000
,
0002
0000
0013
0001
1000
0000
M100
0000
1000
0001
0010
0000
0100
1000
0001
0100
,
0020
1030
0001
1000
0001
0000
0100
0000
0020
1030
0001
1000
0020
0130
0001
0010
,
0200
0000
1300
0010
0100
0000
0M10
0000
0100
0010
1000
0000
0001
0100
0010
0100
,
0002
0000
1003
0100
0010
0000
01M0
0000
0010
0100
1000
0000
0001
0010
0100
0010
,
0001
1000
0100
1000
0001
0100
0010
1000
0001
0100
0010
1000
0001
0010
0100
1000
,
0020
0000
0000
0030
,
4000
0010
0000
0010
0000
0010
0000
3010
0100
0000
0001
0000
0010
0000
1000
0000
,
0020
0230
0320
2030
3002
0203
1300
0010
,
0400
0001
0000
0001
0000
0001
0000
0301
1000
0000
0100
0000
0010
0000
1000
0000
,
0020
0032
2003
3020
0032
2003
3100
0001
,
0040
0001
0000
0001
0000
0001
0000
0031
1000
0000
0010
0000
0100
0000
0010
0000
,
0002
0023
2030
3020
0032
2003
3100
0001
,
4000
0100
0000
0100
0000
0100
0000
3100
0010
0000
0001
0000
1000
0000
0100
0000
,
0002
0203
0320
2030
3020
0032
1003
0010
,
0400
0010
0000
0010
0000
0010
0000
0310
1000
0001
0010
0001
1000
0100
1000
0001
,
2000
3000
0100
0000
0020
0030
0001
0000
2000
3000
0100
0000
0020
0030
0001
0000
2000
3000
0001
0000
0020
0030
0001
0000
1000
0000
0100
0000
0010
0000
0001
0000
,
4000
0010
0000
0010
0000
0010
0000
3010
0100
0001
0100
0010
1000
0010
0100
0001
,
2000
3000
0100
0000
0020
0030
0100
0000
2000
3000
0001
0000
0020
0030
0100
0000
2000
3000
0001
0000
0020
0030
0100
0000
1000
0000
0001
0000
0100
0000
0010
0000
,
4000
0001
0000
0001
0000
0001
0000
3001
0010
0100
1000
0001
1000
0010
0100
0010
,
2000
3000
0001
0000
0020
0030
0100
0000
2000
3000
0001
0000
0200
0300
0001
0000
2000
3000
0010
0000
0200
0300
0010
0000
1000
0000
0001
0000
1000
0000
0010
0000
,
0400
0001
0000
0001
0000
0001
0000
0301
1000
0010
0100
0001
1000
0001
0010
0100
,
4000
0000
0004
0000
0000
0000
0000
0000
0000
0000
0000
0000
0000
0000
0000
0000
0000
0000
3003
0000
0000
0000
0000
0000
0011
0000
0000
0000
0000
0000
1000
0000
0000
0001
0000
0000
0100
0000
0000
0000
0000
0000
0010
0000
1000
0000
0010
0000
,
1000
0000
0001
0000
1000
0100
1000
0000
0001
0000
1000
0100
0000
0100
1000
0001
,
0100
0000
0010
0000
0100
0010
0100
0000
0001
0000
0100
0010
0000
0010
1000
0100
,
0010
0000
0001
0000
1000
0010
1000
0000
0001
0000
1000
0010
0000
0010
1000
0001
,
0010
0000
0100
0000
0010
0001
0010
0000
0100
0000
1000
0001
1000
0000
0100
0000
,
2002
3003
M100
0000
0001
1000
0010
0000
0100
0000
0010
1000
0000
1000
0010
0100
,
0001
0000
1000
0000
0001
0100
0001
0000
1000
0000
0001
0100
0000
0100
0001
1000
,
0040
0100
0000
0100
0000
0100
0000
0130
0001
0000
1000
0010
0000
0010
1000
0001
,
0010
0000
0001
0000
1000
0100
1000
0000
0001
0000
0010
0100
0010
0000
0001
0000
,
0220
0330
0M01
0000
1000
0010
1000
0000
0001
0000
1000
0010
0000
0010
1000
0001
,
0100
0000
0010
0000
1000
0001
1000
0000
0010
0000
1000
0001
0000
0001
1000
0100
,
0040
0001
0000
0001
0000
0001
0000
0031
1000
0000
0010
0100
0000
0100
0010
1000
,
0001
0000
0010
0000
0001
1000
0001
0000
0010
0000
0100
1000
0100
0000
0010
0000
,
2002
3003
001M
0000
1000
0100
1000
0000
0010
0000
1000
0100
0000
0100
1000
0001
,
0010
0000
0001
0000
1000
0100
1000
0000
0001
0000
1000
0100
0000
0100
1000
0001
,
0010
0100
1000
0001
1000
0100
1000
0001
0100
0010
1000
0001
1000
0010
0100
0001
,
4000
0004
0000
0000
0000
0000
0000
0000
0000
0000
0000
0000
0000
0000
0000
0000
0000
0000
0000
0000
0000
0000
0000
0000
,
3223
0000
0000
0330
0000
0000
0000
0000
,
0000
0000
0000
0000
,
0000
0000
0000
0000
,
0000
0000
0000
0000
,
0000
0000
0000
0000
,
0000
0000
0000
0000
,
0000
0000
0000
0000
,
0000
0000
0000
0000
,
2MMM
0000
0000
0000
0000
0000
0000
0000
0000
0000
0000
0000
0000
0000
0000
3000
2MMM
0000
0000
0000
0000
0000
0000
0000
0000
0000
0000
0000
0000
0000
0000
3000
2MMM
0000
0000
0000
0000
0000
0000
0000
0000
0000
0000
0000
0000
0000
0000
3000
2MMM
0000
0000
0000
0000
0000
0000
0000
0000
0000
0000
0000
0000
0000
0000
3000
,
2MMM
0000
0000
0000
0000
0000
0000
0000
0000
0000
0000
0000
0000
0000
0000
3000
2MMM
0000
0000
0000
0000
0000
0000
0000
0000
0000
0000
0000
0000
0000
0000
3000
2MMM
0000
0000
0000
0000
0000
0000
0000
0000
0000
0000
0000
0000
0000
0000
3000
2MMM
0000
0000
0000
0000
0000
0000
0000
0000
0000
0000
0000
0000
0000
0000
3000
,
2MMM
0000
0000
0000
0000
0000
0000
0000
0000
0000
0000
0000
0000
0000
0000
3000
2MMM
0000
0000
0000
0000
0000
0000
0000
0000
0000
0000
0000
0000
0000
0000
3000
2MMM
0000
0000
0000
0000
0000
0000
0000
0000
0000
0000
0000
0000
0000
0000
3000
2MMM
0000
0000
0000
0000
0000
0000
0000
0000
0000
0000
0000
0000
0000
0000
3000
,
2MMM
0000
0000
0000
0000
0000
0000
0000
0000
0000
0000
0000
0000
0000
0000
3000
2MMM
0000
0000
0000
0000
0000
0000
0000
0000
0000
0000
0000
0000
0000
0000
3000
2MMM
0000
0000
0000
0000
0000
0000
0000
0000
0000
0000
0000
0000
0000
0000
3000
2MMM
0000
0000
0000
0000
0000
0000
0000
0000
0000
0000
0000
0000
0000
0000
3000
,
2MMM
0000
0000
0000
0000
0000
0000
0000
0000
0000
0000
0000
0000
0000
0000
3000
2MMM
0000
0000
0000
0000
0000
0000
0000
0000
0000
0000
0000
0000
0000
0000
3000
2MMM
0000
0000
0000
0000
0000
0000
0000
0000
0000
0000
0000
0000
0000
0000
3000
2MMM
0000
0000
0000
0000
0000
0000
0000
0000
0000
0000
0000
0000
0000
0000
3000
,
0001
0010
0100
1000
0001
0010
0100
1000
0001
0010
0001
0010
0100
1000
0100
1000
,
0004
0000
0000
0000
0000
0000
0000
0000
0040
0000
0000
0000
0000
0000
0000
0000
0000
0000
0000
0000
0000
0000
0000
0000
0000
0000
0000
0000
0000
0000
0000
0000
0000
0000
0000
0000
0000
0000
0000
0000
0000
0000
0000
0000
0000
0000
0000
0000
0000
0000
0000
0000
0000
0000
0000
0000
0000
0000
0000
0000
0000
0000
0000
0000
0000
0000
0000
0000
0000
0000
0000
0000
0000
0000
0000
0000
0000
0000
0000
0000
0000
0000
0000
0000
0000
0000
0000
0000
0000
0000
0000
0000
0000
0000
0000
0000
0000
0000
0000
0000
0000
0000
0000
0000
0000
0000
0000
0000
0000
0000
0000
0000
0000
0000
0000
0000
0000
0000
0000
0000
0000
0000
0000
0000
0000
0000
0000
0000
0000
0000
0000
0000
0000
0000
0000
0000
0000
0000
0000
0000
0000
0000
0000
0000
0000
0000
0000
0000
0000
0000
0000
0000
0000
0000
0000
0000
0000
0000
0000
0000
0000
0000
0000
0000
0000
0000
0000
0000
0000
0000
0000
0000
0000
0000
0000
0000
0000
0000
0000
0000
0000
0000
0000
0000
0030
0000
0003
0000
0000
0000
0000
0000
,
2200
3300
0000
0000
,
1M11
1M11
0002
0203
,
0310
1000
0001
0100
0010
1000
0001
0100
0010
1000
0001
0100
0010
1000
0001
0100
,
0010
0100
0001
1000
0010
0100
0001
1000
0010
0100
0001
1000
0010
0100
0001
1000
,
0001
1000
0100
0010
0001
1000
0100
0010
0001
1000
0100
0010
0001
1000
0100
0010
,
0001
0010
0100
1000
0001
0010
0100
1000
0001
0010
0100
1000
0001
0010
0100
1000
,
0001
0100
0001
0100
0001
1000
0001
1000
0001
0100
0001
0100
0001
1000
0001
1000
,
0100
1000
0001
1000
0100
1000
0001
0100
0010
0100
0001
0100
0010
1000
0001
0100
,
0010
1000
0001
1000
0010
1000
0001
1000
0010
1000
0001
1000
0010
0100
0001
1000
,
0100
0000
0000
0000
1000
0000
0000
0000
0001
0000
0000
0000
1000
0000
0000
0000
0100
0000
0000
0000
1000
0000
0000
0000
0001
0000
0000
0000
1000
0000
0000
0000
0100
0000
0000
0000
0000
0000
0000
0000
0020
0030
0000
0000
0002
0003
0000
0000
0020
0030
0000
0000
0000
0000
0000
0000
0100
0000
0000
0000
0000
0000
0000
0000
,
0010
0001
0010
0100
0010
0001
0010
0100
0010
0001
0010
0100
0010
0001
0010
0100
,
1000
0001
0100
0010
1000
0001
0100
0010
1000
0001
0100
0010
1000
0001
0100
0010
,
1000
0001
1000
0001
1000
0100
1000
0100
0010
0001
0010
0001
1000
0001
1000
0001
,
0100
0010
0100
0010
0100
0001
0100
0001
1000
0100
1000
0001
0010
0001
1000
0001
,
0100
0010
1000
0001
0100
0010
1000
0001
1000
0100
0010
0001
1000
0100
0010
0001
,
1000
0010
0100
0001
1000
0010
0100
0001
1000
0100
1000
0001
1000
0100
1000
0001
,
1000
0100
2000
3000
0001
0100
0002
0003
1000
0100
2000
3000
0001
0100
0002
0003
,
1000
0000
0000
0010
0000
0000
2000
0000
0000
3000
0000
0000
0001
0000
0000
0100
0000
0000
0002
0000
0000
0003
0000
0000
1000
0000
0100
0000
1000
0000
0200
0000
0000
0300
0000
0000
0010
0000
0001
0000
0010
0000
0002
0000
0000
0003
0000
0000
,
1000
0100
1000
0100
0010
0001
0010
0100
1000
0001
1000
0001
0010
0001
1000
0010
,
0100
0001
0100
0001
1000
0001
1000
0010
0100
0001
0100
0001
1000
0001
1000
0001
,
0010
0001
0010
0100
1000
0001
1000
0100
0010
0001
0010
0100
1000
0001
1000
0100
,
0010
0001
1000
0001
0010
0001
1000
0100
0010
0001
1000
0001
0010
0001
1000
0001
,
0100
0010
1000
0010
1000
0001
1000
0001
0100
0010
1000
0010
1000
0001
0100
0001
,
1000
0001
0100
0001
0100
0010
1000
0010
1000
0001
0010
0100
1000
0001
0010
0100
,
1000
0100
1000
0001
1000
0100
1000
0001
1000
0100
1000
0001
1000
0100
0010
0001
,
1000
0000
0000
0000
0100
0000
0000
0000
1000
0000
0000
0000
0100
0000
0000
0000
0010
0000
0000
0000
0001
0000
0000
0000
0010
0000
0000
0000
0001
0000
0000
0000
1000
0000
0000
0000
0000
0000
0000
0000
0002
0003
0000
0000
0200
0300
0000
0000
0002
0003
0000
0000
0000
0000
0000
0000
1000
0000
0000
0000
0000
0000
0000
0000
,
0010
1000
0001
0100
0001
0100
0010
1000
0001
0010
0100
1000
0100
1000
0001
0010
,
0100
0010
0001
1000
0010
0100
0010
1000
0001
0100
0010
0100
0001
1000
0100
1000
,
0001
1000
0010
1000
0001
1000
0010
1000
0001
1000
0010
1000
0001
0100
0010
1000
,
0001
0010
0100
1000
0001
0010
0001
0010
0100
1000
0100
1000
0001
0010
0100
1000
,
0001
0100
0010
1000
0001
0100
0010
1000
0001
0010
0001
1000
0001
0010
0001
1000
,
0001
0010
0100
1000
0001
0010
0100
1000
0001
0100
0010
1000
0001
0100
0010
1000
,
0001
0010
0002
0003
1000
0010
2000
3000
0001
0010
0002
0003
1000
0010
2000
3000
,
0001
0000
0000
0100
0000
0000
0002
0000
0000
0003
0000
0000
1000
0000
0000
0100
0000
0000
2000
0000
0000
3000
0000
0000
0001
0000
0100
0000
0001
0000
0200
0000
0000
0300
0000
0000
0010
0000
1000
0000
0010
0000
2000
0000
0000
3000
0000
0000
,
0001
0100
0010
1000
0001
0100
0010
1000
0001
1000
0100
0010
0001
1000
0100
1000
,
0001
1000
0010
0100
0001
1000
0100
1000
0001
1000
0010
0100
0001
1000
0100
1000
,
0001
0100
0001
0100
0010
0100
0010
0100
0001
1000
0001
1000
0100
1000
0100
1000
,
0001
0010
0100
1000
0001
0010
0100
1000
0001
0100
0010
1000
0001
0100
0010
1000
,
0001
1000
0100
0010
0100
0010
0001
1000
0001
1000
0100
0010
0100
0010
0001
1000
,
0001
0010
0100
1000
0001
0010
0100
1000
0001
0100
0010
1000
0001
0100
0010
1000
,
0001
1000
0100
1000
0001
1000
0100
1000
0001
1000
0100
1000
0001
0100
0010
1000
,
0001
0000
0000
0000
1000
0000
0000
0000
0010
0000
0000
0000
1000
0000
0000
0000
0001
0000
0000
0000
1000
0000
0000
0000
0010
0000
0000
0000
1000
0000
0000
0000
0001
0000
0000
0000
0000
0000
0000
0000
2000
3000
0000
0000
0200
0300
0000
0000
2000
3000
0000
0000
0000
0000
0000
0000
0001
0000
0000
0000
0000
0000
0000
0000
,
1000
0100
0010
0001
1000
0100
1000
0001
1000
0100
0010
0001
1000
0100
1000
0001
,
1000
0010
0100
0001
1000
0010
1000
0001
1000
0010
0100
0001
1000
0010
1000
0001
,
0100
0010
0100
0010
0100
0001
0100
0001
1000
0001
1000
0100
1000
0100
1000
0001
,
0010
0100
0010
0001
1000
0100
0010
0001
1000
0100
1000
0001
1000
0010
0100
0001
,
1000
0100
0010
0001
1000
0100
0010
0001
1000
0010
1000
0001
1000
0010
1000
0001
,
1000
0010
0100
0001
1000
0010
0100
0001
1000
0100
0010
0001
1000
0100
0010
0001
,
1000
0010
2000
3000
0001
0010
0002
0003
1000
0010
2000
3000
0001
0010
0002
0003
,
1000
0000
0000
0100
0000
0000
2000
0000
0000
3000
0000
0000
0001
0000
0000
0010
0000
0000
0002
0000
0000
0003
0000
0000
1000
0000
0100
0000
1000
0000
0200
0000
0000
0300
0000
0000
0010
0000
0001
0000
0010
0000
0002
0000
0000
0003
0000
0000
,
1000
0010
0100
0001
1000
0001
0010
0001
0010
0100
1000
0001
1000
0001
0010
0100
,
1000
0001
0100
0010
0100
0001
1000
0001
1000
0001
0100
0010
0100
0001
1000
0001
,
1000
0010
1000
0001
1000
0001
1000
0100
0010
0001
1000
0100
1000
0001
0010
0001
,
1000
0100
1000
0100
0010
0100
0010
0100
1000
0100
1000
0100
1000
0001
1000
0001
,
0100
0010
0100
0001
1000
0001
0100
0010
0100
0001
1000
0100
1000
0001
0010
0100
,
1000
0001
0100
0010
1000
0001
0100
0010
1000
0001
0010
0001
1000
0001
0010
0001
,
1000
0100
0010
0001
1000
0100
0010
0001
1000
0100
0010
0001
1000
0001
0010
0001
,
1000
0000
0000
0000
0010
0000
0000
0000
0100
0000
0000
0000
0001
0000
0000
0000
0100
0000
0000
0000
0010
0000
0000
0000
1000
0000
0000
0000
0001
0000
0000
0000
1000
0000
0000
0000
0000
0000
0000
0000
0020
0030
0000
0000
0200
0300
0000
0000
0020
0030
0000
0000
0000
0000
0000
0000
1000
0000
0000
0000
0000
0000
0000
0000
,
0001
0010
0100
1000
0001
1000
0100
1000
0001
0100
0010
0100
0001
1000
0100
1000
,
0001
0100
0010
1000
0001
1000
0010
0100
0010
0100
0001
1000
0100
1000
0001
0100
,
0001
1000
0010
0100
0001
1000
0010
0100
0001
1000
0010
0100
0001
1000
0001
0100
,
0001
0100
0010
1000
0001
0010
0001
1000
0001
0010
0100
1000
0001
0100
0010
1000
,
0001
0010
0001
0010
0100
1000
0100
1000
0001
0010
0001
0010
0100
0010
0100
0010
,
0100
1000
0100
1000
0001
0100
0010
0100
0001
1000
0100
0010
0100
1000
0001
0100
,
0010
1000
0010
0000
0100
0001
0100
0000
0010
1000
0010
0000
0100
0001
0100
0000
,
0010
0000
0000
1000
0000
0000
0010
0000
0000
0000
0000
0000
0100
0000
0000
0001
0000
0000
0100
0000
0000
0000
0000
0000
0010
0000
1000
0000
0010
0000
1000
0000
0000
0000
0000
0000
0001
0000
1000
0000
0001
0000
1000
0000
0000
0000
0000
0000
,
0100
1000
0100
0000
1000
0001
0100
0000
0010
1000
0010
0000
1000
0001
0100
0000
,
0010
1000
0010
0000
1000
0001
0010
0000
0100
1000
0100
0000
1000
0001
0010
0000
,
0100
1000
0100
0000
1000
0001
0100
0000
0010
1000
0010
0000
1000
0001
0100
0000
,
0010
1000
0010
0000
1000
0001
0010
0000
0001
0100
0010
1000
0001
0100
0001
0100
,
0010
1000
0010
0000
1000
0001
0010
0000
0100
1000
0100
0000
1000
0001
0010
0000
,
0100
1000
0100
0000
1000
0001
0100
0000
0010
1000
0010
0000
1000
0001
0100
0000
,
0010
1000
0010
0000
1000
0001
0010
0000
0100
1000
0100
0000
1000
0001
0010
0000
,
0100
1000
0100
0000
1000
0001
0100
0000
0001
0010
0100
1000
0001
0010
0001
0010
,
0100
1000
0100
0000
1000
0001
0010
0000
0100
1000
0100
0000
1000
0001
0100
0000
,
0010
1000
0010
0000
1000
0001
0100
0000
0010
1000
0010
0000
1000
0001
0010
0000
,
0100
1000
0100
0000
1000
0001
0010
0000
0100
1000
0100
0000
1000
0001
0100
0000
,
0010
1000
0010
0000
1000
0001
0100
0000
0010
0100
0001
1000
0100
0010
0001
1000
,
0100
1000
0001
0000
1000
0001
0010
0000
0001
1000
0010
0000
0100
0001
1000
0000
,
0101
0000
2002
3003
0000
MMMM
0000
0000
1001
0000
0022
0033
0000
MMMM
0000
0000
,
2002
0000
0000
0000
0000
3003
0000
0000
;

//---------------dance-single - 13+ (Archi)----------------
#NOTES:
     dance-single:
     13+ (Archi):
     Hard:
     13:
     1.000,1.000,0.142,1.000,1.000,1627.000,30.000,260.000,87.000,2.000:
0000
0000
0000
0000
,
0000
0000
0000
0000
,
0000
0000
0000
0000
,
0202
0000
0303
0000
1000
0000
0000
0000
0100
1000
0001
0100
0010
1000
0001
0010
,
0100
1000
0200
0300
1000
0001
0200
0300
0010
1000
0020
0030
1000
0001
0200
0300
,
0010
1000
0020
0030
1000
0001
0020
0030
0100
1000
0200
0300
1000
0001
0020
0030
,
0100
1000
0200
0300
1000
0001
0200
0300
0010
1000
0020
0030
1000
0001
0200
0300
,
0010
1000
0020
0030
1000
0001
0010
0000
10M0
0001
0200
0000
0010
0000
0001
0300
,
0010
0001
0020
0030
0001
1000
0020
0030
0100
0001
0200
0300
0001
1000
0020
0030
,
0100
0001
0200
0300
0001
1000
0200
0300
0010
0001
0020
0030
0001
1000
0200
0300
,
0010
0001
0020
0030
0001
1000
0020
0030
0100
0001
0200
0300
0001
1000
0020
0030
,
0100
0001
0200
0300
0001
1000
0100
0000
0M01
1000
0010
0100
0020
0000
1000
0030
,
0100
1000
0200
0300
1000
0001
0020
0030
0100
1000
0200
0300
1000
0001
0200
0300
,
0010
1000
0020
0030
1000
0001
0200
0300
0010
1000
0020
0030
1000
0001
0020
0030
,
0100
1000
0200
0300
1000
0001
0020
0030
0100
1000
0200
0300
1000
0001
0200
0300
,
0010
1000
0020
0030
1000
0001
0100
0000
1M00
0001
0020
0000
0100
0000
0001
0030
,
0010
0001
0020
0030
0001
1000
0200
0300
0010
0001
0020
0030
0001
1000
0020
0030
,
0100
0001
0200
0300
0001
1000
0020
0030
0100
0001
0200
0300
0001
1000
0200
0300
,
0010
0001
1000
0100
0010
0001
1000
0100
1000
0001
1000
0100
0010
0001
1000
0010
,
0200
0000
0000
0000
0300
0000
0000
0000
0110
0000
0000
0000
0110
0000
0000
0000
0004
4000
0000
0000
0000
0000
0000
0000
0000
0000
0000
0000
3003
0000
0000
0000
,
0102
0000
0103
0010
1000
0000
M001
0000
1000
0010
0100
0000
0010
1000
0001
1000
,
0200
0000
0310
0001
1000
0000
M001
0000
1000
0001
0010
0000
0100
1000
0001
1000
,
0020
0000
0130
0001
1000
0000
M001
0000
1000
0001
0100
0000
0010
1000
0100
1000
,
0002
0013
0100
0010
0100
0010
0100
0010
0002
0013
0100
0010
0002
1003
0010
0100
,
0002
0000
0103
0010
0100
0000
0M01
0000
0010
0100
0010
0000
0100
1000
0001
0100
,
0020
0000
1030
0010
1000
0000
M100
0000
0010
0001
0010
0000
0100
1000
0010
0100
,
0002
0000
1003
0100
1000
0000
M001
0000
0010
0100
0010
0000
0100
1000
0010
1000
,
0002
0103
0010
0100
0010
0100
0010
0100
0002
0103
0010
0100
0002
1003
0100
0010
,
0002
0000
1003
0100
0010
0000
00M1
0000
0100
0010
1000
0000
0001
1000
0010
1000
,
0002
0000
0013
0100
1000
0000
M001
0000
1000
0010
0100
0000
0001
1000
0100
1000
,
0002
0000
0013
0001
1000
0000
M100
0000
1000
0001
0010
0000
0100
1000
0001
0100
,
0020
1030
0001
1000
0001
1000
0001
1000
0020
1030
0001
1000
0020
0130
0001
0010
,
0200
0000
1300
0010
0100
0000
0M10
0000
0100
0010
1000
0000
0001
0100
0010
0100
,
0002
0000
1003
0100
0010
0000
01M0
0000
0010
0100
1000
0000
0001
0010
0100
0010
,
0001
1000
0100
1000
0001
1000
0100
1000
0100
0010
0001
0010
0001
1000
0001
0100
,
0020
0000
0000
0000
0000
0000
0000
0000
0000
0000
0000
0000
0000
0030
0000
0000
,
4000
0010
0000
0010
0000
0010
0000
3010
0100
0000
0001
0000
0010
0000
1000
0000
,
0020
0230
0320
2030
3002
0203
1300
0010
,
0400
0001
0000
0001
0000
0001
0000
0301
1000
0000
0100
0000
0010
0000
1000
0000
,
0020
0032
2003
3020
0032
2003
3100
0001
,
0040
0001
0000
0001
0000
0001
0000
0031
1000
0000
0010
0000
0100
0000
0010
0000
,
0002
0023
2030
3020
0032
2003
3100
0001
,
4000
0100
0000
0100
0000
0100
0000
3100
0010
0000
0001
0000
1000
0000
0100
0000
,
0002
0203
0320
2030
3020
0032
1003
0010
,
0400
0010
0000
0010
0000
0010
0000
0310
1000
0000
0001
0000
1000
0100
1000
0000
,
0002
0000
0023
0000
0130
1000
0001
0000
2000
0000
3020
0000
1030
0001
0100
0000
,
0004
0100
0000
0100
0000
0100
0000
0103
0010
0000
1000
0000
0100
0010
0100
0000
,
2000
0000
3002
0000
0013
0001
1000
0000
0020
0000
0230
0000
0301
1000
0100
0000
,
4000
0001
0000
0001
0000
0001
0000
3001
0010
0000
0100
0000
1000
0010
1000
0000
,
0200
0000
0320
0000
0130
1000
0001
0000
0200
0000
0320
0000
1030
0001
0010
0000
,
0400
1000
0000
1000
0000
1000
0000
1300
0001
0000
0100
0000
0010
1000
0010
0000
,
4000
0000
0000
0000
0000
0000
0004
0000
0000
0000
0000
0000
0000
0000
0000
0000
0000
0000
0000
0000
0000
0000
0000
0000
0000
0000
0000
0000
0000
0000
0000
0000
0000
0000
0000
0000
0000
0000
0000
0000
0000
0000
0000
0000
0000
0000
0000
0000
0000
0000
0000
0000
0000
0000
0000
0000
0000
0000
0000
0000
0000
0000
0000
0000
0000
0000
0000
0000
0000
0000
0000
0000
3003
0000
0000
0000
0000
0000
0000
0000
0000
0000
0000
0000
0000
0000
0000
0000
0000
0000
0000
0000
0000
0000
0000
0000
0011
0000
0000
0000
0000
0000
0000
0000
0000
0000
0000
0000
0000
0000
0000
0000
0000
0000
0000
0000
0000
0000
0000
0000
1000
0000
0000
0000
0000
0000
0000
0000
0000
0000
0000
0000
0001
0000
0000
0000
0000
0000
0000
0000
0000
0000
0000
0000
0100
0000
0000
0000
0000
0000
0000
0000
0000
0000
0000
0000
0000
0000
0000
0000
0000
0000
0000
0000
0000
0000
0000
0000
0010
0000
0000
0000
0000
0000
0000
0000
1000
0000
0000
0000
0000
0000
0000
0000
0010
0000
0000
0000
0000
0000
0000
0000
,
1000
0000
0001
0000
1000
0100
1000
0000
0001
0000
1000
0100
0000
0100
1000
0001
,
0100
0000
0010
0000
0100
0010
0100
0000
0001
0000
0100
0010
0000
0010
1000
0100
,
0010
0000
0001
0000
1000
0010
1000
0000
0001
0000
1000
0010
0000
0010
1000
0001
,
0010
0000
0100
0000
0010
0001
0010
0000
0100
0000
1000
0001
1000
0000
0100
0000
,
2002
3003
M100
0000
0001
1000
0010
0000
0100
0000
0010
1000
0000
1000
0010
0100
,
0001
0000
1000
0000
0001
0100
0001
0000
1000
0000
0001
0100
0000
0100
0001
1000
,
0040
0100
0000
0100
0000
0100
0000
0130
0001
0000
1000
0010
0000
0010
1000
0001
,
0010
0000
0001
0000
1000
0100
1000
0000
0001
0000
0010
0100
0010
0000
0001
0000
,
0220
0330
0M01
0000
1000
0010
1000
0000
0001
0000
1000
0010
0000
0010
1000
0001
,
0100
0000
0010
0000
1000
0001
1000
0000
0010
0000
1000
0001
0000
0001
1000
0100
,
0040
0001
0000
0001
0000
0001
0000
0031
1000
0000
0010
0100
0000
0100
0010
1000
,
0001
0000
0010
0000
0001
1000
0001
0000
0010
0000
0100
1000
0100
0000
0010
0000
,
2002
3003
001M
0000
1000
0100
1000
0000
0010
0000
1000
0100
0000
0100
1000
0001
,
0010
0000
0001
0000
1000
0100
1000
0000
0001
0000
1000
0100
0000
0100
1000
0001
,
0010
0100
1000
0001
1000
0100
1000
0001
0100
0010
1000
0001
1000
0010
0100
0001
,
4000
0004
0000
0000
0000
0000
0000
0000
0000
0000
0000
0000
0000
0000
0000
0000
0000
0000
0000
0000
0000
0000
0000
0000
0000
0000
0000
0000
0000
0000
0000
0000
,
3223
0000
0000
0330
0000
0000
0000
0000
,
0000
0000
0000
0000
,
0000
0000
0000
0000
,
0000
0000
0000
0000
,
0000
0000
0000
0000
,
0000
0000
0000
0000
,
0000
0000
0000
0000
,
0000
0000
0000
0000
,
2MMM
0000
0000
0000
0000
0000
0000
0000
0000
0000
0000
0000
0000
0000
0000
3000
2MMM
0000
0000
0000
0000
0000
0000
0000
0000
0000
0000
0000
0000
0000
0000
3000
2MMM
0000
0000
0000
0000
0000
0000
0000
0000
0000
0000
0000
0000
0000
0000
3000
2MMM
0000
0000
0000
0000
0000
0000
0000
0000
0000
0000
0000
0000
0000
0000
3000
,
2MMM
0000
0000
0000
0000
0000
0000
0000
0000
0000
0000
0000
0000
0000
0000
3000
2MMM
0000
0000
0000
0000
0000
0000
0000
0000
0000
0000
0000
0000
0000
0000
3000
2MMM
0000
0000
0000
0000
0000
0000
0000
0000
0000
0000
0000
0000
0000
0000
3000
2MMM
0000
0000
0000
0000
0000
0000
0000
0000
0000
0000
0000
0000
0000
0000
3000
,
2MMM
0000
0000
0000
0000
0000
0000
0000
0000
0000
0000
0000
0000
0000
0000
3000
2MMM
0000
0000
0000
0000
0000
0000
0000
0000
0000
0000
0000
0000
0000
0000
3000
2MMM
0000
0000
0000
0000
0000
0000
0000
0000
0000
0000
0000
0000
0000
0000
3000
2MMM
0000
0000
0000
0000
0000
0000
0000
0000
0000
0000
0000
0000
0000
0000
3000
,
2MMM
0000
0000
0000
0000
0000
0000
0000
0000
0000
0000
0000
0000
0000
0000
3000
2MMM
0000
0000
0000
0000
0000
0000
0000
0000
0000
0000
0000
0000
0000
0000
3000
2MMM
0000
0000
0000
0000
0000
0000
0000
0000
0000
0000
0000
0000
0000
0000
3000
2MMM
0000
0000
0000
0000
0000
0000
0000
0000
0000
0000
0000
0000
0000
0000
3000
,
2MMM
0000
0000
0000
0000
0000
0000
0000
0000
0000
0000
0000
0000
0000
0000
3000
2MMM
0000
0000
0000
0000
0000
0000
0000
0000
0000
0000
0000
0000
0000
0000
3000
2MMM
0000
0000
0000
0000
0000
0000
0000
0000
0000
0000
0000
0000
0000
0000
3000
2MMM
0000
0000
0000
0000
0000
0000
0000
0000
0000
0000
0000
0000
0000
0000
3000
,
0001
0010
0100
1000
0001
0010
0100
1000
0001
0010
0001
0010
0100
1000
0100
1000
,
0004
0040
0000
0000
0000
0000
0000
0000
0000
0000
0000
0000
0000
0000
0000
0000
0000
0000
0000
0000
0000
0000
0000
0000
0000
0000
0000
0000
0000
0000
0000
0033
,
2200
3300
0000
0000
,
1M11
1M11
0002
0203
,
0310
1000
0001
1000
0100
0010
0200
0000
0000
0300
0010
0000
0001
0000
1000
0000
,
0100
1000
0001
1000
0010
0100
0020
0000
0000
0030
0100
0000
0001
0000
1000
0000
,
0100
0010
0001
1000
0100
0010
0200
0000
0000
0000
0300
0000
0010
0000
0001
0000
,
0200
0000
0000
0000
0000
0000
0300
0000
0010
1000
0010
0000
1000
0001
1000
0000
,
0001
0100
0010
1000
0001
1000
0001
0000
1000
0100
0010
0001
1000
0001
1000
0000
,
0010
1000
0010
0000
1000
0001
1000
0000
0100
1000
0100
0000
0010
0001
0010
0000
,
0100
1000
0100
0010
0100
1000
0100
0010
0100
1000
0100
0010
0001
1000
0010
0100
,
0020
0000
0000
0000
0000
0000
0030
0000
0100
0000
0010
1000
0010
0000
0100
0000
,
0010
1000
0001
1000
0100
0010
0200
0000
0000
0300
0010
0000
0001
0000
1000
0000
,
0100
1000
0001
1000
0010
0100
0020
0000
0000
0030
0100
0000
0001
0000
1000
0000
,
0100
0010
0001
0010
0100
0010
0001
0010
0100
0010
0001
0010
0100
0010
0001
1000
,
0020
0000
0000
0000
0000
0000
0030
0000
0100
0001
0100
0000
0001
1000
0001
0000
,
1000
0100
0010
0100
1000
0001
1000
0000
0001
0100
0010
0100
0001
1000
0001
0000
,
0010
0100
0010
0001
1000
0001
1000
0000
0010
0100
0010
1000
0001
1000
0001
0000
,
1000
0100
2000
3000
0001
0100
0002
0003
1000
0100
2000
3000
0001
0100
0002
0003
,
1000
0000
0000
0010
0000
0000
2000
0000
0000
3000
0000
0000
0001
0000
0000
0100
0000
0000
0002
0000
0000
0003
0000
0000
1000
0000
0100
0000
1000
0000
0200
0000
0000
0300
0000
0000
0010
0000
0001
0000
0010
0000
0002
0000
0000
0003
0000
0000
,
1000
0100
0010
0100
0010
0001
0020
0000
0000
0030
0100
0000
1000
0000
0010
0000
,
1000
0001
0100
0001
1000
0010
0200
0000
0000
0300
0010
0000
1000
0000
0001
0000
,
1000
0100
1000
0001
0010
0100
0020
0000
0000
0000
0030
0000
0100
0000
1000
0000
,
0020
0000
0000
0000
0000
0000
0030
0000
0100
0001
0100
0000
0001
1000
0001
0000
,
1000
0010
0100
0001
1000
0001
1000
0000
0001
0010
0100
1000
0001
1000
0001
0000
,
0100
0001
0100
0000
0001
1000
0001
0000
0010
0001
0010
0000
0100
1000
0100
0000
,
0010
0001
0010
0100
0010
0001
0010
0100
0010
0001
0010
0100
1000
0001
0100
0010
,
0200
0000
0000
0000
0000
0000
0300
0000
0010
0000
0100
0001
0100
0000
0010
0000
,
1000
0001
1000
0001
0010
0100
0020
0000
0000
0030
0100
0000
1000
0000
0001
0000
,
1000
0001
1000
0001
0100
0010
0200
0000
0000
0300
0010
0000
1000
0000
0001
0000
,
0010
0001
1000
0001
0010
0001
1000
0001
0010
0001
1000
0001
0010
0100
1000
0001
,
0200
0000
0000
0000
0000
0000
0300
0000
0010
1000
0010
0000
1000
0001
1000
0000
,
0001
1000
0100
0010
0001
1000
0001
0000
1000
0001
0100
0010
1000
0001
1000
0000
,
0001
0010
0100
1000
0001
1000
0001
0000
1000
0010
0100
0001
1000
0001
1000
0000
,
0001
0010
0002
0003
1000
0010
2000
3000
0001
0010
0002
0003
1000
0010
2000
3000
,
0001
0000
0000
0100
0000
0000
0002
0000
0000
0003
0000
0000
1000
0000
0000
0010
0000
0000
2000
0000
0000
3000
0000
0000
0001
0000
0010
0000
0001
0000
0020
0000
0000
0030
0000
0000
0100
0000
1000
0000
0100
0000
2000
0000
0000
3000
0000
0000
,
0010
0100
0001
1000
0100
0010
0200
0000
0000
0300
0010
0000
0001
0000
1000
0000
,
0100
1000
0001
1000
0010
0100
0020
0000
0000
0030
0100
0000
0001
0000
1000
0000
,
0100
0010
0001
1000
0100
0010
0200
0000
0000
0000
0300
0000
0010
0000
0001
0000
,
0200
0000
0000
0000
0000
0000
0300
0000
0010
1000
0010
0000
1000
0001
1000
0000
,
0001
0100
0010
1000
0001
1000
0001
0000
1000
0100
0010
0001
1000
0001
1000
0000
,
0010
1000
0010
0000
1000
0001
1000
0000
0100
1000
0100
0000
0010
0001
0010
0000
,
0100
1000
0100
0010
0100
1000
0100
0010
0100
1000
0100
0010
0001
1000
0010
0100
,
0020
0000
0000
0000
0000
0000
0030
0000
0100
0000
0010
1000
0010
0000
0100
0000
,
0010
1000
0001
1000
0100
0010
0200
0000
0000
0300
0010
0000
0001
0000
1000
0000
,
0100
1000
0001
1000
0010
0100
0020
0000
0000
0030
0100
0000
0001
0000
1000
0000
,
0100
0010
0001
0010
0100
0010
0001
0010
0100
0010
0001
0010
0100
0010
0001
1000
,
0020
0000
0000
0000
0000
0000
0030
0000
0100
0001
0100
0000
0001
1000
0001
0000
,
1000
0100
0010
0100
1000
0001
1000
0000
0001
0100
0010
0100
0001
1000
0001
0000
,
0010
0100
0010
0001
1000
0001
1000
0000
0010
0100
0010
1000
0001
1000
0001
0000
,
1000
0100
2000
3000
0001
0100
0002
0003
1000
0100
2000
3000
0001
0100
0002
0003
,
1000
0000
0000
0010
0000
0000
2000
0000
0000
3000
0000
0000
0001
0000
0000
0100
0000
0000
0002
0000
0000
0003
0000
0000
1000
0000
0100
0000
1000
0000
0200
0000
0000
0300
0000
0000
0010
0000
0001
0000
0010
0000
0002
0000
0000
0003
0000
0000
,
0100
0001
1000
0001
0010
0100
0020
0000
0000
0030
0100
0000
1000
0000
0001
0000
,
0010
0001
1000
0001
0100
0010
0200
0000
0000
0300
0010
0000
1000
0000
0001
0000
,
0010
0100
1000
0001
0010
0100
0020
0000
0000
0000
0030
0000
0100
0000
1000
0000
,
0020
0000
0000
0000
0000
0000
0030
0000
0100
0001
0100
0000
0001
1000
0001
0000
,
1000
0010
0100
0001
1000
0001
1000
0000
0001
0010
0100
1000
0001
1000
0001
0000
,
0100
0001
0100
0000
0001
1000
0001
0000
0010
0001
0010
0000
0100
1000
0100
0000
,
0010
0001
0010
0100
0010
0001
0010
0100
0010
0001
0010
0100
1000
0001
0100
0010
,
0200
0000
0000
0000
0000
0000
0300
0000
0010
0000
0100
0001
0100
0000
0010
0000
,
0100
0001
1000
0001
0010
0100
0020
0000
0000
0030
0100
0000
1000
0000
0001
0000
,
0010
0001
1000
0001
0100
0010
0200
0000
0000
0300
0010
0000
1000
0000
0001
0000
,
0010
0100
1000
0100
0010
0100
1000
0100
0010
0100
1000
0100
0010
0100
1000
0001
,
0200
0000
0000
0000
0000
0000
0300
0000
0010
1000
0010
0000
1000
0001
1000
0000
,
0001
0010
0100
0010
0001
1000
0001
0000
1000
0010
0100
0010
1000
0001
1000
0000
,
0100
0010
0100
1000
0001
1000
0001
0000
0100
0010
0100
0001
1000
0001
1000
0000
,
0001
0010
0002
0003
1000
0010
2000
3000
0001
0010
0002
0003
1000
0010
2000
3000
,
0001
0000
0000
0100
0000
0000
0002
0000
0000
0003
0000
0000
1000
0000
0000
0010
0000
0000
2000
0000
0000
3000
0000
0000
0001
0000
0010
0000
0001
0000
0020
0000
0000
0030
0000
0000
0001
0000
1000
0000
0001
0000
2000
0000
0000
3000
0000
0000
,
0100
1000
0200
0300
1000
0001
0200
0300
0010
1000
0020
0030
1000
0001
0200
0300
,
0010
1000
0020
0030
1000
0001
0020
0030
0100
1000
0200
0300
1000
0001
0020
0030
,
0100
1000
0200
0300
1000
0001
0200
0300
0010
1000
0020
0030
1000
0001
0200
0300
,
0020
1030
0020
0030
1000
0001
0020
0030
0001
0100
0010
1000
0001
0100
0001
0100
,
0010
1000
0020
0030
1000
0001
0020
0030
0100
1000
0200
0300
1000
0001
0020
0030
,
0100
1000
0200
0300
1000
0001
0200
0300
0010
1000
0020
0030
1000
0001
0200
0300
,
0010
1000
0020
0030
1000
0001
0020
0030
0100
1000
0200
0300
1000
0001
0020
0030
,
0100
1000
0200
0300
1000
0001
0200
0300
0001
0010
0100
1000
0001
0010
0001
0010
,
0100
1000
0200
0300
1000
0001
0020
0030
0100
1000
0200
0300
1000
0001
0200
0300
,
0010
1000
0020
0030
1000
0001
0200
0300
0010
1000
0020
0030
1000
0001
0020
0030
,
0100
1000
0200
0300
1000
0001
0020
0030
0100
1000
0200
0300
1000
0001
0200
0300
,
0010
1000
0020
0030
1000
0001
0200
0300
0010
0100
0001
1000
0100
0010
0001
1000
,
0100
1000
0002
0003
1000
0001
0020
0030
0001
2000
3020
0030
0100
0001
2000
3000
,
0101
0000
2002
3003
0000
MMMM
0000
0000
1001
0000
0022
0033
0000
MMMM
0000
0000
,
2002
0000
3003
0000
;
