#TITLE:Another Holy War;
#SUBTITLE:Imaginations From the Other Side (1995);
#ARTIST:Blind Guardian;
#TITLETRANSLIT:;
#SUBTITLETRANSLIT:;
#ARTISTTRANSLIT:;
#CREDIT:;
#BANNER:anotherholywar.png;
#BACKGROUND:anotherholywar-bg.png;
#LYRICSPATH:;
#CDTITLE:!skorTitle.png;
#MUSIC:Blind Guardian - Another Holy War.mp3;
#OFFSET:0.320;
#SAMPLESTART:115.890;
#SAMPLELENGTH:20.200;
#SELECTABLE:YES;
#BPMS:0.000=191.990;
#STOPS:;
#BGCHANGES:;
// cache tags:
#FIRSTBEAT:16.000;
#LASTBEAT:864.000;
#SONGFILENAME:Songs/Astronomic Metal Collection/Another Holy War (Skorpion9x)/anotherholywar.sm;
#HASMUSIC:1;
#HASBANNER:1;
#MUSICLENGTH:271.707;
// end cache tags

//---------------dance-single - ----------------
#NOTES:
     dance-single:
     :
     Hard:
     11:
     1.000,1.000,1.000,0.206,0.983,1815.000,335.000,56.000,0.000,0.000:
0000
0000
0000
0000
,
0000
0000
0000
0000
,
0000
0000
0000
0000
,
0000
0000
0000
0000
,
1000
0110
0000
1000
0110
0000
0100
0001
,
1000
0110
0000
1000
0110
0000
0011
0110
,
1002
0000
0010
0000
1000
0000
0100
0003
,
1020
0000
0000
0000
0030
0000
1100
0110
,
2001
0000
0010
0000
0001
0010
0100
0010
,
3001
1100
0000
0001
1100
0000
0001
1000
,
0001
1100
0000
0001
1100
0000
0001
0100
,
1010
0000
0001
1000
0001
0000
1010
0000
1100
0000
0010
0100
0010
0000
1100
0000
,
0022
0000
0000
0000
0033
0000
0100
1000
,
0101
0000
0000
0000
0000
0000
0010
0000
0000
1000
0000
0000
0010
0000
0000
0000
0000
0000
1001
0000
0000
0000
0000
0000
0011
0000
0000
0000
0000
0000
0000
0000
0101
0000
0000
0000
0000
0000
0000
0000
1001
0000
0000
0000
0000
0000
0000
0000
,
1100
0011
0000
1100
0011
0000
1001
0010
,
0101
1010
0000
0101
1010
0000
0110
0110
,
1001
0000
0000
0000
1000
0001
1000
0001
0010
0000
0010
0000
0000
0000
0000
0000
,
1001
0000
0010
0010
0010
0000
0000
0000
,
1001
0000
0000
0000
1000
0001
1000
0001
0100
0000
0100
0000
0000
0000
0000
0000
,
1001
0000
0100
0000
0100
0100
0100
0100
,
1001
0000
0000
0000
0001
0100
0001
0100
1000
0000
1000
0000
0000
0000
0000
0000
,
1001
0000
0001
0001
0001
0000
0000
0000
,
1001
0000
0000
0000
1000
0100
1000
0100
0001
0000
0001
0000
0000
0000
0000
0000
,
1001
0000
1000
0000
1000
1000
1000
0000
,
0102
0000
1000
0100
0010
0100
1000
0100
,
0000
0000
0010
0100
1000
0100
0000
0003
,
0120
0000
0100
1000
0001
1000
0100
1000
,
0000
0000
0001
0100
1000
0100
0000
0030
,
0210
0000
0001
1000
0010
1000
0001
0010
,
0000
0000
0001
1000
0010
0001
0000
0300
,
0011
0110
1100
0101
0110
1010
1100
0101
,
0110
1010
1100
1001
0110
1010
1100
0110
,
1001
0000
0100
0000
0010
0001
0010
0001
1000
0000
0010
0000
0100
0001
1000
0001
,
0100
0000
0001
0000
0010
0100
1000
0100
0010
0000
0001
0000
0100
0000
0001
0000
,
1000
0000
0010
0000
0100
0001
1000
0100
1000
0000
0001
0000
0100
0010
1000
0001
,
0010
0000
0100
0000
1000
0001
0100
0010
1000
0000
0100
0000
0010
0000
0100
0000
,
1000
0000
0001
0000
0010
0100
1000
0010
0100
0000
0001
0000
1000
0001
0010
0001
,
0100
0000
0010
0000
0100
0001
1000
0100
1000
0000
0010
0000
0100
0000
0001
0000
,
1000
0000
0100
0000
0010
0001
1000
0001
0100
0000
0001
0000
1000
0010
0100
0001
,
1000
0000
0100
0000
0010
0001
0100
0010
1000
0000
0001
0000
0010
0000
0100
0000
,
1000
0000
0010
0000
0100
0001
1000
0100
1000
0000
0001
0000
0010
0100
0010
0001
,
1000
0000
0010
0000
0100
0001
1000
0100
1000
0000
0001
0000
0010
0000
0100
0000
,
1000
0000
0010
0000
0100
0001
1000
0001
0100
0000
0001
0000
0010
0100
1000
0100
,
0010
0000
0001
0000
1000
0100
0010
0001
1000
0000
0010
0000
0100
0000
0001
0000
,
1000
0000
0100
0000
1000
0010
0100
0001
1000
0000
0100
0000
0010
0001
0010
0100
,
1000
0000
0001
0000
0100
0010
1000
0001
0010
0000
0100
0000
0010
0000
0001
0000
,
1000
0000
0010
0000
0100
0001
1000
0001
0010
0000
0001
0000
0110
0000
0110
0000
,
1001
0000
0000
0000
0010
0001
0010
0001
0011
0000
0011
0000
0000
0000
0000
0000
,
1001
0000
0011
0011
0011
0000
0000
0000
,
0101
0000
0000
0000
0010
1000
0010
1000
1010
0000
1010
0000
0000
0000
0000
0000
,
0101
0000
1010
0000
1010
0101
1010
0101
,
1001
0000
0000
0000
0100
0010
0100
0010
0110
0000
0110
0000
0000
0000
0000
0000
,
1001
0000
0110
0110
0110
0000
0000
0000
,
0101
0000
0000
0000
0010
1000
0010
1000
1010
0000
1010
0000
0000
0000
0000
0000
,
1001
0000
1100
0000
0011
1001
0011
0000
,
1001
0000
0100
0010
0100
0010
0100
0010
0001
0000
0100
0001
0100
0001
0100
0001
,
1000
0000
0010
1000
0010
1000
0010
1000
0100
0000
0010
0001
0010
0001
0010
0001
,
1000
0000
0001
0100
0001
0100
0001
0100
0010
1000
0001
0010
0001
0010
0001
0010
,
0100
1000
0010
1000
0010
1000
0010
1000
0100
0010
0001
1000
0001
1000
0001
1000
,
0100
0000
0010
0001
1000
0001
0010
0001
1000
0000
0010
0100
0001
0100
0010
0100
,
0001
0000
1000
0100
0010
0100
1000
0100
0010
0000
0001
1000
0100
1000
0001
1000
,
0100
0010
0001
0100
0010
0100
0001
0100
0010
1000
0001
0010
0100
0010
0001
0010
,
0001
0100
0001
0100
0010
0100
0010
0100
0010
1000
0010
1000
0001
0010
0100
1000
,
0110
0000
0000
0000
1000
0100
1000
0100
1000
0000
0000
0000
0100
0010
0100
0010
,
0100
0000
0000
0000
0010
0001
0010
0001
0010
0000
0000
0000
0021
0000
0000
0000
,
0000
0030
0010
0010
0010
0001
0001
0001
,
0001
0010
0020
0000
0000
0000
0000
0030
,
0001
0000
0000
0000
0001
0100
0001
0100
0001
0000
0000
0000
0100
0010
0100
0010
,
0100
0000
0000
0000
0010
1000
0010
1000
0010
0000
0000
0000
1020
0000
0000
0000
,
0000
0030
0010
0010
0010
1000
1000
1000
,
1000
0100
0100
0100
0200
0000
0000
0300
,
0011
0000
0100
1000
0001
0010
0100
1000
0001
0010
0100
1000
0001
0010
0100
1000
,
0101
0000
0010
1000
0001
0100
0010
1000
0001
0100
0010
1000
0001
0100
0010
1000
,
0110
0000
0001
0100
0001
1000
0100
1000
0001
0100
0001
1000
0100
1000
0001
0100
,
0001
0010
0100
0010
0001
1000
0001
0100
0010
0100
0001
1000
0001
0010
0100
0010
,
1001
0000
0001
0100
0010
1000
0001
0010
0100
1000
0001
0100
0010
1000
0001
0010
,
1100
0000
1000
0100
0010
0001
1000
0010
0100
0001
1000
0100
0010
0001
1000
0010
,
0101
0000
0010
1000
0001
0100
0010
1000
0100
0010
0001
0100
0010
1000
0001
0010
,
1001
0010
0001
0010
0001
0100
0001
0100
0010
0100
0010
0100
0010
1000
0010
1000
,
0101
0000
0010
1000
0010
0000
0101
0000
0010
1000
0010
0000
0101
0000
0010
0000
,
1100
0000
0010
0001
0010
0000
1100
0000
0010
0001
0010
0000
1100
0000
0010
0000
,
1001
0000
0100
0010
0100
0000
1001
0000
0100
0010
0100
0000
1001
0000
0010
0000
,
0110
0000
0001
1000
0001
0000
0110
0000
1000
0001
1000
0000
0110
0000
1001
0000
,
1100
0000
0010
0001
0010
0000
1100
0000
0001
0010
0001
0000
1100
0000
0010
0000
,
0101
0000
0010
1000
0010
0000
0101
0000
1000
0010
1000
0000
0101
0000
1000
0000
,
0011
0000
0100
1000
0100
0000
0011
0000
1000
0100
1000
0000
0011
0000
0100
0000
,
1001
0100
0010
0001
0010
0100
1000
0100
0010
0001
0010
0100
1000
0100
0010
0001
,
2000
0000
3200
0320
,
0032
0203
0320
2030
,
3001
0100
0001
0010
0001
0100
0001
0010
,
0001
0100
0100
0010
1000
1000
0001
0010
,
0200
0000
2300
3002
,
0023
0000
0230
2300
0000
0000
3020
0030
,
0110
0000
0000
0000
0001
1000
0100
1000
0011
0000
0011
0000
0000
0000
0000
0000
,
0110
0000
0101
1010
0101
0000
0000
0000
,
1100
0000
0000
0000
0010
0001
0100
0001
0110
0000
0110
0000
0000
0000
0000
0000
,
0101
0000
0110
0000
1010
0101
1010
0101
,
1100
0000
0000
0000
0010
0100
1000
0100
0011
0000
0011
0000
0000
0000
0000
0000
,
0101
0000
0110
1010
0110
0000
0000
0000
,
0011
0000
0000
0000
0100
1000
0010
1000
0101
0000
0101
0000
0000
0000
0000
0000
,
1001
0000
0011
0000
1100
1001
1100
0000
,
1001
0000
0100
0010
0001
1000
0010
0100
0001
0000
1000
0100
1000
0010
0100
0001
,
0010
0000
0100
0010
0001
1000
0010
0100
0010
0000
1000
0001
0100
0001
1000
0010
,
0100
0000
0001
0010
0100
1000
0010
0100
0001
0000
1000
0010
1000
0001
0100
0001
,
0010
0000
0100
0010
0001
0100
0010
1000
0001
0000
1000
0100
0010
0100
1000
0001
,
0010
0000
0100
0010
0001
1000
0100
0010
0001
0000
0100
0010
1000
0001
0100
0010
,
0100
0000
0001
0010
0100
1000
0010
0100
0001
0000
1000
0010
0100
0010
1000
0001
,
0100
0000
0001
0010
0100
0010
0001
1000
0010
0000
0100
0001
1000
0100
1000
0010
,
0100
0001
1000
0010
0100
0001
1000
0010
1000
0100
0010
0001
1000
0100
0010
0001
,
1100
0000
0010
0001
1000
0000
0101
0000
0000
0000
1010
0000
0000
0000
0000
0000
,
0110
0000
0001
1000
0100
0000
0011
0000
0000
0000
1100
0000
0000
0000
0000
0000
,
0101
0000
0010
1000
0001
0000
0110
0000
0000
0000
1001
0000
0000
0000
0000
0000
,
1100
0000
0010
0001
1000
0000
0021
0000
0000
0000
0130
0000
2000
0000
0000
0000
,
3001
0000
0100
0010
1000
0000
0100
0010
0001
0000
1000
0000
1000
0000
1000
0000
,
0001
0000
0010
0001
1000
0000
0100
1000
0001
0000
0010
0000
0100
0000
1000
0000
,
0001
0000
0010
0100
1000
0000
0100
0010
0001
0000
0100
0000
0100
0000
0100
0000
,
0010
0000
1000
0001
0100
0000
0001
0010
0100
0000
1000
0000
0010
0000
0100
0000
,
0002
0000
0000
0000
0000
0000
2003
0000
3200
0000
0320
0000
,
0032
0000
0000
0203
0000
0000
0000
0302
,
0000
0000
0000
0000
0000
0000
0023
0000
0230
0000
2300
0000
,
3002
0000
0000
0000
,
1003
0000
0000
0100
0000
0000
1000
0000
0010
0000
0000
0100
0000
0000
0001
0000
,
1000
0000
0000
0001
0010
0100
1000
0000
0002
0000
0000
0000
0003
0000
0000
0000
,
1000
0000
0000
0010
0100
0001
1000
0000
0100
0000
0000
1000
0000
0000
0010
0000
,
0100
0001
1000
0010
0100
0001
1000
0010
1000
0100
0010
0001
1000
0100
0010
0001
,
1000
0000
0000
0000
0100
0010
0100
0010
0100
0000
0010
0000
0000
0000
0000
0000
,
1000
0000
0010
0100
0010
0000
0000
0000
,
1000
0000
0000
0000
0100
0010
0100
0010
0100
0000
0010
0000
0000
0000
0000
0000
,
1000
0000
0010
0000
0100
0010
0100
0010
,
0001
0000
0000
0000
1000
0100
1000
0100
1000
0000
0100
0000
0000
0000
0000
0000
,
0001
0000
1000
0010
1000
0000
0000
0000
,
0001
0000
0000
0000
1000
0100
1000
0100
1000
0000
0100
0000
0000
0000
0000
0000
,
0001
0000
1000
0000
0010
1000
0010
1000
,
0001
0001
0100
0100
0001
0001
2000
0000
0000
0000
0000
0000
3100
0000
0020
0000
,
0000
0000
0031
0000
1000
0200
0000
0000
,
1300
1000
0001
0001
1000
1000
0200
0000
0000
0000
0000
0000
0310
0000
0002
0000
,
0000
0000
0000
0000
0203
0000
0000
0300
,
1000
0000
0100
0100
0010
0000
0001
0001
0100
0000
0010
0010
1000
0000
0100
0100
,
0010
0001
0010
0200
0000
0000
0300
0000
,
1000
0000
0010
0010
0100
0000
0001
0001
1000
0000
0100
0100
0010
0000
0001
0001
,
0220
0000
0000
0000
0000
0000
0000
0330
,
0001
0000
1000
0000
0010
0000
0100
0000
0100
0000
0000
0010
0000
0000
0100
0000
,
0200
0000
0000
0000
0000
0000
0301
0010
0200
0000
0000
0000
0000
0000
0300
0000
,
0011
0000
0000
0101
0000
0000
0110
0000
1100
0000
0000
0110
0000
0000
0101
0000
,
0022
0000
0000
0000
0000
0000
0000
0033
,
0001
0000
0000
0100
0000
0000
0001
0000
0010
0000
0000
0100
0000
0000
0010
0000
,
0001
0000
0000
1000
0010
0100
0001
0000
2000
0000
0000
0000
0000
0000
3000
0000
,
0010
0000
0000
0100
0001
1000
0100
0000
0010
0000
0000
0100
0000
0000
1000
0000
,
0110
0001
0010
0001
0100
0001
0100
0010
0100
0010
1000
0010
1000
0100
1000
0100
,
1001
0000
1000
0100
0010
0100
1000
0000
0001
0100
0010
1000
0001
0000
1000
0100
,
1000
0000
0001
0100
0001
0010
0100
0000
1000
0001
0100
0001
1000
0000
0010
0100
,
0001
0000
0010
0100
1000
0001
0100
0000
0001
1000
0100
1000
0010
0000
0100
0001
,
0010
0000
0100
1000
0010
0100
0010
0000
1000
0100
0010
0001
1000
0000
0100
1000
,
0010
0000
0100
0001
1000
0001
0100
0000
0010
1000
0100
1000
0010
0000
0100
0001
,
1000
0000
0100
0010
0100
1000
0100
0000
0010
0001
0010
0100
0010
0000
0100
1000
,
0010
0000
0100
0001
0100
0010
0100
0000
0010
0100
0010
0100
0001
1000
0010
0100
,
0010
0100
0010
0100
0001
1000
0010
0100
0010
0100
0010
0100
0001
0000
1000
0000
,
0010
1100
0001
0110
1000
0101
0010
1100
,
0001
1010
0001
0110
1000
0011
0100
1001
,
0010
1100
0001
1010
0100
0011
1000
0101
,
0010
1100
0001
0110
1000
0101
0010
1100
,
0001
0110
1000
0101
0010
1001
0100
0011
,
0100
1010
0001
1100
0010
0101
1000
0110
,
1001
0000
0000
0000
1000
0001
0100
0010
1100
0000
0011
0000
0000
0000
0000
0000
,
0101
0000
1010
0101
1001
0000
0000
0000
,
1100
0000
0000
0000
0001
0100
0010
1000
0011
0000
1100
0000
0000
0000
0000
0000
,
0101
0000
0011
0000
1100
0101
1100
0011
,
1010
0000
0000
0000
0100
0001
1000
0010
0101
0000
1001
0000
0000
0000
0000
0000
,
0011
0000
1100
0101
0110
0000
0000
0000
,
0101
0000
0000
0000
0010
1000
0001
0010
1100
0000
0011
0000
0000
0000
0000
0000
,
0110
0000
0101
0000
1010
0110
0101
0000
,
1001
0100
0010
1000
0100
0010
0100
1000
0001
0100
0001
0010
0100
1000
0010
0100
,
0010
1000
0001
0100
0001
0010
0100
1000
0010
0100
0010
1000
0001
0100
0001
0010
,
0100
1000
0010
0100
0010
1000
0001
0010
0100
0010
0001
1000
0100
0010
0001
0100
,
0010
1000
0001
0010
0100
1000
0001
0100
0001
1000
0010
1000
0001
0100
0001
0010
,
0100
0010
0100
1000
0001
1000
0100
1000
0001
0010
0001
1000
0100
0010
0001
0100
,
0010
1000
0010
0100
0001
0010
0100
1000
0010
0100
0010
1000
0001
0100
0001
0010
,
0100
0010
0001
1000
0100
0010
0100
1000
0100
0010
0001
1000
0010
0100
0001
1000
,
0100
1000
0001
0100
0010
1000
0010
0100
0001
0010
0100
1000
0001
0010
0001
0100
,
1001
0000
0000
0000
0100
0010
1000
0001
0110
0000
1001
0000
0000
0000
0000
0000
,
1100
0000
0011
1001
0101
0000
0000
0000
,
1010
0000
0000
0000
0001
0100
0010
1000
0101
0000
0011
0000
0000
0000
0000
0000
,
1100
0000
1001
0000
0011
1100
1001
0101
,
0110
0000
0000
0000
0001
1000
0010
1000
0101
0000
1010
0000
0000
0000
0000
0000
,
1100
0000
0110
0101
1010
0000
0000
0000
,
1001
0000
0000
0000
0100
0001
1000
0001
0110
0000
1001
0000
0000
0000
0000
0000
,
1100
0000
0011
0000
1001
0110
1001
0000
,
1010
0100
0001
1000
0100
1000
0001
0100
0001
0010
0100
0010
0001
1000
0100
1000
,
0010
0100
0001
1000
0100
1000
0010
0100
0001
0100
0001
0010
0100
1000
0010
0100
,
0010
1000
0001
0100
0001
0010
0100
1000
0010
1000
0001
0100
0001
0010
0100
1000
,
0001
0100
0010
1000
0001
0100
0001
0010
0100
1000
0001
1000
0010
0100
0001
1000
,
0010
0100
0001
0010
0100
1000
0001
0100
0001
1000
0100
1000
0010
0100
0001
1000
,
0010
0100
0001
1000
0100
1000
0001
0100
0001
0010
0100
0010
0100
1000
0001
0100
,
0001
0010
0100
1000
0010
0100
0010
1000
0001
0100
0001
0010
0100
1000
0010
1000
,
0001
0100
0010
1000
0001
0100
0010
1000
0001
0010
0100
1000
0011
0000
0110
0000
,
1100
0000
0001
0000
1010
0001
1100
0101
,
1000
0110
0001
0000
0101
0000
0110
1000
,
1100
0000
0010
0000
1001
0010
0100
1001
,
0010
1100
0001
0110
1100
0001
0110
0000
,
0110
0000
1000
0000
0101
1000
0011
1100
,
0001
0110
0001
0000
0101
0000
1001
0100
,
1010
0000
0100
0000
0110
0001
1000
0110
,
1000
0101
0010
1100
0011
1000
0110
0000
,
1001
0000
0000
0000
1000
0001
0100
0001
1100
0000
1100
0000
0000
0000
0000
0000
,
1001
0000
1100
1100
1100
0000
0000
0000
,
1001
0000
0000
0000
0001
1000
0100
1000
0101
0000
0101
0000
0000
0000
0000
0000
,
1001
0000
0110
0000
0110
0110
0110
0110
,
1001
0000
0000
0000
1000
0100
0001
0100
1001
0000
1001
0000
0000
0000
0000
0000
,
0110
0000
0011
0110
1100
0000
0000
0000
,
1001
0000
0000
0000
0001
0100
1000
0100
1001
0000
1001
0000
0000
0000
0000
0000
,
0110
0000
1001
0000
1010
0110
0101
0110
,
2002
0000
0000
0000
,
0000
0000
0000
0000
,
0000
0000
0000
0000
,
0000
0000
0000
0000
,
0000
0000
0000
0000
,
3003
0000
0000
0000
;
