#TITLE:Ivaltek;
#SUBTITLE:Oh Henry!;
#ARTIST:DJ Sharpnel;
#TITLETRANSLIT:;
#SUBTITLETRANSLIT:;
#ARTISTTRANSLIT:;
#CREDIT:;
#BANNER:../Fallback-Ban.png;
#BACKGROUND:../Fallback-BG.png;
#LYRICSPATH:;
#CDTITLE:../~CDTitle-@@.png;
#MUSIC:DJ Sharpnel - Ivaltek.ogg;
#OFFSET:-0.213;
#SAMPLESTART:226.258;
#SAMPLELENGTH:18.453;
#SELECTABLE:YES;
#DISPLAYBPM:208.100;
#BPMS:0.000=208.100;
#STOPS:;
#BGCHANGES:;
// cache tags:
#FIRSTBEAT:0.000;
#LASTBEAT:1308.000;
#SONGFILENAME:Songs/Oh Henry! Mad Stamina/Ivaltek (18)/Ivaltek.sm;
#HASMUSIC:1;
#HASBANNER:1;
#MUSICLENGTH:378.226;
// end cache tags

//---------------dance-single - @@----------------
#NOTES:
     dance-single:
     @@:
     Challenge:
     18:
     1.000,1.000,0.011,0.130,1.000,4314.000,4.000,49.000,0.000,0.000:
0001
0010
0100
0010
0000
0001
0100
0001
,
1000
0010
0100
0010
0000
1000
0100
1000
,
0001
0010
0100
0010
0000
0001
0100
0001
,
1000
0010
0100
0010
0000
1000
0100
1000
,
0001
0010
0100
0010
0000
0001
0100
0001
,
1000
0010
0100
0010
0000
1000
0100
1000
,
0001
0010
0100
0010
0000
0001
0100
0001
,
1000
0010
0100
0010
0000
1000
0100
1000
,
1001
0001
0010
0100
0000
1000
0010
1000
,
0001
0100
0010
0100
0000
0001
0010
0001
,
1000
0100
0010
0100
0000
1000
0010
1000
,
0001
0100
0010
0100
0000
0001
0010
0001
,
1000
0100
0010
0100
0000
1000
0010
1000
,
0001
0100
0010
0100
0000
0001
0010
0001
,
1000
0100
0010
0100
0000
1000
0010
1000
,
0001
0000
0000
0000
0001
0000
0001
0000
0100
0000
0000
0000
0010
0000
0100
0001
,
1000
0000
0000
0000
0100
0000
0100
0000
1000
0000
0000
0000
0001
0000
0010
0001
,
1000
0000
0000
0000
0010
0000
0010
0000
0100
0000
0000
0000
0001
0000
0100
0001
,
1000
0000
0000
0000
0001
0000
0001
0000
0010
0000
0000
0000
0100
0000
0010
0001
,
1000
0000
0000
0000
0010
0000
0010
0000
1000
0000
0000
0000
0001
0000
0100
0001
,
1000
0000
0000
0000
0100
0000
0100
0000
0010
0000
0000
0000
0001
0000
0010
0001
,
1000
0000
0000
0000
0001
0000
0001
0000
0100
0000
0000
0000
0010
0000
0100
0001
,
1000
0000
0000
0000
0001
0000
0001
0000
0010
0000
0000
0000
0001
0000
0010
0001
,
1000
0000
0010
0000
0100
0000
0001
0000
1000
0000
0100
0000
0010
0000
0100
1000
,
0001
0000
0100
0000
0010
0000
1000
0000
0001
0000
1000
0000
0010
0000
0100
0001
,
1000
0000
0100
0000
0010
0000
0100
0000
1000
0000
0001
0000
0010
0000
0100
1000
,
0001
0000
0100
0000
0001
0000
1000
0000
0010
0000
1000
0000
0001
0000
0100
0001
,
1000
0000
0100
0000
0010
0000
0001
0000
1000
0000
0100
0000
0010
0000
0100
1000
,
0001
0000
1000
0000
0010
0000
0100
0000
0010
0000
1000
0000
0001
0000
0100
0001
,
1000
0000
0100
0000
0010
0000
0001
0000
1000
0000
0001
0000
0010
0001
0100
0010
,
1000
0000
0001
0000
1000
0000
0002
0000
0000
0003
0000
0000
0200
0000
0000
0300
0000
0000
0020
0000
0000
0030
0000
0000
,
2000
0000
0000
3000
0001
0000
0020
0000
0000
0000
0000
0000
0030
0000
0000
0000
0000
0000
0000
0000
0000
0000
0000
0000
,
0001
0010
0100
0010
0001
1000
0100
0010
0001
1000
0001
0100
0010
0000
0100
0000
,
0001
1000
0100
0010
0100
1000
0001
0010
0001
1000
0010
0100
0001
0000
0010
0000
,
0001
1000
0010
0100
0010
1000
0001
0100
0001
1000
0100
0010
0001
0000
1000
0000
,
0001
0100
0001
1000
0010
0100
0010
1000
0100
0010
0001
0000
1000
0000
0010
0000
,
1000
0001
0010
0001
1000
0100
0010
0001
1000
0001
0100
0010
1000
0000
0001
0000
,
0010
0100
0010
0001
1000
0100
0010
0100
1000
0001
0100
0010
1000
0000
0100
0000
,
1000
0001
0100
0001
1000
0010
0100
0010
1000
0001
0010
0100
1000
0000
0001
0000
,
1000
0010
0100
0010
1000
0001
0100
0001
0010
0100
1000
0000
0010
0000
1000
0000
,
0001
0010
0100
1000
0010
0100
0001
1000
0001
0100
0010
0100
0001
0010
0100
1000
,
0001
1000
0100
0010
0001
0100
0001
1000
0010
0100
0010
1000
0100
0010
0100
1000
,
0001
0010
0100
1000
0010
0100
0010
1000
0001
1000
0010
0100
0001
0010
0100
0010
,
0001
1000
0100
0010
0001
0100
0010
0100
0001
0010
0100
0000
1000
0000
0010
0000
,
1000
0100
0010
0100
1000
0010
0100
0001
1000
0001
0100
0010
1000
0100
1000
0001
,
0010
0100
0010
0001
0100
0001
1000
0010
0100
0001
0100
0010
1000
0100
0010
0100
,
1000
0001
0010
0001
0100
0010
1000
0001
0100
0001
1000
0010
1000
0100
0010
0001
,
0100
0000
0001
0001
0010
0000
0100
1000
,
0001
0100
0010
1000
0100
0010
0001
1000
0001
0010
0100
0010
0001
0100
0010
1000
,
0001
1000
0010
0100
0001
0010
0001
1000
0100
0010
0100
1000
0010
0100
0010
1000
,
0001
0100
0010
1000
0100
0010
0100
1000
0001
1000
0100
0010
0001
0100
0010
0100
,
0001
1000
0010
0100
0001
0010
0100
0010
0001
0100
0010
0000
1000
0000
0100
0000
,
1000
0010
0100
0010
1000
0100
0010
0001
1000
0001
0010
0100
1000
0010
1000
0001
,
0100
0010
0100
0001
0010
0001
1000
0100
0010
0001
0010
0100
1000
0010
0100
0010
,
1000
0001
0100
0001
0010
0100
1000
0001
0010
0001
1000
0100
1000
0010
0100
0001
,
1000
0001
0100
0010
1000
0100
0010
0001
0100
0001
1000
0000
0001
0000
0100
0000
,
0001
1000
0100
0010
0001
0100
0001
1000
0010
0100
0010
1000
0100
0010
0100
1000
,
0001
0010
0100
1000
0010
0100
0010
1000
0001
0100
0010
0100
0001
0010
0100
1000
,
0001
1000
0100
0010
0001
0100
0001
1000
0010
0100
0010
1000
0100
0010
0100
1000
,
0001
0010
0100
1000
0010
0100
0010
1000
0100
0010
0001
0000
0100
0000
0001
0000
,
1000
0010
0100
0010
1000
0100
0010
0100
1000
0001
0010
0100
1000
0010
0100
0001
,
1000
0001
0100
0010
1000
0100
1000
0001
0010
0100
0010
0001
0100
0010
0100
0001
,
1000
0001
1000
0001
1000
0001
0010
0100
,
1000
0000
0000
0000
0001
0000
0000
0000
0100
0010
1000
0000
0001
0000
1000
0000
,
0001
0010
0100
1000
0010
1000
0001
0100
0001
1000
0010
0100
0001
0010
0100
1000
,
0001
1000
0100
0010
0001
0100
0001
1000
0010
1000
0001
0100
0001
0010
0100
0010
,
0001
1000
0100
0010
0001
0100
0010
1000
0001
1000
0010
0100
0001
0010
0001
1000
,
0100
0010
0100
1000
0010
1000
0001
0100
0001
0010
0100
1000
0001
0100
0010
1000
,
0001
0010
0100
1000
0010
1000
0010
0100
0001
1000
0100
1000
0001
0010
0100
1000
,
0001
0100
0010
1000
0100
1000
0100
0010
0001
1000
0010
0100
0001
0100
0010
1000
,
0100
0010
0001
0100
0010
0100
0010
1000
0001
0010
0100
0010
0001
1000
0100
1000
,
0001
0100
0001
0010
0100
0010
0100
1000
0010
0100
0001
1000
0001
0010
0100
1000
,
0001
0100
0010
1000
0100
1000
0100
0010
0001
1000
0001
0100
0010
0100
0001
1000
,
0100
0010
0100
1000
0010
1000
0010
0100
0001
1000
0001
0010
0100
1000
0001
1000
,
0010
0100
0001
0010
0100
0010
0100
1000
0001
0100
0001
1000
0010
0100
0010
1000
,
0001
0010
0001
0100
0010
0100
0010
1000
0100
0010
0001
1000
0010
0100
0001
1000
,
0100
0010
0001
0100
0010
0100
0010
1000
0001
0010
0001
1000
0100
0010
0001
1000
,
0010
0100
0001
0010
0100
0010
0100
1000
0001
0100
0001
1000
0010
0100
0001
1000
,
0001
0010
0100
1000
0010
0100
0001
1000
0001
0100
0010
1000
0100
0010
0001
1000
,
0001
0010
0100
0010
0001
0100
0010
0100
0001
0010
0100
1000
0001
0100
0010
0100
,
0001
1000
0010
1000
0100
0010
0001
1000
0001
0010
0100
0010
0001
0100
0010
1000
,
0001
1000
0010
0100
0001
0010
0001
1000
0100
1000
0001
0010
0001
0100
0010
0100
,
0001
1000
0010
0100
0001
0010
0100
1000
0001
1000
0100
0010
0001
0100
0001
1000
,
0010
0100
0010
1000
0100
1000
0001
0010
0001
0100
0010
1000
0001
0010
0100
1000
,
0001
0100
0010
0100
0001
0010
0100
0010
0001
1000
0100
1000
0010
0100
0010
1000
,
0001
0100
0010
1000
0100
0010
0001
0010
0100
1000
0001
0010
0001
0100
0010
1000
,
0001
1000
0010
0100
0001
0010
0100
0010
0001
1000
0100
1000
0010
0100
0010
1000
,
0001
0100
0010
1000
0100
0010
0100
1000
0010
0100
0001
1000
0100
0010
0001
1000
,
0001
0100
0010
0100
0001
0010
0100
1000
0001
1000
0100
0010
0001
0100
0001
1000
,
0010
1000
0001
0100
0001
0010
0100
1000
0001
1000
0100
0010
0001
0100
0010
0100
,
0001
1000
0010
1000
0100
0010
0100
1000
0001
0010
0100
1000
0010
1000
0001
0100
,
0001
1000
0010
0100
0001
0010
0100
0010
0001
0100
0010
1000
0001
0010
0100
0010
,
0001
1000
0010
1000
0100
0010
0100
1000
0001
0010
0100
1000
0010
0100
0010
1000
,
0001
0100
0010
0100
0001
0010
0100
1000
0001
1000
0100
0010
0001
0100
0001
1000
,
0100
1000
0001
0010
0001
1000
0010
0100
0010
1000
0001
1000
0100
0010
0001
1000
,
0001
0100
0010
0100
0001
1000
0100
0010
0100
1000
0001
0100
0010
0100
0001
1000
,
0001
0000
0000
0000
,
0000
0000
0000
0000
,
1000
0100
1000
0001
0010
0100
0010
0001
1000
0010
0100
0010
1000
0001
0010
0100
,
1000
0001
0100
0001
1000
0010
0100
0010
1000
0001
0010
0001
1000
0010
0100
0001
,
1000
0100
0010
0100
1000
0001
0010
0100
1000
0001
0100
0001
1000
0100
0010
0001
,
1000
0001
0010
0100
1000
0001
0010
0100
0010
0001
0100
0010
1000
0001
0010
0001
,
0100
0010
0100
0001
1000
0010
1000
0001
0010
0100
0010
0001
1000
0010
1000
0001
,
0010
0100
0010
0001
1000
0100
0010
0001
1000
0010
0100
0010
1000
0001
0010
0100
,
1000
0001
0100
0001
1000
0010
0100
0010
1000
0001
0010
0001
1000
0010
0100
0010
,
1000
0001
0010
0001
1000
0010
0100
0010
1000
0100
0010
0001
0100
0010
0100
0001
,
1000
0100
0010
0100
1000
0001
0010
0100
1000
0001
0100
0001
1000
0100
0010
0100
,
1000
0001
0100
0001
1000
0010
1000
0001
0010
0100
0010
0001
1000
0010
0100
0010
,
1000
0001
0010
0100
0010
0001
1000
0100
1000
0001
0100
0001
1000
0100
0010
0001
,
1000
0100
0010
0100
1000
0001
0010
0100
1000
0010
0100
0001
1000
0100
0010
0001
,
1000
0010
0100
0010
1000
0001
0100
0001
1000
0100
1000
0001
0100
0010
0100
0001
,
1000
0100
1000
0001
0010
0001
1000
0100
1000
0001
0100
0001
1000
0100
0010
0001
,
1000
0010
0100
0010
1000
0001
0100
0001
1000
0100
0010
0001
1000
0010
0100
0010
,
1000
0001
1000
0001
0100
0010
0100
0010
1000
0100
1000
0100
0010
0001
0010
0001
,
1000
0010
1000
0001
0100
0010
0100
0001
1000
0100
0010
0100
1000
0001
0100
0010
,
1000
0001
0010
0001
1000
0100
0010
0100
1000
0001
0100
0001
1000
0100
0010
0001
,
1000
0010
0100
0010
1000
0001
0100
0010
1000
0001
0010
0001
1000
0010
0100
0001
,
1000
0001
0100
0010
1000
0001
0100
0010
0100
0001
0010
0100
1000
0001
0100
0001
,
0010
0100
0010
0001
1000
0100
1000
0001
0100
0010
0100
0001
1000
0100
1000
0001
,
0100
0010
0100
0001
1000
0010
0100
0001
1000
0100
0010
0100
1000
0001
0100
0010
,
1000
0001
0010
0001
1000
0100
0010
0100
1000
0001
0100
0001
1000
0100
0010
0100
,
1000
0001
0100
0001
1000
0100
0010
0100
1000
0010
0100
0001
0010
0100
0010
0001
,
1000
0010
0100
0010
1000
0001
0100
0010
1000
0001
0010
0001
1000
0010
0100
0010
,
1000
0001
0010
0001
1000
0100
1000
0001
0100
0010
0100
0001
1000
0100
0010
0100
,
1000
0001
0100
0010
0100
0001
1000
0010
1000
0001
0010
0001
1000
0010
0100
0001
,
1000
0010
0100
0010
1000
0001
0100
0010
1000
0100
0010
0001
1000
0010
0100
0001
,
1000
0100
0010
0100
1000
0001
0010
0001
1000
0010
1000
0001
0010
0100
0010
0001
,
1000
0010
1000
0001
0100
0001
1000
0010
1000
0001
0010
0001
1000
0010
0100
0001
,
1000
0100
0010
0100
1000
0001
0010
0001
1000
0010
0100
0001
1000
0100
0010
0100
,
1000
1001
1010
0101
,
0001
1000
0001
0010
0100
0010
0001
1000
0001
0100
0010
0100
0001
1000
0100
0010
,
0001
1000
0010
1000
0001
0100
0010
0100
0001
1000
0100
1000
0001
0100
0010
1000
,
0001
0010
0100
0010
0001
1000
0100
0010
0001
1000
0010
1000
0001
0010
0100
1000
,
0001
1000
0100
0010
0001
1000
0100
0010
0100
1000
0010
0100
0001
1000
0100
1000
,
0010
0100
0010
1000
0001
0100
0001
1000
0100
0010
0100
1000
0001
0100
0001
1000
,
0100
0010
0100
1000
0001
0010
0100
1000
0001
0100
0010
0100
0001
1000
0100
0010
,
0001
1000
0010
1000
0001
0100
0010
0100
0001
1000
0100
1000
0001
0100
0010
0100
,
0001
1000
0100
1000
0001
0100
0010
0100
0001
0010
0100
1000
0010
0100
0010
1000
,
0001
0010
0100
0010
0001
1000
0100
0010
0001
1000
0010
1000
0001
0010
0100
0010
,
0001
1000
0010
1000
0001
0100
0001
1000
0100
0010
0100
1000
0001
0100
0010
0100
,
0001
1000
0100
0010
0100
1000
0001
0010
0001
1000
0010
1000
0001
0010
0100
1000
,
0001
0010
0100
0010
0001
1000
0100
0010
0001
0100
0010
1000
0001
0010
0100
1000
,
0001
0100
0010
0100
0001
1000
0010
1000
0001
0010
0001
1000
0010
0100
0010
1000
,
0001
0010
0001
1000
0100
1000
0001
0010
0001
1000
0010
1000
0001
0010
0100
1000
,
0001
0100
0010
0100
0001
1000
0010
1000
0001
0010
0100
1000
0001
0100
0010
0100
,
0001
1000
0001
1000
0010
0100
0010
0100
0001
0010
0001
0010
0100
1000
0100
1000
,
0001
0100
0001
1000
0010
0100
0010
1000
0001
0010
0100
0010
0001
1000
0010
0100
,
0001
1000
0100
1000
0001
0010
0100
0010
0001
1000
0010
1000
0001
0010
0100
1000
,
0001
0100
0010
0100
0001
1000
0010
0100
0001
1000
0100
1000
0001
0100
0010
1000
,
0001
1000
0010
0100
0001
1000
0010
0100
0010
1000
0100
0010
0001
1000
0010
1000
,
0100
0010
0100
1000
0001
0010
0001
1000
0010
0100
0010
1000
0001
0010
0001
1000
,
0010
0100
0010
1000
0001
0100
0010
1000
0001
0010
0100
0010
0001
1000
0010
0100
,
0001
1000
0100
1000
0001
0010
0100
0010
0001
1000
0010
1000
0001
0010
0100
0010
,
0001
1000
0010
1000
0001
0010
0100
0010
0001
0100
0010
1000
0100
0010
0100
1000
,
0001
0100
0010
0100
0001
1000
0010
0100
0001
1000
0100
1000
0001
0100
0010
0100
,
0001
1000
0100
1000
0001
0010
0001
1000
0010
0100
0010
1000
0001
0010
0100
0010
,
0001
1000
0010
0100
0010
1000
0001
0100
0001
1000
0100
1000
0001
0100
0010
1000
,
0001
0100
0010
0100
0001
1000
0010
0100
0001
0010
0100
1000
0001
0100
0010
1000
,
0001
0010
0100
0010
0001
1000
0100
0010
0001
1000
0010
0100
0010
1000
0001
0100
,
0001
1000
0100
0010
0100
1000
0001
0010
0001
1000
0010
0100
0010
1000
0001
0100
,
0001
1000
0100
1000
0001
0100
0010
0100
0001
1000
0100
1000
0001
0100
0010
0100
,
0001
0010
0001
0010
0100
1000
0100
1000
0010
0100
0010
0100
0001
1000
0001
1000
,
0001
0000
0001
0000
,
0001
0000
0000
0000
0000
0000
0000
0020
0000
0030
0000
0000
0000
0000
0000
0000
,
0200
0000
0000
0000
,
1000
0000
0300
0000
2000
0000
3000
0020
,
0000
0030
0200
0000
0000
0000
0001
0000
,
0010
0000
0000
0300
0000
0001
0010
0000
,
0200
0000
0000
0010
,
1300
0000
0000
0000
2000
3000
0020
0000
,
0000
0030
0200
0000
0000
0300
0010
1000
,
0001
0000
1000
0100
,
0020
0000
0000
0100
,
0001
0000
0000
0030
0002
0003
0200
0000
,
0000
0300
0020
0000
0000
0030
0100
0001
,
2000
0000
3000
0200
0000
0300
0020
0030
,
0002
0000
0000
0000
0000
0003
2000
3000
,
0002
0000
0000
0000
0000
0003
1000
0000
,
0002
0003
0000
0000
0200
0300
0000
0000
0020
0030
1000
0000
0200
0300
0010
0000
,
0002
0003
0000
0000
0000
0000
0100
0000
0010
0000
0000
0000
1000
0000
0000
0000
,
0200
0000
0000
0000
,
1000
0000
0000
0000
0000
0000
0300
0000
2000
0000
0000
0000
3000
0020
0000
0000
,
0000
0030
0200
0000
0000
0000
0001
0300
,
0001
0010
0100
1000
0000
0001
1000
0000
,
0020
0000
0000
0000
0030
0100
0001
1000
,
0100
0000
0000
0000
0000
0020
0000
0000
0000
0000
0030
0002
0000
0003
0200
0000
,
0000
0300
0020
0000
0000
0000
0000
0000
0000
0000
0000
0030
0100
0000
0001
0000
,
1000
0000
0100
0010
,
0200
0000
0000
0010
,
1000
0000
0000
0300
2000
3000
0020
0030
,
0200
0000
0000
0000
0000
0300
0001
1000
,
0002
0000
0003
2000
0000
3000
0200
0300
,
0020
0000
0000
0001
,
0100
0030
0000
1000
0001
0000
0100
0000
,
0002
0003
0000
0000
,
0000
0000
0000
0000
,
1000
0100
0010
0001
1000
0100
1000
0001
0100
0010
0100
0001
1000
0100
0010
0001
,
1000
0010
0100
0010
1000
0001
1000
0100
0010
0001
0010
0100
1000
0001
0100
0001
,
0010
0100
1000
0100
0010
0001
1000
0100
1000
0001
0100
0001
1000
0010
0100
0010
,
1000
0001
0010
0100
1000
0010
0100
0010
1000
0001
0010
0001
0100
0010
1000
0001
,
0010
0100
0010
0001
1000
0001
0100
0010
0100
0001
1000
0010
1000
0001
0010
0100
,
1000
0001
0100
0001
1000
0010
1000
0001
0010
0100
1000
0001
1000
0010
0100
0001
,
0010
0100
1000
0100
0010
0001
1000
0001
0100
0010
0100
0001
1000
0010
0100
0010
,
1000
0100
1000
0001
1000
0010
1000
0010
0100
0001
0010
0001
1000
0010
0100
0001
,
1000
0100
0010
0100
1000
0001
0100
0010
0100
0001
1000
0001
0010
0100
0010
0001
,
1000
0010
0100
0010
1000
0001
0010
0100
0010
0001
1000
0100
1000
0001
0100
0010
,
1000
0100
1000
0001
0100
0010
0100
0010
1000
0001
1000
0001
0010
0100
0010
0100
,
1000
0001
0010
0100
0010
0001
0100
0010
1000
0010
0100
0001
0010
0100
1000
0001
,
0100
0010
0100
0001
1000
0001
0100
0010
1000
0001
0100
0001
0010
0100
1000
0001
,
0100
0010
0100
0001
1000
0010
1000
0001
0100
0001
1000
0010
0100
0001
0100
0010
,
1000
0100
1000
0001
0100
0010
0100
0010
1000
0001
1000
0001
0010
0100
0010
0001
,
0100
0010
0100
0001
0010
0100
0010
0001
0100
0010
0100
0001
0010
0100
1000
0001
,
1000
0010
0100
0010
1000
0001
1000
0100
0010
0001
1000
0100
1000
0001
0100
0010
,
1000
0001
0010
0100
0010
0001
1000
0010
0100
0010
1000
0001
0010
0100
0010
0001
,
0100
0010
0100
0001
1000
0010
1000
0001
0010
0100
0010
0001
1000
0001
0010
0100
,
1000
0010
0100
0010
1000
0001
0010
0001
1000
0001
0100
0010
1000
0001
0010
0001
,
1000
0010
1000
0001
0100
0001
1000
0100
0010
0100
1000
0001
1000
0010
0100
0010
,
1000
0001
0010
0100
1000
0001
1000
0010
0100
0010
1000
0001
0010
0100
0010
0001
,
0100
0010
1000
0001
0100
0001
1000
0010
1000
0001
0010
0100
1000
0001
0010
0001
,
1000
0010
0100
0001
1000
0100
0010
0100
1000
0010
0100
0001
1000
0100
0010
0001
,
1000
0010
1000
0001
0100
0001
1000
0100
0010
0100
1000
0001
0100
0010
0100
0001
,
1000
0100
0010
0100
1000
0001
0100
0010
1000
0001
0100
0001
1000
0100
0010
0001
,
0100
0001
1000
0010
0100
0010
1000
0001
0010
0100
1000
0001
0100
0010
0100
0001
,
1000
0100
0010
0001
1000
0001
0100
0010
1000
0100
0010
0001
1000
0010
0100
0001
,
1000
0100
0010
0100
1000
0001
1000
0010
0100
0010
1000
0001
0010
0100
0010
0001
,
1000
0010
0100
0010
1000
0001
0010
0001
1000
0100
0010
0001
1000
0010
0100
0010
,
1000
0001
0010
0100
1000
0001
0100
0010
0100
0001
1000
0001
0010
0100
0010
0001
,
1000
0010
1000
0001
1000
0100
0010
0001
1000
0001
0100
0001
1000
0100
0010
0001
,
1000
0010
0100
0001
1000
0010
1000
0001
0010
0100
0010
0001
1000
0010
0100
0001
,
1000
0100
0010
0100
1000
0001
1000
0010
0100
0001
0100
0010
1000
0001
0010
0001
,
0100
0010
1000
0010
0100
0001
1000
0010
1000
0001
0010
0001
1000
0100
0010
0100
,
1000
0001
0100
0010
1000
0100
0010
0100
1000
0001
0100
0001
0010
0100
1000
0001
,
0100
0010
0100
0001
1000
0001
0010
0100
0010
0001
1000
0100
1000
0001
0100
0010
,
1000
0001
0010
0001
1000
0100
1000
0001
0100
0010
1000
0001
1000
0100
0010
0001
,
0100
0010
1000
0010
0100
0001
1000
0001
0010
0100
0010
0001
1000
0100
0010
0100
,
1000
0010
1000
0001
1000
0100
1000
0100
0010
0001
0100
0001
1000
0100
0010
0001
,
1000
0010
0100
0010
1000
0001
0010
0100
0010
0001
1000
0001
0100
0010
0100
0001
,
1000
0100
0010
0100
1000
0001
0100
0010
0100
0001
1000
0010
1000
0001
0010
0100
,
1000
0010
1000
0001
0010
0100
0010
0100
1000
0001
1000
0001
0100
0010
0100
0010
,
1000
0001
0100
0010
0100
0001
0010
0100
1000
0100
0010
0001
0100
0010
1000
0001
,
0010
0100
0010
0001
1000
0001
0010
0100
1000
0001
0010
0001
0100
0010
1000
0001
,
0010
0100
0010
0001
1000
0100
1000
0001
0010
0001
1000
0100
0010
0001
0010
0100
,
1000
0010
1000
0001
0010
0100
0010
0100
1000
0001
1000
0001
0100
0010
0100
0001
,
0010
0100
1000
0010
0100
0001
0010
0001
0100
0010
1000
0100
0010
0001
0100
0001
,
1000
0100
0010
0100
1000
0001
1000
0010
0100
0001
1000
0010
1000
0001
0010
0100
,
1000
0001
0100
0010
0100
0001
1000
0100
0010
0100
1000
0001
0100
0010
0100
0001
,
0010
0100
0010
0001
1000
0100
1000
0001
0100
0010
0100
0001
1000
0001
0100
0010
,
1000
0100
0010
0100
1000
0001
0100
0001
1000
0001
0010
0100
1000
0001
0100
0001
,
1000
0100
1000
0001
0010
0001
1000
0010
0100
0010
1000
0001
1000
0100
0010
0100
,
1000
0001
0100
0010
1000
0001
1000
0100
0010
0100
1000
0001
0100
0010
0100
0001
,
0010
0100
1000
0001
0010
0001
1000
0100
1000
0001
0100
0010
1000
0001
0100
0001
,
1000
0100
0010
0001
1000
0010
0100
0010
1000
0100
0010
0001
1000
0010
0100
0001
,
1000
0100
1000
0001
0010
0001
1000
0010
0100
0010
1000
0001
0010
0100
0010
0001
,
1000
0010
0100
0010
1000
0001
0010
0100
1000
0001
0010
0001
1000
0010
0100
0001
,
0010
0001
1000
0100
0010
0100
1000
0001
0100
0010
1000
0001
0010
0100
0010
0001
,
1000
0010
0100
0001
1000
0001
0010
0100
1000
0010
0100
0001
1000
0100
0010
0001
,
1000
0010
0100
0001
0010
0100
1000
0010
,
1000
0001
0100
0001
0010
0100
1000
0010
,
1000
0100
0010
0001
0100
0010
0100
0001
,
0010
0000
0100
0000
1000
0000
0010
0100
0001
1000
0001
0010
0100
0000
1000
0000
,
0010
0000
0000
0020
0000
0000
0000
0030
,
1000
0100
0010
0001
1000
0100
0010
0100
1000
0001
0100
0010
1000
0001
0010
0100
,
1000
0001
0100
0001
1000
0010
0100
0010
1000
0001
0010
0100
1000
0010
0100
0010
,
1000
0001
0010
0100
0010
0001
1000
0100
1000
0001
0100
0001
1000
0100
0010
0001
,
1000
0010
0100
0010
1000
0001
0100
0001
0010
0100
0010
0001
1000
0010
0100
0010
,
1000
0001
0010
0001
1000
0100
0010
0001
1000
0010
1000
0001
0010
0100
0010
0001
,
1000
0010
0100
0010
1000
0001
0100
0001
1000
0100
0010
0100
1000
0010
0100
0001
,
1000
0100
0010
0100
1000
0001
0010
0001
1000
0010
0100
0010
1000
0001
0010
0100
,
1000
0001
0100
0001
1000
0010
0100
0010
1000
0100
0010
0001
1000
0010
0100
0001
,
1000
0100
0010
0100
1000
0010
0100
0010
1000
0001
0100
0001
0010
0100
1000
0001
,
1000
0100
0010
0100
1000
0010
0100
0001
1000
0001
0100
0010
1000
0100
0010
0100
,
1000
0001
0010
0100
1000
0010
1000
0001
0100
0010
0100
0001
0010
0100
1000
0001
,
0010
0100
0010
0001
0100
0001
1000
0010
1000
0100
0010
0001
1000
0010
0100
0001
,
1000
0100
0010
0001
0100
0010
0100
0001
1000
0001
0100
0010
1000
0100
0010
0100
,
1000
0001
0010
0100
1000
0010
0100
0010
1000
0001
0100
0001
0010
0100
1000
0001
,
1000
0100
0010
0001
0100
0001
1000
0010
1000
0001
0100
0001
0010
0100
1000
0001
,
1000
0010
0100
0010
1000
0001
0100
0001
1000
0100
0010
0001
0100
0010
1000
0100
,
1000
0001
0100
0001
1000
0010
0100
0010
1000
0001
0010
0100
1000
0001
0100
0010
,
1000
0001
0010
0001
1000
0100
0010
0100
1000
0001
0100
0010
1000
0100
0010
0100
,
1000
0001
0100
0010
0100
0001
1000
0010
1000
0001
0010
0001
1000
0010
0100
0001
,
1000
0100
0010
0100
1000
0001
0010
0001
0100
0010
0100
0001
1000
0100
0010
0100
,
1000
0001
0100
0001
1000
0010
0100
0001
1000
0100
1000
0001
0100
0010
0100
0001
,
1000
0100
0010
0100
1000
0001
0010
0001
1000
0010
0100
0010
1000
0100
0010
0001
,
1000
0010
0100
0010
1000
0001
0100
0001
1000
0100
0010
0100
1000
0001
0100
0010
,
1000
0001
0010
0001
1000
0100
0010
0100
1000
0010
0100
0001
1000
0100
0010
0001
,
1000
0010
0100
0010
1000
0100
0010
0100
1000
0001
0010
0001
0100
0010
1000
0001
,
1000
0010
0100
0010
1000
0100
0010
0001
1000
0001
0010
0100
1000
0010
0100
0010
,
1000
0001
0100
0010
1000
0100
1000
0001
0010
0100
0010
0001
0100
0010
1000
0001
,
0100
0010
0100
0001
0010
0001
1000
0100
1000
0010
0100
0001
1000
0100
0010
0001
,
1000
0010
0100
0001
0010
0100
0010
0001
1000
0001
0010
0100
1000
0010
0100
0010
,
1000
0001
0100
0010
1000
0100
0010
0100
1000
0001
0010
0001
0100
0010
1000
0001
,
1000
0010
1000
0010
1000
0010
0100
0001
,
0010
0000
0100
0000
0010
0000
0100
0000
1000
0001
1000
0000
0010
0000
0010
0000
,
1000
0100
0010
0001
0100
0001
0100
0010
1000
0001
1000
0100
0010
0100
1000
0001
,
0100
0010
0100
0001
0010
0001
0010
0100
1000
0001
1000
0010
0100
0001
1000
0001
,
0010
0100
1000
0010
0100
0010
0100
0001
1000
0100
1000
0001
0010
0100
0010
0001
,
1000
0010
0100
0001
0010
0001
0010
0100
1000
0010
0100
0001
1000
0100
1000
0001
,
0100
0010
0100
0001
0010
0001
0010
0100
1000
0001
1000
0010
0100
0001
1000
0001
,
0010
0100
1000
0010
0100
0010
0100
0001
1000
0100
1000
0001
0010
0100
0010
0001
,
1000
0010
1000
0100
0010
0100
0010
0001
1000
0010
0100
0010
1000
0001
0100
0001
,
1000
0100
0010
0001
0100
0001
0100
0010
1000
0100
0010
0001
1000
0010
1000
0001
,
0010
0100
0010
0001
0100
0001
0100
0010
1000
0001
0010
0100
1000
0100
0010
0001
,
1000
0010
1000
0100
0010
0100
0010
0001
1000
0010
0100
0010
1000
0001
0100
0001
,
1000
0100
0010
0001
0100
0001
0100
0010
1000
0001
1000
0100
0010
0001
1000
0001
,
0100
0010
0100
0001
0010
0001
0010
0100
1000
0010
0100
0001
1000
0100
0010
0001
,
1000
0010
0100
0001
0010
0001
0010
0100
1000
0001
0100
0001
1000
0010
1000
0001
,
0010
0100
0010
0001
0100
0001
0100
0010
1000
0001
0010
0001
1000
0100
0010
0001
,
1000
0010
1000
0100
0010
0100
0010
0001
1000
0010
0100
0001
1000
0010
1000
0001
,
0010
0100
1000
0010
0100
0010
0100
0001
0010
0100
0010
0001
1000
0010
1000
0001
,
0010
0100
0010
0001
0100
0001
0100
0010
1000
0001
1000
0100
0010
0100
1000
0001
,
1000
0010
0100
0001
0010
0001
0010
0100
1000
0001
0100
0010
1000
0010
0100
0001
,
1000
0100
1000
0010
0100
0010
0100
0001
1000
0100
0010
0100
1000
0001
0010
0001
,
1000
0010
0100
0001
0010
0001
0010
0100
1000
0010
0100
0001
1000
0100
1000
0001
,
0100
0010
1000
0100
0010
0100
0010
0001
1000
0010
1000
0001
0100
0010
1000
0001
,
0010
0100
0010
0001
0100
0001
0100
0010
1000
0001
0010
0001
1000
0100
0010
0001
,
1000
0010
1000
0100
0010
0100
0010
0001
1000
0010
0100
0001
0100
0010
1000
0001
,
1000
0100
0010
0001
0100
0001
0100
0010
1000
0100
0010
0001
1000
0010
1000
0001
,
0010
0100
0010
0001
0100
0010
1000
0001
0100
0001
1000
0010
1000
0100
0010
0001
,
1000
0001
0010
0100
1000
0010
1000
0001
0100
0001
1000
0010
1000
0100
0010
0001
,
1000
0100
0010
0100
1000
0010
0100
0010
1000
0001
0100
0001
0010
0100
1000
0001
,
0010
0001
1000
0100
1000
0010
0100
0001
0010
0100
0010
0001
1000
0010
0100
0010
,
1000
0001
0010
0100
1000
0010
0100
0010
1000
0001
0100
0001
0010
0100
0010
0001
,
1000
0100
0010
0001
0100
0010
1000
0001
0100
0001
1000
0010
1000
0100
0010
0001
,
1000
0100
0010
0100
1000
0010
0100
0010
1000
0001
0100
0001
0010
0100
0010
0001
,
1000
0100
0010
0100
1000
0010
0100
0001
0010
0100
1000
0001
0100
0010
0100
0001
,
2000
0000
0000
0000
,
0000
0000
0000
0000
,
3000
0000
0000
0000
;
