#TITLE:DOMINION;
#SUBTITLE:;
#ARTIST:L.E.D.-G;
#TITLETRANSLIT:;
#SUBTITLETRANSLIT:;
#ARTISTTRANSLIT:;
#CREDIT:;
#BANNER:;
#BACKGROUND:;
#LYRICSPATH:;
#CDTITLE:;
#MUSIC:DOMINION.mp3;
#OFFSET:-1.250;
#SAMPLESTART:29.209;
#SAMPLELENGTH:11.980;
#SELECTABLE:YES;
#BPMS:0.000=196.000,285.000=98.000,304.000=196.000;
#STOPS:92.000=0.900
,301.000=0.640
;
#BGCHANGES:;
// cache tags:
#FIRSTBEAT:32.000;
#LASTBEAT:372.000;
#SONGFILENAME:Songs/toune 8/DOMINION/DOMINION.sm;
#HASMUSIC:1;
#HASBANNER:0;
#MUSICLENGTH:123.898;
// end cache tags

//---------------dance-single - ----------------
#NOTES:
     dance-single:
     :
     Challenge:
     12:
     1.000,1.000,0.686,0.145,0.646,791.000,85.000,18.000,0.000,0.000:
0000
0000
0000
0000
,
0000
0000
0000
0000
,
0000
0000
0000
0000
,
0000
0000
0000
0000
,
0000
0000
0000
0000
,
0000
0000
0000
0000
,
0000
0000
0000
0000
,
0000
0000
0000
0000
,
1000
0000
0001
0100
0001
0000
0010
0000
0100
1000
0100
0000
0010
0001
0100
0001
,
1000
0010
0100
0010
1000
0001
0010
0010
,
0100
1000
0100
0000
0010
0000
0001
0100
0001
0000
1000
0000
0010
1000
0001
0100
,
0001
0010
0100
0001
0100
1000
0010
0010
,
0101
0000
0001
1100
0000
0010
0011
0000
,
1010
0000
1001
0000
0010
1001
0101
0000
,
0011
1100
1000
0100
0001
0100
1000
0010
,
0100
0001
0100
0001
1000
0010
1000
0010
0200
0000
0000
0000
0020
0000
0330
0000
,
1001
1000
0100
1000
0010
0100
0001
0010
,
0020
0100
0130
1000
1000
0001
0100
0001
,
1000
0001
1000
0001
1000
0000
0001
0000
0100
0000
1000
0000
0100
0000
0010
0000
,
0020
1030
1000
0100
0100
0010
0001
0010
,
0110
0100
1000
1010
0010
0100
0001
0010
,
1100
0001
0100
0202
0303
0010
1000
0100
,
0011
0001
1000
0010
0001
0010
1000
0200
,
0300
0000
1100
1000
1001
0001
0100
1000
,
0100
0001
0101
0100
1010
1000
0100
1001
,
0001
0101
0100
0010
1000
0100
0001
0100
,
1000
0020
0000
0130
0001
0010
0100
1001
,
0100
1001
0100
0010
0010
0001
1000
1000
,
0100
0010
0010
0001
0100
1000
0100
0101
,
0001
0011
0100
1000
1000
0100
0001
0001
,
0100
0010
0011
0001
1001
1000
1100
0100
,
0110
0000
0010
0000
0011
0000
0001
0000
0100
0000
1000
0000
0100
0010
1000
0000
,
0001
1001
0101
0100
0010
1000
0100
0001
,
0100
0000
1000
0000
0010
1000
0010
0000
0100
0000
0001
0010
0001
0000
1000
0001
,
0100
0010
1000
0000
1000
0000
0001
0000
0001
0000
0100
0010
0100
0000
0001
0000
,
1000
1100
0011
0001
0001
1000
1000
0100
,
0100
0010
0001
0100
1000
0001
0010
0110
,
0100
1001
0001
1000
1000
0100
0100
0010
,
0100
1000
0010
0001
0010
1000
0100
0010
,
0001
0000
1000
0000
0001
0100
0001
0000
1000
0100
1000
0000
0001
0010
0001
0000
,
1000
0010
1000
0000
0001
0100
0010
0000
1000
0100
0010
0000
0001
1000
0100
0000
,
0010
0001
1000
0000
0010
0100
1000
0000
0100
0001
0010
0000
1000
0010
0001
0000
,
1000
0100
0001
0000
0100
1000
0010
0000
0001
0010
1000
0000
0100
1000
0100
0000
,
0010
0000
0010
0000
0001
0100
1000
0000
0001
0010
1000
0000
0001
1000
0100
1000
,
0001
0100
0010
0000
1000
0100
0001
0000
0100
0010
0001
0000
0100
0010
1000
0001
,
0010
0100
1000
0000
0001
0100
0001
0100
0010
1000
0010
1000
0001
0010
0100
1000
,
0001
0010
0100
1000
0001
0000
0010
0000
0010
0000
0100
0000
0100
0000
1000
0000
,
1000
0000
0010
0000
0100
0001
0010
0001
0010
0000
0001
1000
0100
0000
1000
0010
,
1000
0001
0010
0000
0100
1000
0010
1000
0010
0000
1000
0001
0100
0000
0001
1000
,
0100
1000
0001
0000
0100
0010
1000
0100
0001
0000
0100
1000
0010
0000
0100
0001
,
0010
0100
0001
0000
0100
1000
0010
0100
0001
0000
0010
0100
1000
0000
0001
0100
,
1000
0100
0001
0000
1000
0100
0001
0100
1000
0000
0001
1000
0001
0000
0100
0010
,
1000
0100
1000
0000
0001
0100
0001
0100
0010
0000
1000
0100
0010
0000
0001
0010
,
1000
0010
0001
0000
1000
0010
1000
0010
0100
0001
0100
0001
1000
0100
1000
0100
,
0010
0001
0010
0001
1000
0010
0100
0001
0010
0100
1000
0010
1000
0100
0010
0001
,
0010
0100
1000
0000
0001
0100
0001
0000
1000
0010
1000
0000
0001
0010
0001
0000
,
1000
0100
1000
0000
0010
0100
0010
0000
1000
0001
1000
0000
0001
0010
0100
0000
,
1000
0100
0010
0000
0001
0000
1000
0000
1000
0000
0100
0000
0100
0000
0010
0000
,
0010
0001
0100
0010
0010
1000
1000
0100
,
0100
0000
0010
0000
0001
0010
0001
0000
0001
0100
0001
0000
1000
0010
1000
0000
,
1000
0100
1000
0000
0001
1000
0100
0000
1000
0001
0100
0000
0001
0010
0100
0000
,
1000
0010
0100
0000
0001
1000
0010
0000
1000
0001
0010
0000
0100
1000
0001
0000
,
0100
0001
1000
0000
0100
0010
0001
0000
1000
0100
0001
0000
1000
0010
0001
0000
,
2002
3003
0101
1000
1100
0100
0010
0011
,
0001
0100
0110
0010
1000
1100
1000
0010
,
1010
0101
1001
1000
1100
0100
0010
0011
,
0001
0100
1010
0100
0001
0011
0010
0100
,
0110
0000
1001
0000
1000
0100
1000
0000
1100
0000
0010
0001
0100
0000
0101
0000
,
0001
1000
0100
0000
1100
0000
1000
0010
0100
0000
0110
0000
0100
0001
0010
0000
,
0110
1001
1000
0100
0010
0001
0100
0010
,
1000
0100
0001
0100
1000
0010
0001
0010
,
1000
0001
1001
0000
0000
0000
0000
0000
,
0000
0000
0000
0000
,
0000
0000
0000
0000
1010
0000
0000
0101
0000
0000
1001
0000
1100
0000
0110
0000
,
0000
0000
0001
0000
0101
0000
0000
0000
0100
0000
0010
0000
1000
0000
0100
0000
0001
0000
0100
0000
1000
0000
0010
0000
0100
0010
0100
0010
1000
0001
1000
0001
,
2000
0000
0002
3000
0203
0300
0000
0000
0000
0000
0000
0000
0000
0000
0000
0000
,
1010
1000
1100
0100
0010
0001
0100
0010
,
1001
0001
0101
0100
0010
0110
0010
1010
,
1000
0100
0001
0100
1000
0001
0100
0020
,
0000
1030
0001
0010
0100
1001
0100
1001
,
0100
0010
0010
0100
0001
0001
0100
1000
,
1000
0010
0100
0001
1000
1100
0001
0101
,
0110
0010
0010
0100
1000
1000
0100
0001
,
0101
1000
0101
1000
0000
1100
0000
0001
,
0100
0010
1000
0100
0010
0100
1000
0010
0100
0001
0010
0100
1000
0100
0020
0000
,
0000
0031
0001
0100
0010
1010
0000
0001
,
0010
0100
1000
0001
0100
0010
0100
0001
1000
0100
1000
0010
0100
0001
0020
0000
,
0000
0130
0100
1000
0010
0110
0100
1001
,
1100
0010
0010
0100
0001
0001
0100
1000
,
1000
0100
1000
0100
0010
0011
1000
0011
,
1000
0010
0010
0100
1000
1000
0100
0001
,
1000
0010
0100
0001
1000
0010
0100
0001
1000
0010
0100
0001
1000
0010
0100
0001
,
2002
0000
0000
0000
,
3003
0000
0000
0000
;
