#TITLE:Summer Vacation;
#SUBTITLE:(CU mix);
#ARTIST:Outphase;
#TITLETRANSLIT:;
#SUBTITLETRANSLIT:;
#ARTISTTRANSLIT:;
#CREDIT:;
#BANNER:Summer Vacation-bn.png;
#BACKGROUND:Summer Vacation-bg.jpg;
#LYRICSPATH:;
#CDTITLE:cdtitle.png;
#MUSIC:Summer Vacation (CU mix).mp3;
#OFFSET:-3.940;
#SAMPLESTART:30.600;
#SAMPLELENGTH:12.000;
#SELECTABLE:YES;
#BPMS:0.000=135.000;
#STOPS:;
#BGCHANGES:;
// cache tags:
#FIRSTBEAT:8.000;
#LASTBEAT:221.000;
#SONGFILENAME:Songs/toune 3/Summer Vacation (CU mix)/Summer Vacation (CU mix).sm;
#HASMUSIC:1;
#HASBANNER:1;
#MUSICLENGTH:102.982;
// end cache tags

//---------------dance-single - ----------------
#NOTES:
     dance-single:
     :
     Easy:
     4:
     0.329,0.374,0.194,0.068,0.000,210.000,20.000,7.000,0.000,0.000:
0000
0000
0000
0000
,
0000
0000
0000
0000
,
0010
0010
0010
0010
,
0100
0100
0100
0100
,
0001
0001
0001
0001
,
1000
1000
1000
1000
,
0010
0100
1000
0001
,
0100
0010
0001
1000
,
0001
0100
0010
1000
,
0001
0010
0100
1000
,
0010
0100
1000
0001
,
0100
0010
1000
0001
,
1000
0100
0010
0001
,
1000
0000
0010
0000
0000
0000
0000
0010
,
0200
0000
0000
0000
0000
0310
0000
0000
,
1001
0100
0010
0100
,
0001
0100
0010
0100
,
1000
0100
0010
0100
,
0001
0100
0010
0001
,
1000
0010
0100
0001
,
1000
0010
0001
0100
,
0001
0100
0010
1000
,
0001
0100
1000
0010
,
1001
0100
0010
1000
,
0001
0100
0010
0100
,
1000
0010
0100
0010
,
0001
0010
0100
0010
,
1001
0010
0110
0100
,
1001
0010
0110
0100
,
0001
0010
0100
1000
,
0001
0100
0010
1000
,
0110
0001
0100
0010
,
1000
0010
0100
0001
,
0100
0010
1000
0010
,
0100
0001
0100
0010
,
1001
0010
0100
0001
,
0100
0010
1000
0010
,
1001
0010
0110
1000
,
0101
1010
0101
1010
,
1001
0010
0100
0001
,
0100
1000
0010
0100
,
0001
0100
0010
1000
,
0010
0100
0001
0100
,
1001
0010
0100
0001
,
1000
0010
0100
0001
,
0110
0000
1000
0000
0110
0000
0001
0010
,
0000
2000
3020
0230
,
0301
0100
0010
0100
,
1000
0010
0100
0001
,
0100
0010
1000
0010
,
0100
0001
0100
0010
,
1001
0010
0100
1000
,
0010
0100
0001
0100
,
0010
1000
0001
0100
,
2000
3020
0230
0301
,
1001
0000
0000
0000
;

//---------------dance-single - ----------------
#NOTES:
     dance-single:
     :
     Medium:
     7:
     0.430,0.427,0.272,0.068,0.029,275.000,28.000,7.000,0.000,0.000:
0000
0000
0000
0000
,
0000
0000
0000
0000
,
0010
0100
0010
0100
,
0001
0100
0010
0100
,
0001
0100
0010
0100
,
0001
0100
0010
1000
0200
0000
0320
0000
,
1030
0000
0010
0000
0100
0000
0001
0100
,
0010
0000
0100
0000
0010
0000
1000
0100
,
0010
0000
0100
0000
0010
0000
1000
0001
,
0100
0000
0000
0000
0010
0000
0000
0100
0000
0100
0000
0100
0000
0010
0000
0000
,
0100
0000
0010
0000
0100
0010
0100
0000
,
0001
0000
0100
0010
0010
0010
0000
0100
,
0100
0100
0000
0010
0100
0020
0000
0030
,
1001
0000
0010
0000
0100
0000
0010
0100
,
0010
0000
0100
0000
0001
0000
0100
1000
,
0100
0000
0010
0000
0100
0000
0001
0100
,
0001
0010
0100
1000
,
1001
0000
0010
0000
0100
0000
0010
0100
,
0010
0000
0100
0000
0001
0000
0100
1000
,
0100
0000
0010
0000
0100
0000
0001
0100
,
0010
0000
0100
0000
0010
0100
0000
0100
,
1010
0000
0100
0000
0010
0100
0010
0000
,
0001
0000
0100
0000
0010
1000
0010
0000
,
0100
0000
0001
0000
0010
0100
0001
0000
,
0010
0000
0100
0000
0001
0100
0010
0000
,
0100
0000
0010
0000
0100
1000
0010
0000
,
0100
0000
0010
0000
0100
0001
0100
0010
,
1001
0010
1100
0010
,
0101
0010
1001
0010
,
0011
0110
1100
0110
,
0011
0110
1100
0110
,
1001
0000
0010
0000
0100
0010
0100
0010
,
0100
0000
0010
0000
0001
0100
0001
0100
,
0001
0000
0010
0000
0100
1000
0100
1000
,
0100
0000
0010
0000
0100
0010
0100
0010
,
1001
0000
0010
0000
0100
0001
0100
0001
,
0100
0000
0010
0000
0100
0010
0100
0010
,
1001
0010
0110
1000
,
0110
1100
0110
0011
,
1001
0000
0010
1000
0100
0010
0100
0000
,
0001
0000
0100
0010
0001
0100
1000
0000
,
0010
0000
1000
0010
0100
0001
0100
0000
,
0010
0000
1000
0010
0100
0010
0100
0000
,
1001
0000
0010
0100
0001
0100
0010
0000
,
0100
0010
1000
0100
0010
0000
0100
0000
,
1001
0000
0010
0000
0110
0000
1000
0020
,
0030
2000
3020
0230
,
0301
0000
0010
0100
1000
0100
0010
0000
,
0010
0000
0100
0000
0001
0100
0000
0100
,
0010
0000
1000
0010
0100
0001
0100
0000
,
0010
0000
0000
0100
0000
0000
1000
0000
0000
0000
0010
0000
0100
0000
0010
0000
,
1001
0000
0001
0100
0010
0100
0010
0000
,
1000
0000
0010
0000
0100
0010
0100
0000
,
0001
0100
0010
0100
,
1000
0000
0100
0000
0010
0000
0001
0000
0010
0000
0100
0000
0000
0010
0000
0000
,
0100
0000
0000
0000
;

//---------------dance-single - ----------------
#NOTES:
     dance-single:
     :
     Hard:
     9:
     0.656,0.671,0.204,0.136,0.306,438.000,21.000,14.000,0.000,1.000:
0000
0000
0000
0000
,
0000
0000
0000
0000
,
0002
0000
0000
0000
1003
0000
0010
0100
0000
0100
0010
0000
0100
0000
0001
0000
,
0010
0000
0100
0000
1000
0000
0010
0100
0000
0010
0100
0000
0010
0000
0100
0000
,
0001
0000
0100
0000
0010
0000
0100
1000
0000
1000
0100
0000
0010
0000
0100
0000
,
0001
0010
0001
0010
1000
0100
1000
0100
0010
0000
0000
0000
0100
0000
0000
0000
,
0001
0000
0000
0000
0100
0000
1000
0010
0000
1000
0010
0000
0100
0000
0010
0000
,
0100
0000
0000
0000
0010
0000
0100
0001
0000
0100
0001
0000
0010
0000
0100
0000
,
0010
0000
0000
0000
0100
0000
1000
0010
0000
1000
0010
0000
0100
0000
0010
0000
,
0100
0000
0010
0000
0100
0000
0100
0010
0000
0010
0000
0010
0000
0100
0000
0000
,
0001
0000
0100
0000
0010
0000
1000
0010
0000
1000
0010
0000
0100
0000
0001
0000
,
1000
0000
0100
0000
0010
0000
0100
0010
0000
0010
0100
0000
0010
0000
0100
0000
,
0001
0000
0010
0000
0100
0000
0010
0100
0000
0100
1000
0000
0010
0000
0100
0000
,
0010
0100
1000
0100
0100
0100
0001
0010
,
0010
0000
0000
0000
0000
0000
0000
0000
0010
0000
0000
0000
0000
0000
0000
0000
0100
0000
0000
0000
0000
0000
0000
0000
1000
0000
0000
0000
0000
0000
0000
0000
0100
0000
0000
0000
0000
0000
0000
0000
0020
0000
0000
0000
0000
0000
0000
0000
0000
0000
0000
0000
0000
0000
0000
0000
0000
0000
0000
0000
0000
0000
0000
0030
,
1001
0100
0010
0100
0001
0100
0010
0100
,
0010
0001
0100
0001
1000
0001
0010
0001
,
0100
1000
0010
1000
0001
1000
0100
1000
,
0010
0100
0001
0100
0010
0100
1000
0100
,
0001
0010
0001
0100
0001
0010
0001
1000
,
0010
0100
0010
1000
0010
0001
0010
0100
,
1000
0010
1000
0100
1000
0001
1000
0010
,
0100
0010
0100
0001
0100
1000
0100
0010
,
1001
0100
0010
0100
1000
0100
0010
0100
,
0001
0100
0010
0001
0010
0100
0010
0100
,
1000
0100
0010
0100
0010
0001
0100
0010
,
1000
0100
0010
0001
0010
0100
0010
0100
,
1001
0010
0100
0010
1100
0010
0001
0100
,
0011
0100
0010
0100
1010
0100
0001
0100
,
1001
0010
0110
0100
1100
0100
0011
0010
,
0100
1000
0100
0010
0100
1000
0100
0010
0001
0010
0100
0010
0001
0010
0100
1000
,
0100
0000
0010
0001
0000
0010
0000
0000
0100
0000
0010
0000
0100
0000
1000
0000
,
0010
0000
0100
0001
0000
0010
0000
0000
0100
0000
0010
0000
0100
0000
1000
0000
,
0010
0000
0100
0001
0000
0010
0000
0000
0100
0000
0010
0000
0100
0000
1000
0000
,
0010
0000
0100
0001
0000
0010
0000
0000
0100
0000
0010
0000
0100
1000
0100
0010
,
0100
0000
0010
0100
0000
0001
0000
0000
0010
0000
0100
0000
0001
0010
0100
1000
,
0100
0000
0010
0100
0000
0001
0000
0000
0010
0000
0100
0000
1000
0010
0100
0001
,
0010
0000
0100
0010
0000
0100
0000
0000
1000
0000
0010
0000
0100
0001
0010
0100
,
1000
0000
0010
0100
0000
0001
0000
0000
0110
0000
0100
0000
1010
0000
0100
0000
,
1010
0100
0010
0001
0001
0010
0100
0010
,
0100
1000
0100
0010
0010
0100
0001
0100
,
1001
0100
1000
0100
0100
0010
0100
0001
,
0010
0100
0010
0001
0001
0100
0010
1010
,
0101
0010
0100
1000
1000
0010
0100
0001
,
0010
0000
0100
0000
1000
0000
0010
0000
0010
0000
0100
0000
1000
0110
0000
0000
,
1001
0010
0100
0010
1001
0010
0100
0110
,
0000
2000
3020
0230
,
0301
0000
0100
0010
0010
0100
0100
1000
,
1000
0100
0010
0100
0001
0010
0100
0010
,
0001
0000
0100
0010
0010
1000
1000
0100
,
0100
0000
0000
0010
0000
0000
0100
0000
0000
0000
0010
0000
0001
0010
0100
1000
,
0100
0010
0100
1000
0100
0010
0001
0010
,
0001
0100
0010
0100
1000
0100
0010
0100
,
0001
0010
0100
0010
0001
0100
0010
0100
,
2000
0000
3200
0000
0320
0000
0032
0000
2003
0000
3020
0000
0000
0230
0000
0000
,
2302
3003
0000
0000
;
