#TITLE:Deadstep;
#SUBTITLE:;
#ARTIST:Pattern J;
#TITLETRANSLIT:;
#SUBTITLETRANSLIT:;
#ARTISTTRANSLIT:;
#CREDIT:lolipo;
#BANNER:deadstep-bn.png;
#BACKGROUND:deadstep-bg.png;
#LYRICSPATH:;
#CDTITLE:;
#MUSIC:deadstep.ogg;
#OFFSET:0.000;
#SAMPLESTART:99.709;
#SAMPLELENGTH:12.000;
#SELECTABLE:YES;
#BPMS:0.000=195.000;
#STOPS:;
#BGCHANGES:;
// cache tags:
#FIRSTBEAT:24.000;
#LASTBEAT:560.000;
#SONGFILENAME:Songs/SPEEEDCOOOORE 4/Deadstep - [Lolipo]/deadstep.sm;
#HASMUSIC:1;
#HASBANNER:1;
#MUSICLENGTH:180.736;
// end cache tags

//---------------dance-single - lolipo----------------
#NOTES:
     dance-single:
     lolipo:
     Challenge:
     16:
     1.000,1.000,0.055,0.094,1.000,1584.000,10.000,17.000,0.000,0.000:

0000
0000
0000
0000
,
0000
0000
0000
0000
,
0000
0000
0000
0000
,
0000
0000
0000
0000
,
0000
0000
0000
0000
,
0000
0000
0000
0000
,
1000
0100
0000
0010
0001
0000
1000
0000
,
0000
0000
0000
0000
,
0020
0130
0001
1000
0020
0130
0001
1000
,
0100
1000
0010
0100
0010
1000
0001
0010
,
0001
1000
0100
0010
0001
1000
0001
0100
,
0010
1000
0001
1000
0100
0100
0010
0000
,
0001
0100
0010
1000
0001
0100
0010
0100
,
0001
1000
0100
0010
0001
1000
0010
1000
,
0001
0100
0010
0100
0001
0000
1000
0000
,
0400
0000
0300
0000
0100
0000
0100
0100
,
1000
0010
0100
0001
1000
1000
0100
0010
,
0001
0100
0010
1000
0001
0010
0001
1000
,
0100
0010
0100
1000
0001
1000
0010
0100
,
0010
1000
0001
1000
0001
0000
0100
0000
0001
0000
1000
0000
0100
0000
0000
0000
,
1000
0000
0010
0000
0100
0000
0001
0000
1000
0000
0100
0000
1000
0001
0100
0001
,
0100
0010
1000
0001
0100
0010
0100
0001
,
1000
0000
0000
0001
0101
0000
1001
0000
,
1000
0100
1000
0100
0010
0000
0000
0000
0002
0000
0003
0000
0000
0000
0000
0000
,
1000
0100
0010
0100
1000
0001
0100
0010
,
1000
0001
1000
0001
0100
0000
0010
0000
0100
0000
0001
0000
1000
0000
0100
0000
,
0010
0000
0001
0000
0100
0000
0010
0000
0100
0000
0001
0000
0010
0000
0100
0010
,
0001
0100
0010
0100
0001
0001
1000
0100
,
2000
3010
0100
0001
2000
3010
0100
0100
,
0001
0010
0002
0003
2000
3000
0020
0130
,
0001
0000
1000
0000
0100
0000
1000
0000
0001
0000
1000
0000
0100
0000
0010
0001
,
1000
0000
0010
0000
0100
0000
0001
0000
1000
0100
0010
0001
1000
0010
1000
0001
,
0010
0001
0100
0010
1000
1000
0001
0001
,
0010
0100
1000
0001
0100
0000
0010
1000
0010
0000
0100
0001
1000
0000
0100
0000
,
0010
0001
0100
0010
0100
0001
0010
0100
,
0110
0011
1001
0001
,
0200
0320
0030
0000
2000
3200
0300
0000
,
1000
0000
0001
0100
0001
0000
1000
0100
0010
0000
0000
0000
0011
0000
0000
0000
,
0002
0000
0000
0000
0000
0000
0003
0000
2000
3000
0000
0000
1000
0000
0010
0000
,
0100
0000
0000
0000
0001
0000
0000
0000
1000
0000
0000
0000
0100
0000
0000
0010
0000
0000
0001
0000
0000
0100
0000
0000
0010
0000
0000
1000
0000
0000
0001
0000
0100
0000
0001
0000
1000
0000
0010
0000
1000
0000
0001
0000
0000
0000
0000
0000
,
0100
0010
1000
0100
0010
0001
1000
0010
,
0100
0001
0100
0001
1000
0000
0100
0000
0010
0001
1000
0010
1000
0000
0001
0000
,
0100
0000
0100
0000
0010
0000
1000
0000
0001
0000
0010
0000
0100
0000
1000
0001
,
1000
0010
0100
0001
1000
1000
0100
0010
,
0001
1000
0010
1000
0100
1000
0010
0100
,
0001
0010
0100
1000
0010
0100
0001
1000
,
0100
1000
0100
1000
0100
1000
0100
0010
,
0001
0000
0001
0000
1000
0000
0010
0000
0100
0001
0100
0000
0040
0000
1030
0000
,
1000
0001
0010
0100
1000
0010
0100
0001
,
1000
0010
1000
0010
0100
0000
0001
0000
0010
0100
0010
0100
1000
0000
0001
0000
,
0100
0000
0010
0000
1000
0000
0001
0000
0010
0000
0100
0000
0010
0000
0001
0100
,
0010
0100
0001
0010
0100
0100
1000
0001
,
1001
0000
0000
0000
,
0000
0000
0000
0000
,
1000
0100
0010
0001
1000
0100
1000
0001
0100
0010
1000
0001
0010
0001
1000
0100
,
0010
0001
1000
0001
1000
0100
1000
0010
0100
0001
1000
0001
0010
0100
1000
0001
,
0100
0001
1000
0010
0100
0010
1000
0001
0010
0100
1000
0001
1000
0100
1000
0001
,
0100
0010
1000
0001
0010
0100
1000
0001
0010
0001
1000
0010
0100
0001
1000
0100
,
1000
0001
0010
0001
1000
0001
0100
0010
1000
0001
0010
0100
1000
0001
1000
0100
,
0010
0001
0100
0010
1000
0001
0100
0001
1000
0010
0100
0010
1000
0001
0010
0100
,
0010
0001
1000
0100
1000
0001
1000
0010
0100
0001
0100
0010
1000
0001
0010
0001
,
1000
0010
1000
0001
0010
0100
1000
0001
0100
0001
1000
0010
0100
0001
0010
0100
,
1000
0001
0100
0001
1000
0010
0100
0010
1000
0001
0010
0001
1000
0010
1000
0001
,
0010
0100
1000
0010
0100
0001
1000
0100
1000
0001
0100
0001
1000
0010
0100
0001
,
0010
0100
1000
0001
0100
0010
0100
0001
1000
0100
1000
0001
0010
0001
0100
0010
,
1000
0001
0010
0001
1000
0010
0100
0001
1000
0001
1000
0100
0010
0001
1000
0001
,
0100
0010
1000
0001
1000
0001
1000
0001
1000
0001
1000
0001
1000
0001
1000
0001
,
0000
0000
0000
0000
0000
0000
2000
3000
,
0001
0010
0100
1000
0001
0100
0001
1000
0010
1000
0100
0010
0001
0100
0010
1000
,
0001
0010
0001
1000
0010
0100
0001
1000
0010
0100
0010
1000
0001
0010
0100
1000
,
0001
0010
0001
1000
0010
1000
0001
0010
0100
0010
0001
1000
0010
0100
0010
1000
,
0001
1000
0100
0010
0001
1000
0001
0010
0100
1000
0010
0100
0010
1000
0100
0010
,
0001
0100
0001
0010
0001
1000
1000
0010
,
0100
0001
1000
0100
1000
0001
1000
0010
,
0100
0000
0001
0000
0010
0000
0001
0100
0001
0000
1000
0000
0100
0000
1000
0000
,
0010
0000
0100
0000
0001
0000
1000
0000
0100
0010
0001
0000
0100
0000
0000
0000
,
0010
1000
0001
0100
0010
1000
0001
0010
0001
1000
0001
0100
0010
1000
0001
0010
,
0001
1000
0100
0010
0001
1000
0010
0100
0010
1000
0001
0010
0100
0010
0001
1000
,
0100
1000
0001
0100
0010
1000
0001
0010
0001
1000
0010
1000
0001
0100
0010
1000
,
0001
0010
0100
1000
0010
0100
0001
1000
0100
0000
1000
0000
0000
0000
0000
0000
,
0001
0010
0100
1000
0001
0100
0010
1000
0001
0010
0001
1000
0100
1000
0010
0100
,
0001
1000
0001
0010
0100
1000
0001
0100
0001
1000
0100
0010
0001
1000
0001
0010
,
0001
1000
0010
0100
0001
1000
0100
0010
0100
1000
0001
0100
0001
1000
0100
1000
,
0001
0100
0010
1000
0001
0010
0001
1000
0100
0010
0001
1000
0010
1000
0001
0010
,
0001
1000
0010
0100
0010
1000
0001
0010
0100
1000
0010
0100
0001
1000
0010
1000
,
0100
0010
0001
1000
0010
1000
0001
0010
0100
1000
0001
0100
0001
1000
0100
1000
,
0001
0010
0100
0010
0001
0100
0010
1000
0001
0010
0100
1000
0001
1000
0010
0100
,
0010
1000
0001
0010
0100
1000
0010
0100
0001
0010
0001
1000
0100
1000
0001
0100
,
0001
1000
0010
0100
0001
0010
0100
1000
0001
0100
0001
0010
0100
1000
0010
0100
,
0001
1000
0100
1000
0001
0100
0001
1000
0010
0100
0001
0010
0100
1000
0010
0100
,
0010
1000
0001
0010
0001
0100
0010
1000
0001
0010
0100
1000
0001
0010
0001
1000
,
0100
0010
0001
1000
0010
0100
0001
1000
0010
0100
0010
1000
0001
0010
0001
1000
,
0100
1000
0001
0100
0001
1000
0100
0010
0001
0100
0001
1000
0001
0010
0100
1000
,
0001
0010
0001
0100
0010
1000
0001
1000
0100
1000
0001
0100
0001
0010
0100
1000
,
0001
0100
0001
1000
0100
0010
0001
0100
0010
0100
0001
1000
0100
1000
0001
0100
,
0010
1000
0001
1000
0001
1000
0001
1000
0001
1000
0001
1000
0001
1000
0001
1000
,
0001
0010
0100
1000
0001
0100
0001
1000
0010
1000
0100
0010
0001
0100
0010
1000
,
0001
0010
0001
1000
0010
0100
0001
1000
0010
0100
0010
1000
0001
0010
0100
1000
,
0001
0010
0001
1000
0010
1000
0001
0010
0100
0010
0001
1000
0010
0100
0010
1000
,
0001
1000
0100
0010
0001
1000
0001
0010
0100
1000
0010
0100
0010
1000
0100
0010
,
0001
1000
0001
0100
0010
1000
0001
0010
0001
1000
0001
0100
0010
1000
0001
0010
,
0001
1000
0100
0010
0001
1000
0010
0100
0010
1000
0001
0010
0100
0010
0001
1000
,
0100
1000
0001
0100
0010
1000
0001
0010
0001
1000
0010
1000
0001
0100
0010
1000
,
0001
0010
0100
1000
0010
0100
0001
1000
0100
0010
0001
1000
0001
0100
0010
1000
,
0001
0010
0100
1000
0001
0100
0010
1000
0001
0010
0001
1000
0100
1000
0010
0100
,
0001
1000
0001
0010
0100
1000
0001
0100
0001
1000
0100
0010
0001
1000
0001
0010
,
0001
1000
0010
0100
0001
1000
0100
0010
0100
1000
0001
0100
0001
1000
0100
1000
,
0001
0100
0010
1000
0001
0010
0001
1000
0010
1000
0001
0100
0001
1000
0100
0010
,
0001
0000
0101
0000
,
0000
0001
1001
0000
,
1000
0100
0010
0001
1000
0001
0100
0010
1000
0001
0010
0100
1000
0001
0100
0001
,
0010
0100
1000
0001
1000
0010
0100
0001
1000
0000
0100
0000
0000
0000
0000
0000
,
1000
0001
0010
0001
0100
0010
1000
0100
0010
0100
1000
0010
0100
0001
1000
0100
,
1000
0001
0100
0001
0010
0100
0010
0100
1000
0010
1000
0100
0010
0001
0100
0001
,
1000
0100
1000
0010
0100
0001
0100
0010
1000
0001
0100
0001
0010
0100
1000
0001
,
1000
0010
0100
0010
1000
0100
0010
0100
0010
0001
0100
0010
1000
0100
1000
0100
,
0010
0001
1000
0010
1000
0100
0010
0001
1000
0001
0100
0001
0010
0100
1000
0001
,
1000
0010
0100
0001
0010
0100
0010
0100
1000
0010
1000
0100
0010
0001
0100
0001
,
1000
0010
0100
0001
0010
0001
1000
0010
1000
0001
0100
0010
1000
0100
0010
0001
,
2000
0000
3000
0000
1000
0000
0000
0000
0001
1000
0010
1000
0010
0100
0001
1000
,
0100
0010
0001
0100
0001
0010
0100
1000
0001
1000
0010
0100
0001
0010
0001
1000
,
0010
1000
0100
0010
0100
1000
0010
0100
0001
1000
0010
0100
0001
0010
0001
1000
,
0010
1000
0001
0010
0001
0100
0010
1000
0100
0010
0001
1000
0010
1000
0100
0010
,
0001
1000
0100
0010
0100
1000
0010
0100
0001
1000
0001
0010
0100
0010
0100
1000
,
0010
1000
0001
0010
0001
0100
0010
1000
0010
0100
0001
1000
0100
0010
0001
1000
,
0001
0010
0100
1000
0010
1000
0001
0100
0010
1000
0001
0010
0001
0100
0010
1000
,
0001
1000
0100
0010
0001
0100
0001
1000
0100
0010
0100
1000
0010
0100
0001
0100
,
0010
1000
0010
0100
0001
0010
0100
0010
0001
1000
0010
0100
0010
1000
0100
0010
,
0001
1000
0001
0100
0010
1000
0010
0100
0001
0100
0010
1000
0001
0100
0001
1000
,
0010
0100
0001
1000
0100
0010
0001
1000
0100
1000
0001
0010
0100
1000
0001
1000
,
0010
1000
0001
0100
0010
0100
0001
1000
0100
0010
0100
1000
0001
0100
0010
0100
,
0001
1000
0001
0010
0100
1000
0001
0100
0001
1000
0010
0100
0001
1000
0001
0010
,
0100
1000
0001
0010
0001
1000
0010
0100
0001
1000
0100
0010
0001
1000
0100
1000
,
0001
0010
0001
1000
0010
0100
0001
1000
0100
0010
0001
1000
0100
1000
0001
0010
,
0100
0010
0001
1000
0010
0100
0010
1000
0001
0010
0100
1000
0001
1000
0010
0100
,
0001
1000
0010
0100
0001
1000
0100
0010
0100
1000
0001
0100
0001
0010
0100
1000
,
0020
0000
0000
0000
,
0000
0000
0000
0000
,
0000
0000
0000
0000
,
0000
0000
0000
0000
,
0030
0000
0000
0000
;
