#TITLE:Nightcrawler;
#SUBTITLE:;
#ARTIST:Judas Priest;
#TITLETRANSLIT:;
#SUBTITLETRANSLIT:;
#ARTISTTRANSLIT:;
#CREDIT:;
#BANNER:nightcrawler-bn.png;
#BACKGROUND:nightcrawler-bg.png;
#LYRICSPATH:;
#CDTITLE:cdtitle.PNG;
#MUSIC:Judas Priest - Nightcrawler.MP3;
#OFFSET:-0.057;
#SAMPLESTART:29.940;
#SAMPLELENGTH:10.000;
#SELECTABLE:YES;
#BPMS:0.000=96.880;
#STOPS:;
#BGCHANGES:;
// cache tags:
#FIRSTBEAT:0.000;
#LASTBEAT:244.000;
#SONGFILENAME:Songs/Fresh Flock of Fantastic Files F4/(Zaghurim) Nightcrawler/Nightcrawler.sm;
#HASMUSIC:1;
#HASBANNER:1;
#MUSICLENGTH:155.794;
// end cache tags

//---------------dance-single - ----------------
#NOTES:
     dance-single:
     :
     Hard:
     12:
     1.000,0.959,1.000,0.141,1.000,867.000,286.000,22.000,0.000,0.000:
1001
0001
0110
1000
0100
1000
0110
0100
1010
0100
0011
0100
1000
0100
0011
1000
,
0101
0000
1000
0000
0011
0000
0100
0000
1001
0000
0100
0000
0110
0000
0010
0000
1001
0000
0010
0000
0110
0000
1000
0000
0100
0000
0010
0001
0110
0000
0100
0000
,
1001
0100
0110
0010
0100
1000
0110
0100
1010
0100
0011
0100
1000
0100
0011
0100
,
1010
0000
0100
0000
0011
0000
0100
0000
1010
0000
0100
0000
0011
0000
0000
0000
0100
0010
0100
0010
0101
0000
0000
0000
0010
0100
0010
0100
1010
0000
0000
0000
,
1000
0100
1010
0001
1000
0100
0011
0001
1000
0100
0110
0001
1000
0100
1010
0001
,
1000
0100
0110
0001
1000
0100
1010
0001
1000
0100
0011
0001
1000
0100
0110
0001
,
0001
0010
0101
1000
0001
0010
1100
1000
0001
0010
0110
1000
0001
0010
0101
1000
,
0011
0110
1100
0000
1000
0100
0110
0000
0100
0010
0100
0010
0011
0100
0010
0100
,
0100
0001
1100
0010
0100
0001
1010
0010
0100
0001
1001
0010
0100
0001
1100
0010
,
0100
0001
1001
0010
0100
0001
1100
0010
0100
0001
1010
0010
0100
0001
1001
0010
,
0010
1000
0011
0100
0010
1000
0101
0100
0010
1000
1001
0100
0010
1000
0011
0100
,
1010
0000
1001
0000
0101
0000
0000
0000
0100
0000
0001
0000
1001
0000
0000
0000
0001
0000
1000
0000
0001
0000
1000
0100
0010
0000
0010
0000
0100
0000
1000
0000
,
1001
0000
0100
0010
1001
0000
0100
0010
1001
0000
0100
0010
1100
0110
0011
0000
,
1001
0000
0000
0000
0000
0000
0100
0000
0000
0010
0000
0000
1001
0000
0000
0000
0000
0000
0100
0000
0000
0010
0000
0000
0001
0000
0010
0000
0100
0000
0010
0000
0100
0000
1000
0000
0110
0000
0000
0000
0000
0000
0000
0000
0000
0000
0000
0000
,
0101
0000
0100
1000
0101
0000
0100
1000
0101
0000
0100
1000
0101
0110
0011
0000
,
0011
0000
0000
0000
1000
0000
0100
0000
0011
0000
0000
0000
1000
0000
0100
0010
0100
0000
0011
0000
0011
0000
0101
0000
0101
0000
0110
0000
0110
0000
1010
0000
,
1010
0010
0110
0010
0010
0011
0010
0010
0110
0010
0010
1010
0010
0010
0110
0010
,
0100
0100
0101
0100
0100
0110
0100
0110
1000
1000
1010
1000
0101
0100
0101
0100
,
1010
0010
0110
0010
0010
0011
0010
0010
0110
0010
0010
1010
0010
0010
0110
0010
,
0100
0000
0100
0000
0101
0000
0000
0000
0000
0000
0110
0000
0000
0000
1100
0000
0100
0000
0100
0000
0011
0000
1000
0100
0011
0000
1100
0000
0000
0000
0000
0000
,
1001
0001
0110
1000
0100
1000
0110
0100
1010
0100
0011
0100
1010
0100
0011
1000
,
0101
0000
1000
0000
0011
0000
0100
0000
1001
0000
0100
0000
0110
0000
0010
0000
1001
0000
0010
0000
0110
0000
1000
0000
0100
0000
0010
0001
0110
0000
0100
0000
,
1001
0100
0110
0010
0101
1000
0110
0100
1010
0100
0011
0100
1010
0100
0011
0100
,
1010
0000
0100
0000
0011
0000
0100
0000
1010
0000
0100
0000
0011
0000
0000
0000
0001
1000
0001
1000
0011
0000
0000
0000
1000
0001
1000
0001
1100
0000
0000
0000
,
0100
0001
1100
0010
0100
0001
1010
0010
0100
0001
1001
0010
0100
0001
1100
0010
,
0100
0001
1001
0010
0100
0001
1100
0010
0100
0001
1010
0010
0100
0001
1001
0010
,
0010
0000
1000
0000
0011
0000
0100
0000
0010
0000
1000
0000
0101
0000
0100
0000
0010
0000
1000
0000
1001
0000
0100
0000
0010
0000
1000
0000
0011
0000
0100
0010
,
0001
1000
0010
1000
0100
1000
0010
0100
0001
1000
0001
1000
1010
0001
1000
0001
,
0001
0010
0101
1000
0001
0010
1100
1000
0001
0010
0110
1000
0001
0010
0101
1000
,
0001
0010
0110
1000
0001
0010
0101
1000
0001
0010
1100
1000
0011
0011
0110
1000
,
1000
0100
1010
0001
1000
0100
0011
0001
1000
0100
0110
0001
1000
0100
1010
0001
,
1000
0100
1000
0100
0010
0100
0010
0001
0010
0001
0010
0100
0010
0100
1000
0100
0010
0000
0100
0000
0010
0000
0100
0001
1000
0000
1000
0000
0001
0000
0100
0000
,
1001
0000
0010
0100
1001
0000
0010
0100
1001
0000
0010
0100
0011
0110
1100
0000
,
1001
0000
0000
0000
0000
0000
0010
0000
0000
0100
0000
0000
1001
0000
0000
0000
0000
0000
0010
0000
0000
0100
0000
0000
1000
0000
0100
0000
0010
0000
0100
0000
0010
0000
0001
0000
0110
0000
0000
0000
0000
0000
0000
0000
0000
0000
0000
0000
,
1010
0000
0010
0001
1010
0000
0010
0001
1010
0000
0010
0001
1010
0110
1100
0000
,
1100
0000
0000
0000
0001
0000
0010
0000
1100
0000
0000
0000
0001
0000
0010
0100
0010
0000
1100
0000
1100
0000
1010
0000
1010
0000
0110
0000
0110
0000
0101
0000
,
0101
0100
0110
0100
0100
1100
0100
0100
0110
0100
0100
0101
0100
0100
0110
0100
,
0010
0010
1010
0010
0010
0110
0010
0110
0001
0001
0101
0001
1010
0010
1010
0010
,
0101
0100
0110
0100
0100
1100
0100
0100
0110
0100
0100
0101
0100
0100
0110
0100
,
0010
0000
0010
0000
1010
0000
0000
0000
0000
0000
0110
0000
0000
0000
0011
0000
0010
0000
0010
0000
1100
0000
0001
0010
1100
0000
0011
0000
0000
0000
0000
0000
,
1001
0001
0110
1000
0100
1000
0110
0100
1010
0100
0011
0100
1010
0100
0011
1000
,
0101
0000
1000
0000
0011
0000
0100
0000
1001
0000
0100
0000
0110
0000
0010
0000
1001
0000
0010
0000
0110
0000
1000
0000
0100
0000
0010
0001
0110
0000
0100
0000
,
1001
0000
0100
0000
0110
0000
0010
0000
0101
0000
1000
0000
0110
0000
0100
0000
1010
0000
0100
0000
0011
0000
0100
0000
1010
0000
0010
0100
0011
0000
0100
0000
,
1001
1010
0011
1100
,
1000
0100
1000
0100
0010
1000
0010
1000
0100
0010
0100
0010
0100
0001
0100
0001
0010
1000
0010
1000
0010
0100
0010
0100
0001
1000
0001
1000
0100
0010
0100
0010
,
0002
0023
0230
2300
,
3020
2030
3020
0000
,
2030
0000
0000
0000
3200
0000
0000
0000
0302
0000
0000
0000
0203
0000
0000
0300
,
0011
0000
0000
0110
0000
0000
1100
0000
0000
0000
0000
0000
0000
0000
0000
0000
0000
0000
0000
0000
0000
0000
0000
0000
1000
0100
0010
0001
0100
0010
1000
0100
0010
0001
0100
0010
0001
0010
0100
1000
0010
0100
0001
0010
0100
1000
0010
0100
,
0012
0023
0230
2300
,
3020
0230
0320
0000
,
2030
0000
0000
0000
3200
0000
0000
0000
0302
0000
0000
0000
0203
0000
0000
0300
,
0011
0110
1100
0000
0000
0000
0000
0000
0101
0110
1010
0000
0100
0010
0100
0010
,
1100
0000
0000
0000
0011
0000
0000
0000
1000
0000
1000
0000
0011
0000
0000
0000
1000
0000
1000
0000
0011
0000
0000
0000
1000
0000
0000
0000
0011
0000
0100
0010
,
1001
0000
0000
0000
0101
0000
0000
0000
1000
0000
1000
0000
0101
0000
0000
0000
1000
0000
1000
0000
0101
0000
0000
0000
1000
0000
1000
0000
0101
0000
0010
0100
,
0011
0000
1001
0000
0001
0001
1001
0000
0001
0001
1001
0000
0001
0001
1001
0010
,
1100
0000
0000
0000
0110
0000
0000
0000
1000
0000
1000
0000
1010
0000
0100
0010
0101
0000
0000
0000
0110
0000
0000
0000
0001
0000
0001
0000
0101
0000
0010
0100
,
1010
0000
0110
0000
0100
0100
0110
0000
0100
0100
0110
0000
0100
0100
0110
0010
,
0011
0000
1001
0000
0001
0001
1001
0000
0001
0001
1001
0000
0001
0000
0110
1000
,
0110
0000
0000
0000
1001
0000
0000
0000
0100
0000
0010
0000
1001
0000
0000
0000
0100
0000
0010
0000
1001
0000
0000
0000
0100
0000
0000
0000
0011
0000
0100
0010
,
1001
0000
0000
0000
0110
0000
0000
0000
1000
0000
1000
0000
1001
0000
0000
0000
1000
0000
1000
0000
1001
0000
0000
0000
1000
0100
0010
0001
0010
0100
0010
0100
,
1001
0000
0000
0000
;
