#TITLE:Holy Wars...The Punishment Due;
#SUBTITLE:Rust in Peace (1990);
#ARTIST:Megadeth;
#TITLETRANSLIT:;
#SUBTITLETRANSLIT:;
#ARTISTTRANSLIT:;
#CREDIT:;
#BANNER:holy wars-banner.png;
#BACKGROUND:holy wars-bg.png;
#LYRICSPATH:;
#CDTITLE:melonman67.png;
#MUSIC:01 - Holy wars... The punushment.mp3;
#OFFSET:0.000;
#SAMPLESTART:45.505;
#SAMPLELENGTH:11.880;
#SELECTABLE:YES;
#BPMS:0.000=142.631,1.500=150.000,2.500=171.429,3.500=169.972,4.500=162.602,5.500=174.419,6.000=154.753,9.500=166.205,10.500=162.162,11.500=161.725,12.500=155.440,13.500=167.598,14.000=149.875,17.000=229.008,17.500=168.421,21.500=169.492,25.500=172.290,29.500=165.746,30.000=164.384,31.000=171.429,31.500=170.132,33.000=167.539,41.000=167.189,49.000=167.306,57.000=176.471,57.500=161.725,59.500=169.492,62.000=162.933,66.000=169.252,68.000=164.609,70.000=165.005,78.000=166.090,94.000=172.131,97.500=156.863,99.500=168.539,102.000=165.615,105.500=166.436,107.500=169.811,109.000=168.539,110.000=167.064,113.500=166.667,115.500=166.667,117.000=173.913,119.000=167.224,121.500=160.858,123.500=173.010,126.000=167.393,142.000=167.715,158.000=169.163,190.000=166.436,198.000=167.306,214.000=166.913,246.000=168.414,310.000=169.245,374.000=170.940,378.000=174.419,380.000=148.515,380.500=148.331,382.500=213.270,384.000=191.489,387.000=192.926,390.000=194.384,393.000=194.489,395.000=215.054,396.000=167.832,398.000=147.783,401.000=135.440,402.000=153.846,403.000=136.986,403.500=157.068,405.000=122.200,409.000=249.480,441.000=251.704,473.000=123.045,481.000=123.865,488.500=121.131,490.000=128.127,497.000=119.048,500.000=124.870,504.000=108.108,505.000=142.180,506.000=120.724,507.000=127.119,508.000=124.095,510.000=126.316,513.000=125.589,521.000=123.823,537.000=125.106,569.000=122.919,577.000=125.000,585.000=125.261,593.000=125.130,601.000=112.994,602.000=126.416,610.000=121.704,611.000=126.449,613.000=118.343,614.000=126.582,615.000=122.951,617.000=110.294,617.500=129.032,618.500=125.000,619.000=120.000,620.000=126.316,621.000=124.740,622.000=126.050,623.000=128.755,624.000=126.316,625.000=125.523,626.000=125.098,642.000=124.635,674.000=124.514,706.000=125.074,713.000=111.940,713.500=219.619,716.000=170.455,721.000=279.070,722.000=186.916,723.000=179.238,731.000=178.571,739.000=179.868,803.000=181.320,867.000=182.325,891.000=182.718,899.000=180.587,907.000=178.563,910.000=179.783,939.000=178.503,952.000=177.003,971.000=176.898,991.000=169.678,995.000=176.898,1011.000=178.298,1020.000=177.998,1027.000=176.189,1036.000=177.189,1050.000=176.389,1051.000=162.602;
#STOPS:;
#BGCHANGES:;
// cache tags:
#FIRSTBEAT:1.500;
#LASTBEAT:1053.000;
#SONGFILENAME:Songs/Astronomic Metal Collection/holy wars (melonman67)/holy wars.sm;
#HASMUSIC:1;
#HASBANNER:1;
#MUSICLENGTH:396.128;
// end cache tags

//---------------dance-single - ----------------
#NOTES:
     dance-single:
     :
     Hard:
     13:
     1.000,1.000,1.000,0.601,1.000,2541.000,465.000,238.000,0.000,0.000:
0000
0000
0000
0000
0000
0000
0001
0010
0001
0000
0100
0001
0100
0000
0010
0100
,
0010
0000
1000
0010
1000
0000
0100
1000
0200
0000
0000
0000
0000
0000
0000
0000
,
0000
0000
0000
0000
0300
0000
0010
0001
0010
0000
0001
0100
0001
0000
0100
0010
,
0100
0000
0010
1000
0010
0000
1000
0001
2000
0000
0000
0000
0000
0000
0000
0000
,
0000
0000
0000
0000
3000
0000
0001
0100
0001
0000
0100
0010
0100
0000
0010
1000
,
0010
0000
1000
0100
1000
0000
0001
0010
0001
0000
0100
0001
0100
0000
0010
0100
,
0010
0000
1000
0010
1000
0000
0001
0100
0001
0000
0100
0010
0100
0000
0010
1000
,
0010
0000
1000
0100
0010
0001
0010
0100
1000
0001
0100
0010
0100
0000
0001
1000
,
0100
0010
0001
0010
0100
1000
0100
0010
0001
1000
0100
0010
0100
0000
1000
0001
,
0100
0010
1000
0001
2200
3300
0022
0033
1000
0001
0100
0010
0100
0000
0001
1000
,
0100
0010
0001
0010
0100
1000
0100
0010
0001
1000
0100
0010
0100
0000
1000
0001
,
0100
0010
1000
0001
2200
3300
0022
0033
1000
0001
0100
0010
0100
0000
0001
1000
,
0100
0010
0001
0010
0100
1000
0100
0010
0001
1000
0100
0010
0100
0000
1000
0001
,
0100
0010
1000
0010
0202
0303
2020
3030
1000
0001
0100
0010
0100
0000
0001
1000
,
0100
0010
0001
0100
0010
1000
0202
0000
0303
0000
1000
0010
0100
0001
0220
0000
,
0330
0000
0000
0000
0000
0000
0100
0000
0000
0001
0000
0000
2020
0000
0000
3030
0000
0000
2200
0000
0000
3300
0000
0000
2002
0000
0000
0000
0000
0000
3003
0000
0000
0000
0000
0000
0001
0000
1000
0000
0010
0000
0100
0000
0001
0000
0010
0000
,
0100
1000
0100
0010
0001
1000
0001
0100
0010
1000
0100
0010
1001
0000
0000
0000
0000
0000
0000
0000
0000
0000
0000
0000
,
0022
0000
0000
0000
0033
0000
0000
0000
0202
0000
0000
0000
0303
0000
0000
0000
2020
0000
0000
0000
3030
0000
0000
0000
1000
0000
0000
0001
0000
0000
0100
0000
0000
0010
0000
0000
0100
0000
0000
0000
0000
0000
0001
0000
0000
1000
0000
0000
,
0100
0010
0001
0010
0100
1000
0100
0010
0001
1000
0100
0010
0100
0000
1000
0001
,
0100
0010
1000
0001
2200
3300
0022
0033
1000
0001
0100
0010
0100
0000
0001
1000
,
0100
0010
0001
0010
0100
1000
0100
0010
0001
1000
0100
0010
0100
0000
1000
0001
,
0100
0010
1000
0100
0022
0033
2200
3300
1000
0001
0100
0010
0100
0000
0001
1000
,
0100
0010
0001
0010
0100
1000
0100
0010
0001
1000
0100
0010
0100
0000
1000
0001
,
0100
0010
1000
0010
0202
0303
2020
3030
1000
0001
0100
0010
0100
0000
0001
1000
,
0100
0010
0001
0100
0010
1000
0202
0000
0303
0000
1000
0010
0100
0001
0220
0000
,
0330
0000
0100
0001
2020
3030
2200
3300
1000
0001
0100
0010
0100
0000
0001
1000
,
0100
0010
0001
0100
0010
1000
0202
0000
0303
0000
1000
0010
0100
0001
0220
0000
,
0330
0000
0100
0010
2002
3003
2020
3030
1000
0001
0100
0010
0100
0000
0001
1000
,
0100
0010
0001
0010
0100
1000
0022
0000
0033
0000
1000
0010
0100
0010
2002
0000
,
3003
0000
0001
0100
2020
3030
2200
3300
1000
0001
0100
0010
0100
0000
0001
1000
,
0100
0010
0001
0010
0100
1000
0022
0000
0033
0000
1000
0010
0100
0001
0220
0000
,
0330
0000
0000
0000
0000
0000
0100
0000
0000
0001
0000
0000
2020
0000
0000
3030
0000
0000
2200
0000
0000
3300
0000
0000
0010
0000
0000
0000
0000
0000
0000
0000
0001
0000
0000
0000
0000
0000
0000
0000
0010
0000
0000
0000
0000
0000
0000
0000
,
0100
0000
0010
0000
0001
0000
0100
0000
0001
0000
0010
0000
,
1000
0000
0000
0000
0000
0000
0000
0000
0010
0000
0000
0000
0000
0000
0000
0000
0100
0000
0000
0000
0000
0000
0000
0000
1000
0000
0000
0001
0000
0000
0100
0000
0000
0010
0000
0000
0100
0000
0000
0000
0000
0000
0001
0000
0000
1000
0000
0000
,
0100
0010
0001
0010
0100
1000
0100
0010
0001
1000
0100
0010
0100
0000
1000
0001
,
0100
0000
0000
0010
0000
0000
1000
0000
0000
0010
0000
0000
0202
0000
0000
0000
0000
0000
0000
0000
0000
0303
0000
0000
1000
0000
0000
0000
0000
0000
0000
0000
0001
0000
0000
0000
0000
0000
0000
0000
0010
0000
0000
0000
0000
0000
0000
0000
,
1000
0000
0010
0000
0001
0000
0100
0000
0010
0000
0001
0000
,
1000
0000
0000
0000
0000
0000
0000
0000
0010
0000
0000
0000
0000
0000
0000
0000
0001
0000
0000
0000
0000
0000
0000
0000
1000
0000
0000
0001
0000
0000
0100
0000
0000
0010
0000
0000
0100
0000
0000
0000
0000
0000
0001
0000
0000
1000
0000
0000
,
0100
0010
0001
0010
0100
1000
0100
0010
0001
1000
0100
0010
0100
0000
1000
0001
,
0100
0000
0000
0010
0000
0000
1000
0000
0000
0010
0000
0000
0202
0000
0000
0000
0000
0000
0000
0000
0000
0303
0000
0000
0010
0000
0000
0000
0000
0000
0000
0000
0001
0000
0000
0000
0000
0000
0000
0000
0010
0000
0000
0000
0000
0000
0000
0000
,
0100
0000
0010
0000
0001
0000
0100
0000
0001
0000
0010
0000
,
1000
0000
0000
0000
0000
0000
0000
0000
0010
0000
0000
0000
0000
0000
0000
0000
0100
0000
0000
0000
0000
0000
0000
0000
1000
0000
0000
0001
0000
0000
0100
0000
0000
0010
0000
0000
0100
0000
0000
0000
0000
0000
0001
0000
0000
1000
0000
0000
,
0100
0010
0001
0010
0100
1000
0100
0010
0001
1000
0100
0010
0100
0000
1000
0001
,
0100
0000
0000
0010
0000
0000
1000
0000
0000
0010
0000
0000
0202
0000
0000
0000
0000
0000
0000
0000
0000
0303
0000
0000
1000
0000
0000
0000
0000
0000
0000
0000
0001
0000
0000
0000
0000
0000
0000
0000
0010
0000
0000
0000
0000
0000
0000
0000
,
1000
0000
0010
0000
0001
0000
0100
0000
0010
0000
0001
0000
,
1000
0000
0000
0000
0000
0000
0000
0000
0010
0000
0000
0000
0000
0000
0000
0000
0001
0000
0000
0000
0000
0000
0000
0000
1000
0000
0000
0001
0000
0000
0100
0000
0000
0010
0000
0000
0100
0000
0000
0000
0000
0000
0001
0000
0000
1000
0000
0000
,
0100
0010
0001
0010
0100
1000
0100
0010
0001
1000
0100
0010
0100
0000
1000
0001
,
0100
0010
1000
0010
0202
0303
1000
0000
1010
0000
0101
0000
1000
0000
1010
0000
,
1000
0001
1010
0101
1000
0010
0101
1010
,
1000
0000
0001
0000
1010
0000
0101
0000
1000
0001
0100
0010
0100
0000
0001
1000
,
0100
0010
0001
0010
0100
1000
0100
0010
0001
1000
0100
0010
0100
0000
1000
0001
,
0100
0010
1000
0010
0202
0303
1000
0000
1010
0000
0101
0000
1000
0000
1010
0000
,
1000
0001
1010
0101
1000
0010
0101
1010
,
1000
0000
0001
0000
1010
0000
0101
0000
1000
0001
0100
0010
0100
0000
0001
1000
,
0100
0010
0001
0010
0100
1000
0100
0010
0001
1000
0100
0010
0100
0000
1000
0001
,
0100
0010
1000
0010
0202
0303
1000
0000
1010
0000
0101
0000
1000
0000
1010
0000
,
1000
0001
1010
0101
1000
0010
0101
1010
,
1000
0000
0001
0000
1010
0000
0101
0000
1000
0001
0100
0010
0100
0000
0001
1000
,
0100
0010
0001
0010
0100
1000
0100
0010
0001
1000
0100
0010
0100
0000
1000
0001
,
0100
0010
1000
0010
0202
0303
1000
0000
1010
0000
0101
0000
1000
0000
1010
0000
,
1000
0001
1010
0101
1000
0010
0101
1010
,
1000
0000
0001
0000
1010
0000
0100
0010
1001
0000
0100
0010
0100
0000
0011
0000
,
1000
0000
0101
0000
1000
0000
0100
0010
1001
0000
0010
0100
1000
0010
0202
0000
,
0303
0000
0011
0000
0110
0000
1000
0100
1001
0000
0100
0010
0100
0000
0011
0000
,
1000
0000
0101
0000
1000
0000
0100
0010
1001
0000
0010
0100
1000
0001
2200
0000
,
3300
0000
0011
0000
0110
0000
0011
0000
0101
0000
1000
0010
1000
0010
0202
0000
,
0303
0000
0010
0000
1000
0000
0010
0000
0101
0000
1000
0010
1000
0010
0202
0000
,
0303
0000
0110
0000
1010
0000
0110
0000
1000
0010
0100
0001
0010
0000
0202
0000
,
0303
0000
0110
0000
1010
0000
0110
0000
1000
0010
0100
0001
0010
0000
0202
0000
,
0303
0000
0110
0000
1010
0000
0100
0010
1001
0000
0100
0010
0100
0000
0011
0000
,
1000
0000
0101
0000
1000
0000
0100
0010
1001
0000
0010
0100
1000
0010
0202
0000
,
0303
0000
0011
0000
0110
0000
1000
0100
1001
0000
0100
0010
0100
0000
0011
0000
,
1000
0000
0101
0000
1000
0000
0100
0010
1001
0000
0010
0100
1000
0001
2200
0000
,
3300
0000
0011
0000
0110
0000
0011
0000
0101
0000
1000
0010
1000
0010
0202
0000
,
0303
0000
0010
0000
1000
0000
0010
0000
0101
0000
1000
0010
1000
0010
0202
0000
,
0303
0000
0110
0000
1010
0000
0110
0000
1000
0010
0100
0001
0010
0000
0202
0000
,
0303
0000
0110
0000
1010
0000
0110
0000
1000
0010
0100
0001
0010
0000
0202
0000
,
0303
0000
0110
0000
1010
0000
0100
0010
1001
0000
0100
0010
0100
0000
0011
0000
,
1000
0000
0101
0000
1000
0000
0100
0010
1001
0000
0010
0100
1000
0010
0202
0000
,
0303
0000
0011
0000
0110
0000
1000
0100
1001
0000
0100
0010
0100
0000
0011
0000
,
1000
0000
0101
0000
1000
0000
0100
0010
1001
0000
0010
0100
1000
0001
2200
0000
,
3300
0000
0011
0000
0110
0000
0011
0000
0101
0000
1000
0010
1000
0010
0202
0000
,
0303
0000
0010
0000
1000
0000
0010
0000
0101
0000
1000
0010
1000
0010
0202
0000
,
0303
0000
0110
0000
1010
0000
0110
0000
1000
0010
0100
0001
0010
0000
0202
0000
,
0303
0000
0110
0000
1010
0000
0110
0000
1000
0010
0100
0001
0010
0000
0202
0000
,
0303
0000
0110
0000
1010
0000
0100
0010
1001
0000
0100
0010
0100
0000
0011
0000
,
1000
0000
0101
0000
1000
0000
0100
0010
1001
0000
0010
0100
1000
0010
0202
0000
,
0303
0000
0011
0000
0110
0000
1000
0100
1001
0000
0100
0010
0100
0000
0011
0000
,
1000
0000
0101
0000
1000
0000
0100
0010
1001
0000
0010
0100
1000
0001
2200
0000
,
3300
0000
0011
0000
0110
0000
0011
0000
0101
0000
1000
0010
1000
0010
0202
0000
,
0303
0000
0010
0000
1000
0000
0010
0000
0101
0000
1000
0010
1000
0010
0202
0000
,
0303
0000
0110
0000
1010
0000
0110
0000
1000
0010
0100
0001
0010
0000
0202
0000
,
0303
0000
0110
0000
1010
0000
0110
0000
1000
0010
0100
0001
0010
0000
0202
0000
,
0303
0000
0110
0000
1010
0000
0100
0010
0001
0000
0100
0001
0100
0000
0010
0100
,
0010
0000
1000
0010
1000
0000
0100
1000
0200
0000
0000
0000
0000
0000
0300
0000
,
0100
0000
0000
0010
0000
0000
0002
0000
0000
0000
0000
0000
0000
0000
0000
0000
0000
0000
0000
0000
0000
0000
0000
0000
0000
0000
0000
0000
0000
0000
1003
0000
0000
0000
0000
0000
0000
0000
0000
0000
0100
0000
0000
0000
0000
0000
0000
0000
,
0010
0000
0000
0001
0000
0100
1000
0100
0000
0001
0000
0000
0010
0000
0100
0000
1000
0000
0001
0000
0010
0000
0100
0000
,
0010
0000
0000
0000
0100
0000
0000
0000
1000
0000
0000
0000
0001
0000
0000
0000
0000
0000
1000
0000
0000
0001
0000
0000
1000
0000
0000
0000
0000
0000
0100
0000
0000
0010
0000
0000
0100
0000
0000
0000
0000
0000
1000
0000
0000
0010
0000
0000
,
1000
0000
0000
0000
0000
0000
0010
0000
0000
0100
0000
0000
0010
0000
0000
0000
0000
0000
1000
0000
0000
0000
0000
0000
0110
0000
0000
0000
0000
0000
0100
0000
0000
0000
0000
0000
0010
0000
0001
0000
0010
0000
0100
0000
0000
0000
0000
0000
,
1000
0000
0000
0001
0000
0000
1000
0000
0000
0100
0000
0000
1000
0000
0100
0000
0010
0000
0100
0000
1000
0000
0001
0000
,
0010
0100
1000
0001
0010
0100
1000
0000
0001
0000
0010
0000
0100
0000
2000
0000
,
0000
3000
0022
0000
0000
0000
0000
0000
,
0000
0033
0101
0000
1010
0000
0100
0000
,
1010
0100
0001
0101
,
1010
0100
1010
0100
,
1000
0100
0010
0002
,
0000
0003
0101
0000
1010
0000
0100
0000
,
1010
0100
0001
0101
,
1010
0100
1010
0100
,
1000
0100
0010
0002
,
0000
0003
0101
0000
1010
0000
0100
0000
,
1010
0100
0001
0101
,
1010
0100
1010
0100
,
1000
0100
0010
0002
,
0000
0003
0101
0000
1010
0000
0100
0000
,
1010
0100
0001
0101
,
1010
0100
1010
0100
,
1000
0100
0010
0002
,
0000
0003
1001
1000
0100
1000
0010
1000
,
0110
0022
0000
0000
0000
0000
0000
0000
,
0000
0033
2000
0000
3100
1000
0010
1000
,
0100
1000
0001
0010
0100
1000
0001
0010
,
0100
2002
3003
1000
0100
1000
0010
1000
,
0110
0022
0000
0000
0000
0000
0000
0000
,
0000
0033
2000
0000
3100
1000
0010
1000
,
0110
1100
0001
0010
0110
1100
0001
0010
,
0110
1100
0001
1000
0100
1000
0011
1000
,
0110
0022
0033
0001
1000
0100
0011
0100
,
1000
0001
1001
1000
0100
1000
0011
1000
,
0110
1100
0001
0010
0110
1100
0011
0010
,
0110
1100
0001
1000
0100
1000
0011
1000
,
0110
0022
0033
0001
1000
0100
0011
0001
,
1000
0100
1001
1000
0100
1000
0011
1000
,
0110
1100
0001
0010
0110
1100
0011
0010
,
0110
1100
0010
1000
0100
1000
0011
1000
,
0110
0022
0033
0001
1000
0100
0011
0100
,
1000
0001
1001
1000
0100
1000
0011
1000
,
0110
1100
0001
0010
0110
1100
0011
0010
,
0110
1100
0001
1000
0100
1000
0011
1000
,
0110
0022
0033
1000
0001
1000
0011
1000
,
0010
0000
0000
0100
0000
0000
1001
0000
0000
1000
0000
0000
0100
0000
0000
1000
0000
0000
0011
0000
0000
1000
0001
1000
,
0110
0000
0000
1100
0000
0000
0001
0000
0000
1000
0001
1000
0110
0000
0000
1100
0000
0000
0001
0000
0000
1000
0001
1000
,
0110
0000
1100
0000
0100
0000
1000
0000
0100
1000
0100
0010
0001
0010
0100
1000
,
0100
0010
0100
0010
0001
0010
0100
1000
0100
0010
0100
0010
0001
0001
1000
1000
,
0010
0100
0010
0000
0100
0000
0002
0000
0000
0000
0000
0000
0013
0100
2000
0000
,
0000
0000
0000
3100
0020
0000
0000
0000
0000
0000
0000
0000
0030
0000
0020
0000
0030
0000
0020
0000
0000
0000
0000
0000
,
0000
0000
0000
0032
0000
0000
0000
0000
0000
0000
0003
0000
0002
0000
0000
0000
0003
0000
0002
0000
0000
0000
0003
0000
,
0002
0000
0000
0000
0000
0000
0203
0000
0000
0000
0000
0000
0000
0000
0000
0000
0000
0000
0000
0000
0300
0000
0000
0000
0100
0000
0000
0001
0000
0000
0010
0000
0000
0100
0000
0000
1000
0000
0000
0001
0000
0000
0100
0000
0000
0010
0000
0000
,
2000
0000
0000
0000
0000
0000
0000
0000
0000
0000
0000
0000
0000
0000
3000
0000
0000
0000
1100
0000
0000
1100
0000
0000
1010
0000
0000
0000
0000
0000
1001
0000
0000
0000
0000
0000
1010
0000
0000
1010
0000
0000
0110
0000
0000
0110
0000
0000
,
0101
0000
0000
0011
0000
0000
1100
0000
0000
0000
0000
0000
1000
0000
0100
0000
0010
0000
0001
0000
0100
0000
0010
0000
1000
0000
0100
0000
0010
0000
0001
0000
1000
0000
0010
0000
0100
0000
0001
0000
0010
0000
0100
0000
1000
0000
0010
0000
,
0100
0001
1000
0010
0100
0001
0010
0100
1000
0001
0000
0000
1001
0000
0000
1000
0000
0000
0100
0000
0000
1000
0000
0000
,
0010
1000
0110
0022
0033
0001
1000
0001
,
1000
0000
0000
0001
0000
0000
1000
0100
0000
0000
0000
0000
1001
0000
0000
0000
0000
0000
0100
0000
0000
1000
0000
0000
,
0010
1000
0110
1100
0001
0010
0110
1100
,
0001
0010
0110
1100
0001
1000
0100
1000
,
0011
1000
0110
0022
0033
0001
1000
0100
,
0011
0100
0010
0100
1001
1000
0100
1000
,
0011
1000
0110
1100
0001
0010
0110
1100
,
0011
0010
0110
1100
0001
1000
0100
1000
,
0011
1000
0110
0022
0033
0001
1000
0100
,
0011
0100
1000
0001
1001
1000
0100
1000
,
0011
1000
0110
1100
0001
0010
0110
1100
,
0011
0010
0110
1100
0010
1000
0100
1000
,
0011
1000
0110
0022
0033
1000
0001
0010
,
0011
1000
0100
0010
1001
1000
0100
1000
,
0011
1000
0110
1100
0001
0010
0110
1100
,
0001
0010
0110
1100
0001
1000
0100
1000
,
0011
1000
0110
0022
0033
0001
1000
0001
,
0011
0001
1000
0001
1001
1000
0100
1000
,
0011
0000
0000
1000
0001
1000
0110
0000
0000
1100
0000
0000
0001
0000
0000
1000
0001
1000
0110
0000
0000
1100
0000
0000
,
0001
0000
0000
0000
0000
0000
1000
0000
0001
0000
1000
0000
0110
0000
0000
0000
0000
0000
1200
0000
0000
0000
0000
0000
0000
0000
0000
0000
0000
0000
0000
0000
0000
0000
0000
0000
0300
0000
0000
0000
0000
0000
0010
0000
0000
0100
0000
0000
,
0010
0001
0100
0010
0100
0010
2000
0000
0000
0000
0000
0000
0000
0000
3010
1000
,
0010
1000
0001
1000
0020
0000
0000
0000
0000
0000
1030
0000
0100
0000
0010
0000
,
0001
0000
0000
0000
0000
0000
0010
0000
0001
0000
0010
0000
0100
0000
0000
1000
0000
0000
0002
0000
0000
0000
0000
0000
0000
0000
0000
0000
0000
0000
0003
0000
0000
0000
0000
0000
1000
0000
0000
0000
0000
0000
0200
0000
0000
0000
0000
0000
,
0000
0000
0000
0000
0000
0000
1300
0000
0010
0000
1000
0100
0010
0001
0020
0000
,
0000
0000
0030
0000
0100
0000
0010
0100
0010
0001
0010
0100
1000
0010
0100
0001
,
0010
0100
1000
0100
0020
0000
0000
0000
0032
0000
0000
0000
0003
0000
1000
0100
,
2000
0000
3100
0010
0010
0001
0100
0010
,
0020
0030
1001
2020
0000
3030
0001
0000
,
1000
0000
0001
0000
1000
0000
0001
1000
0001
0000
1000
0000
0001
0000
1000
0001
,
1000
0000
0001
1000
0001
0000
0000
0000
0101
0000
1010
0000
1100
0000
0011
0000
,
1000
1100
0001
1000
1100
0011
1000
0100
,
0011
1100
0010
0001
1100
0011
2002
3003
,
1000
0000
0001
0000
1000
0000
0001
0000
1000
0001
1000
0000
0001
0000
1000
0000
,
0001
1000
0001
0000
1000
0001
1000
0010
0101
0000
1010
0000
1100
0000
0011
0000
,
1000
1100
0001
1000
1100
0011
1000
0100
,
0011
1100
0010
0001
1100
0011
2002
3003
,
1000
0000
0001
0000
1000
0000
0001
0000
1000
0001
1000
0000
0001
0000
1000
0000
,
0001
1000
0001
0000
1000
0001
1000
0010
0101
0000
1010
0000
1100
0000
0011
0000
,
1000
1100
0001
1000
1100
0011
1000
0100
,
0011
1100
0010
0001
1100
0011
2002
3003
,
1000
0000
0001
0000
1000
0000
0001
0000
1000
0001
1000
0000
0001
0000
1000
0000
,
0001
1000
0001
0000
1000
0001
1000
0010
0101
0000
1010
0000
1100
0000
0011
0000
,
1000
1100
0001
1000
1100
0011
1000
0100
,
0011
1100
0010
0001
1100
0011
2002
3003
,
1000
0000
0001
0000
0100
0000
0010
0000
1000
0001
0010
0100
1000
0001
0100
0000
,
0010
1000
0100
0000
0010
0001
1000
0000
0101
0000
1010
0000
2000
0000
0000
0000
,
3000
0000
1000
0100
2000
0000
0000
0000
3000
0000
1000
0100
2000
0000
0000
0000
,
3000
0000
0000
0000
0000
0000
1000
0000
0000
0100
0000
0000
2000
0000
0000
0000
0000
0000
0000
0000
0000
0000
0000
0000
0000
0000
0000
0000
0000
0000
3000
0000
0000
0000
0000
0000
0001
0000
0010
0000
0100
0000
0000
0000
1000
0000
0000
0000
,
1000
0000
0000
0000
1000
0000
0000
0000
0100
0000
0010
0000
0001
0000
0000
1000
0000
0000
0010
0000
0000
0100
0000
0000
0001
0000
0000
0010
0000
0000
0100
0000
0000
1000
0000
0000
0002
0000
0000
0000
0000
0000
0013
0000
0000
0100
0000
0000
,
1000
0010
0100
0001
1000
0001
0010
0100
2000
0000
3001
1000
0020
0000
0130
0001
,
0100
0010
1000
0001
0010
0100
1000
0010
1000
0001
0100
0010
1000
0100
0010
0100
,
1000
0001
0010
0100
0010
0001
0100
0010
1000
0100
0010
0001
2000
0000
0000
0000
,
0000
0000
0000
0000
0000
0000
0000
0000
0000
0000
3001
0000
1000
0010
1000
0000
,
0001
0100
0001
0000
0100
0010
0100
0000
0010
1000
0010
0000
1000
0100
0010
0100
,
1000
0001
0100
0010
0100
0001
0010
0100
1000
0100
0010
0001
1000
0010
0100
0001
,
0010
0001
1000
0010
0100
0001
1000
0010
0100
0001
1000
0100
1000
0010
0100
0001
,
0010
0000
0001
0000
0100
0000
0010
0000
1000
0000
0100
0000
0010
0001
1000
0000
0000
0000
0100
0000
1000
0000
0100
0000
0010
0001
1000
0000
0000
0000
0100
0000
,
1000
0000
0100
0000
0010
0001
1000
0000
0000
0000
0100
0000
1000
0000
0100
0000
0010
0001
1000
0000
0100
0000
0010
0000
0002
0000
0000
0000
0000
0000
0000
0000
,
0003
0000
1000
0000
0001
0010
0100
1000
0010
0100
0001
0010
0001
1000
0010
0100
,
0001
0010
0100
1000
0100
0001
0100
1000
0001
1000
0010
0100
0010
1000
0100
1000
,
0010
1000
0001
1000
0100
1000
0010
1000
0001
1000
0100
1000
0010
1000
0100
1000
,
0010
1000
0001
1000
0100
1000
0010
1000
0001
1000
0100
1000
0010
1000
0100
1000
,
0010
1000
0001
1000
0100
1000
0010
1000
0001
1000
0100
1000
0010
1000
0100
1000
,
0010
1000
0001
1000
0100
1000
0010
1000
0001
1000
0100
1000
0010
1000
0100
1000
,
0001
1000
0100
1000
0010
1000
0100
1000
0001
1000
0100
1000
0010
1000
0100
1000
,
0001
1000
0100
1000
0010
1000
0100
1000
0001
1000
0100
1000
0001
0010
0100
0010
,
0100
1000
0001
0100
0010
0100
0010
1000
0001
0010
0100
0010
0100
1000
0001
0100
,
0010
0000
0000
0100
0000
0000
0010
0000
0000
1000
0000
0000
0001
0000
0000
0010
0000
0000
0100
0000
0000
0010
0000
0000
0100
0000
0000
1000
0000
0000
0100
0000
0000
0010
0000
0000
0001
0000
0010
0000
0000
0000
0100
0000
0000
1000
0000
0000
,
0001
0000
0010
0000
0000
0000
0100
0000
0000
1000
0000
0000
0001
0000
0010
0000
0000
0000
0100
0000
0000
1000
0000
0000
0001
0000
0010
0000
0000
0000
0100
0000
0000
1000
0000
0000
0001
0000
0100
0000
0000
0000
0010
0000
0000
1000
0000
0000
,
0001
0000
0100
0000
0000
0000
0010
0000
0000
1000
0000
0000
0001
0000
0100
0000
0000
0000
0010
0000
0000
1000
0000
0000
0001
0000
0100
0000
0000
0000
0010
0000
0000
1000
0000
0000
0001
0000
0010
0000
0000
0000
0100
0000
0000
1000
0000
0000
,
0001
0000
0010
0000
0000
0000
0100
0000
0000
1000
0000
0000
0001
0000
0010
0000
0000
0000
0100
0000
0000
1000
0000
0000
0001
0000
0010
0000
0000
0000
0100
0000
0000
1000
0000
0000
0001
0000
1000
0000
0000
0000
0100
0000
0000
1000
0000
0000
,
0001
0000
1000
0000
0000
0000
0100
0000
0000
1000
0000
0000
0001
0000
1000
0000
0000
0000
0100
0000
0000
1000
0000
0000
0001
0000
1000
0000
0000
0000
0100
0000
0000
1000
0000
0000
0001
0000
0100
0000
0000
0000
1000
0000
0000
0100
0000
0000
,
0001
0000
0100
0000
0000
0000
1000
0000
0000
0100
0000
0000
0001
0000
0010
0000
0000
0000
1000
0000
0000
0010
0000
0000
0001
0000
0010
0000
0000
0000
1000
0000
0000
0010
0000
0000
0001
0000
0100
0000
0000
0000
0010
0000
0000
0100
0000
0000
,
0001
0000
0100
0000
0000
0000
0010
0000
0000
0100
0000
0000
0001
0000
0010
0000
0000
0000
0100
0000
0000
0010
0000
0000
0001
0000
0010
0000
0100
0000
1000
0000
0100
0000
0010
0000
0002
0000
0000
0000
0000
0000
0000
0000
0000
0000
0000
0000
,
0000
0000
0003
0002
0000
0000
0000
0000
0003
0002
0003
0002
,
0003
0000
0000
0000
0002
0000
0000
0000
0003
0000
0000
0000
0001
0000
0000
0000
0000
0000
1000
0000
0000
0010
0000
0000
0100
0000
0000
0001
0000
0000
0010
0000
0000
0100
0000
0000
1000
0000
0000
0001
0000
0000
0100
0000
0000
0010
0000
0000
,
0100
0000
0001
1000
0010
0000
0100
0000
1001
0000
0100
0000
0001
1000
0100
0010
,
0100
0000
1000
0001
0100
0010
0100
0000
2020
0000
3030
0000
1000
0001
0100
0010
,
0100
0000
0001
1000
0001
0000
0100
0000
1001
0000
0100
0000
0001
1000
0100
0010
,
0100
0000
0001
1000
0010
0000
0100
0000
2020
0000
3030
0000
1000
0001
0100
0010
,
0100
0000
0001
1000
0010
0000
0100
0000
1001
0000
0100
0000
1000
0001
0010
0100
,
0010
0000
0001
1000
0010
0000
0100
0000
2020
0000
3030
0000
1000
0001
0010
0100
,
0010
0000
0001
1000
0100
0000
0010
0000
1001
0000
0010
0000
0001
1000
0100
0010
,
0100
0000
0000
0000
0000
0000
1000
0000
0000
0001
0000
0000
0010
0000
0000
0100
0000
0000
0010
0000
0000
0001
0000
0000
1000
0000
0000
0010
0000
0000
0100
0000
0000
0001
0000
0000
0010
0000
0000
0000
0000
0000
0000
0000
0001
0000
0000
0000
,
0000
0010
0000
0100
0000
0010
0000
0001
0000
0101
0000
0001
,
0000
0000
0000
0000
0010
0000
0000
0000
0000
0000
0000
0000
1010
0000
0000
0000
0000
0000
0000
0000
0010
0000
0000
0000
0000
0000
0000
0000
0100
0000
0000
0000
0000
0000
0000
0000
1000
0000
0000
0001
0000
0000
0100
0000
0000
0010
0000
0000
,
0100
0000
0001
1000
0100
0000
0010
0000
1001
0000
0010
0000
0001
1000
0100
0010
,
0100
0000
0000
0000
0000
0000
1000
0000
0000
0001
0000
0000
0100
0000
0000
0010
0000
0000
0100
0000
0000
0000
0000
0000
2020
0000
0000
0000
0000
0000
3030
0000
0000
0000
0000
0000
1000
0000
0000
0000
0000
0000
0000
0000
0001
0000
0000
0000
,
0000
0010
0000
1000
0000
0010
0000
0001
0000
0110
0000
0010
,
0000
0000
0000
0000
0001
0000
0000
0000
0000
0000
0000
0000
1100
0000
0000
0000
0000
0000
0000
0000
0010
0000
0000
0000
0000
0000
0000
0000
0001
0000
0000
0000
0000
0000
0000
0000
1000
0000
0000
0001
0000
0000
0100
0000
0000
0010
0000
0000
,
0100
0000
0001
1000
0100
0000
0010
0000
1001
0000
0010
0000
0001
1000
0100
0010
,
0100
0000
0000
0000
0000
0000
1000
0000
0000
0001
0000
0000
0010
0000
0000
0100
0000
0000
0010
0000
0000
0000
0000
0000
2200
0000
0000
0000
0000
0000
3300
0000
0000
0000
0000
0000
0010
0000
0000
0000
0000
0000
0000
0000
0001
0000
0000
0000
,
0000
0010
0000
0100
0000
0010
0000
0001
0000
0101
0000
0001
,
0000
0000
0000
0000
0010
0000
0000
0000
0000
0000
0000
0000
1010
0000
0000
0000
0000
0000
0000
0000
0010
0000
0000
0000
0000
0000
0000
0000
0100
0000
0000
0000
0000
0000
0000
0000
1000
0000
0000
0001
0000
0000
0100
0000
0000
0010
0000
0000
,
0100
0000
0001
1000
0100
0000
0010
0000
1001
0000
0010
0000
0001
1000
0100
0010
,
0100
0000
0000
0000
0000
0000
1000
0000
0000
0001
0000
0000
0100
0000
0000
0010
0000
0000
0100
0000
0000
0000
0000
0000
2020
0000
0000
0000
0000
0000
3030
0000
0000
0000
0000
0000
1000
0000
0000
0000
0000
0000
0000
0000
0001
0000
0000
0000
,
0000
0010
0000
1000
0000
0010
0000
0001
0000
0110
0000
0101
,
0000
0000
0000
0000
0011
0000
0000
0000
0000
0000
0000
0000
1100
0000
0000
0000
0000
0000
0000
0000
0101
0000
0000
0000
0000
0000
0000
0000
0011
0000
0000
0000
0000
0000
0000
0000
1000
0000
0000
0001
0000
0000
0100
0000
0000
0010
0000
0000
,
0100
0000
0001
1000
0100
0000
0010
0000
1001
0000
0010
0000
0001
1000
0100
0010
,
0100
0000
1000
0001
0100
0010
0100
0000
2020
0000
3030
0000
1000
0001
0100
0010
,
0100
0000
0001
1000
0100
0000
0010
0000
1001
0000
0010
0000
0001
1000
0100
0010
,
0100
0000
1000
0001
0100
0010
0100
0000
2020
0000
3030
0000
1000
0001
0100
0010
,
0100
0000
0001
1000
0100
0010
0001
0010
0100
1000
0100
0010
0001
1000
0100
0010
,
0100
0000
1000
0001
0100
0010
1000
0010
0100
0001
1000
0010
1000
0001
0100
0010
,
0100
0000
0001
1000
0100
0010
0001
0010
0100
1000
0100
0010
0001
1000
0100
0010
,
0100
0000
1000
0001
0100
0010
1000
0010
0202
0303
2020
3030
1010
0000
0101
0000
,
1000
1010
1000
0001
1010
0101
1000
0010
,
0101
1010
1000
0001
1010
0101
1100
0011
,
1000
1100
0010
0001
1100
0011
1000
0100
,
0011
1100
0001
0010
1100
0011
1010
0101
,
1000
1010
1000
0001
1010
0101
1000
0010
,
0101
0000
1010
0000
1000
0000
0001
0000
1010
0000
0001
0100
0001
0000
1000
0010
,
2002
3003
0000
0000
;
