#TITLE:Exam Cram;
#SUBTITLE:;
#ARTIST:Rushjet1;
#TITLETRANSLIT:;
#SUBTITLETRANSLIT:;
#ARTISTTRANSLIT:;
#CREDIT:;
#BANNER:Exam Cram - bn.png;
#BACKGROUND:Exam Cram - bg.png;
#LYRICSPATH:;
#CDTITLE:../aCD.png;
#MUSIC:Exam Cram.ogg;
#OFFSET:-0.469;
#SAMPLESTART:83.410;
#SAMPLELENGTH:12.000;
#SELECTABLE:YES;
#DISPLAYBPM:151.000;
#BPMS:0.000=150.420,48.000=150.480,64.000=150.490,96.000=150.530,128.000=150.490,160.000=150.510,192.000=150.540,224.000=151.230,256.000=151.020;
#STOPS:;
#BGCHANGES:;
// cache tags:
#FIRSTBEAT:16.000;
#LASTBEAT:275.500;
#SONGFILENAME:Songs/Aoreo's Index Jawn 2/Exam Cram - [Aoreo]/Exam Cram.sm;
#HASMUSIC:1;
#HASBANNER:1;
#MUSICLENGTH:113.376;
// end cache tags

//---------------dance-single - J. Nero----------------
#NOTES:
     dance-single:
     J. Nero:
     Challenge:
     29:
     1.000,1.000,0.071,0.009,1.000,1413.000,8.000,1.000,0.000,0.000:
0000
0000
0000
0000
,
0000
0000
0000
0000
,
0000
0000
0000
0000
,
0000
0000
0000
0000
,
1000
0000
1000
0000
0010
0100
0000
0100
0000
0001
0010
0000
0010
0000
0001
0000
,
1000
0000
1000
0000
0010
0100
0000
0100
0000
0001
0010
0000
0010
0000
0001
0000
,
1000
0000
1000
0000
0100
0010
0000
0010
0000
0001
0100
0000
0100
0000
0001
0000
,
1000
0000
1000
0000
0100
0010
0000
0010
0000
0001
0100
0000
0100
0000
0001
0000
,
0101
0000
0100
0000
0001
0010
0000
0010
0000
0100
1000
0000
1001
0000
0001
0000
,
0101
0000
0100
0000
0001
0010
0000
0010
0000
0100
1000
0000
1001
0000
0001
0000
,
0011
0000
0010
0000
0001
0100
0000
0100
0000
0010
1000
0000
1001
0000
0001
0000
,
0011
0000
0010
0000
0001
0100
0000
0100
0000
0010
1000
0000
1001
0000
0001
0000
,
1000
0010
1000
0010
0100
0010
1000
0010
1000
0010
1000
0010
0100
0001
0010
0100
,
1000
0001
1000
0001
0100
0001
1000
0001
1000
0001
1000
0001
0100
0001
0010
0100
,
1000
0001
1000
0001
0010
0001
1000
0001
1000
0001
1000
0001
0010
0001
0100
0010
,
1000
0100
1000
0100
0010
0100
1000
0100
1000
0100
1000
0100
0010
0001
1000
0010
,
1000
0001
0010
0100
1000
0010
0100
0001
1000
0100
0010
0001
1000
0010
0100
0001
,
1000
0001
0010
0100
1000
0010
0100
0001
1000
0100
0010
0001
1000
0001
0010
0100
,
1000
0001
1000
0100
0010
0100
1000
0001
0010
0100
1000
0010
0100
0001
1000
0100
,
0010
0001
0100
0010
1000
0001
0010
0100
1000
0001
1000
0010
0100
0001
1000
0100
,
0010
0001
1000
0010
0100
0001
1000
0100
1000
0010
0100
0001
1000
0001
0010
0100
,
1000
0001
1000
0001
0010
0100
1000
0010
0100
0001
1000
0100
1000
0010
0100
0001
,
0010
0100
1000
0010
0100
0001
1000
0100
0010
0001
0100
0010
0100
0001
1000
0001
,
0010
0100
1000
0010
0100
0001
0100
0010
1000
0100
0010
0001
0100
0010
1000
0001
,
1000
0010
0100
0010
1000
0001
1000
0100
0010
0001
1000
0001
0100
0010
1000
0010
0100
0001
1000
0100
0010
0100
1000
0001
1000
0100
0010
0001
1000
0001
0100
0010
,
1000
0010
0100
0001
1000
0001
0010
0100
0010
0001
1000
0001
0100
0010
1000
0010
0100
0001
1000
0001
0010
0100
1000
0001
1000
0010
0100
0010
1000
0001
1000
0100
,
0010
0100
1000
0001
1000
0010
0100
0010
1000
0001
0100
0010
0100
0001
1000
0100
0010
0100
1000
0001
1000
0010
0100
0010
1000
0001
0010
0100
1000
0010
0100
0001
,
0100
0010
1000
0001
0100
0001
1000
0100
0010
0001
1000
0001
0100
0010
0100
0001
1000
0010
1000
0100
0010
0001
0100
0001
1000
0010
0100
0010
1000
0001
0100
0010
,
0100
0001
1000
0001
0010
0100
1000
0001
1000
0010
0100
0001
1000
0100
0010
0001
0100
0001
1000
0010
1000
0100
0010
0001
0100
0001
1000
0010
0100
0010
1000
0001
,
0010
0100
0010
0001
1000
0001
0100
0010
1000
0010
0100
0001
1000
0100
0010
0001
0100
0010
1000
0100
0010
0001
1000
0001
0100
0010
0100
0001
1000
0100
0010
0100
,
1000
0001
1000
0010
0100
0010
1000
0001
0010
0100
0010
0001
0100
0010
1000
0100
0010
0001
1000
0001
0100
0010
0100
0001
1000
0001
0010
0100
1000
0001
1000
0010
,
0100
0001
0100
0010
1000
0001
0010
0100
0010
0001
0100
0010
1000
0100
0010
0001
0100
0010
1000
0010
0100
0001
1000
0100
0010
0100
1000
0001
0100
0010
0100
0001
,
1000
0001
1000
0001
0010
0100
1000
0100
1000
0001
0010
0100
0010
0001
1000
0100
,
1000
0001
0010
0100
0010
0001
1000
0001
1000
0010
0100
0001
0100
0001
1000
0100
,
0010
0001
0010
0001
0100
0010
1000
0010
1000
0001
0100
0010
0100
0001
1000
0010
,
0100
0001
0010
0100
1000
0010
0100
0010
1000
0001
0100
0001
0010
0100
1000
0001
,
0100
0010
0100
0001
0010
0100
1000
0100
1000
0001
0010
0100
0010
0001
1000
0001
,
0010
0100
1000
0001
0100
0010
1000
0001
0100
0001
0010
0100
0010
0001
1000
0100
,
0010
0001
0010
0100
1000
0010
0100
0001
1000
0001
0010
0100
1000
0001
1000
0010
,
0100
0001
1000
0001
0010
0001
0100
0010
1000
0001
1000
0001
0010
0100
1000
0001
,
1000
0010
1000
0010
1000
0100
1000
0100
1000
0001
0100
0001
0010
0100
0010
0001
,
1000
0010
1000
0010
1000
0100
1000
0100
1000
0001
0100
0001
0010
0100
0010
0001
,
0100
0001
0100
0001
0010
0001
0010
0001
1000
0010
1000
0100
1000
0001
0010
0001
,
0100
0001
0100
0001
0010
0001
0010
0001
1000
0010
1000
0100
1000
0001
0010
0001
,
1000
0100
1000
0100
1000
0010
1000
0010
1000
0001
0010
0001
0100
0010
0100
0001
,
1000
0100
1000
0100
1000
0010
1000
0010
1000
0001
0010
0001
0100
0010
0100
0001
,
0010
0001
0010
0001
0100
0001
0100
0001
1000
0100
1000
0010
1000
0001
0100
0001
,
0010
0001
0010
0001
0100
0001
0100
0001
1000
0100
1000
0010
1000
0001
0100
0001
,
1000
0010
1000
0001
0100
0010
0100
0001
1000
0001
0010
0100
1000
0010
0100
0010
1000
0100
0010
0001
0100
0001
1000
0010
0100
0010
1000
0001
0100
0001
1000
0100
,
0010
0100
1000
0001
1000
0100
0010
0001
0100
0001
1000
0010
0100
0010
1000
0001
0010
0100
0010
0001
0100
0010
1000
0010
0100
0001
1000
0001
0010
0100
1000
0001
,
1000
0010
0100
0001
1000
0100
0010
0100
1000
0001
1000
0010
0100
0001
1000
0100
0010
0001
0100
0001
0010
0100
1000
0010
0100
0010
1000
0001
0100
0001
1000
0100
,
0010
0100
1000
0001
0100
0001
1000
0010
0100
0010
1000
0001
1000
0100
0010
0001
0100
0001
1000
0010
1000
0100
0010
0001
1000
0010
0100
0010
1000
0001
1000
0100
,
0010
0001
1000
0001
0100
0010
1000
0010
0100
0001
1000
0001
0010
0100
0010
0001
0100
0001
1000
0100
0010
0001
0100
0001
1000
0010
0100
0010
1000
0001
1000
0100
,
0010
0100
1000
0001
0100
0010
1000
0010
0100
0001
1000
0100
0010
0001
0100
0001
0010
0100
1000
0010
0100
0010
1000
0001
1000
0100
0010
0100
1000
0001
1000
0100
,
0010
0001
1000
0001
0100
0010
1000
0010
0100
0001
1000
0001
0010
0100
0010
0001
0100
0010
1000
0100
0010
0001
1000
0001
0100
0010
0100
0001
1000
0100
0010
0100
,
1000
0001
0100
0001
1000
0010
0100
0010
1000
0001
1000
0100
0010
0001
0100
0001
0010
0100
1000
0010
0100
0010
1000
0001
1000
0100
0010
0100
1000
0001
0100
0010
,
1000
0100
0010
0001
0100
0001
1000
0010
0100
0010
1000
0100
0010
0001
0100
0001
1000
0010
0100
0010
1000
0001
0010
0100
0010
0001
0100
0010
1000
0010
0100
0001
,
1000
0100
0010
0001
0100
0001
1000
0010
0100
0010
1000
0001
0010
0100
1000
0010
0100
0001
1000
0100
0010
0100
1000
0010
0100
0001
1000
0001
0010
0100
1000
0010
,
0100
0001
0100
0010
1000
0001
0010
0100
0010
0001
0100
0010
1000
0010
0100
0001
1000
0100
0010
0001
0100
0001
1000
0100
0010
0100
1000
0010
0100
0001
1000
0100
,
0010
0001
0100
0001
1000
0010
1000
0100
0010
0001
1000
0001
0100
0010
0100
0001
0010
0100
0010
0001
1000
0001
0100
0010
1000
0100
0010
0001
1000
0001
0100
0010
,
0100
0001
1000
0100
0010
0100
1000
0001
0100
0010
0100
0001
1000
0100
0010
0100
1000
0010
0100
0001
1000
0100
0010
0001
0100
0001
1000
0010
0100
0010
1000
0001
,
0010
0100
0010
0001
0100
0010
1000
0010
0100
0001
1000
0100
0010
0001
0100
0001
1000
0010
0100
0010
1000
0001
0010
0100
0010
0001
0100
0010
1000
0010
0100
0001
,
1000
0100
0010
0001
0100
0001
1000
0010
0100
0010
1000
0001
0010
0100
0010
0001
0100
0001
1000
0010
0100
0010
1000
0100
0010
0001
0100
0001
1000
0010
0100
0010
,
1000
0001
0010
0100
0010
0001
0100
0001
1000
0010
0100
0010
1000
0001
1000
0100
0010
0001
0100
0001
1000
0010
0100
0010
1000
0001
0010
0100
0010
0001
0100
0010
,
1000
0010
0100
0001
1000
0001
0010
0100
1000
0001
1000
0010
0100
0001
1000
0100
0010
0001
0100
0001
1000
0010
0100
0010
1000
0001
0010
0100
0010
0001
1000
0001
,
0100
0010
1000
0010
0100
0001
0100
0010
1000
0001
0010
0100
0010
0001
1000
0010
0100
0001
0010
0100
1000
0010
0100
0001
0100
0010
1000
0001
1000
0100
0010
0001
,
1000
0001
0100
0010
1000
0010
0100
0001
1000
0100
0010
0100
1000
0010
0100
0001
0010
0100
1000
0010
0100
0001
0100
0010
1000
0001
1000
0100
0010
0100
1000
0001
,
1000
0010
0100
0010
1000
0001
1000
0100
0010
0001
1000
0001
0100
0010
1000
0010
0100
0001
0010
0100
1000
0010
0100
0001
1000
0001
0010
0100
2000
0000
0000
0000
,
0000
0000
0000
0000
0000
0000
0000
3000
;

//---------------dance-single - J. Nero----------------
#NOTES:
     dance-single:
     J. Nero:
     Hard:
     28:
     1.000,1.000,0.071,0.282,1.000,1320.000,8.000,32.000,0.000,0.000:
0000
0000
0000
0000
,
0000
0000
0000
0000
,
0000
0000
0000
0000
,
0000
0000
0000
0000
,
1000
0000
1000
0000
0010
0100
0000
0100
0000
0001
0010
0000
0010
0000
0001
0000
,
1000
0000
1000
0000
0010
0100
0000
0100
0000
0001
0010
0000
0010
0000
0001
0000
,
1000
0000
1000
0000
0100
0010
0000
0010
0000
0001
0100
0000
0100
0000
0001
0000
,
1000
0000
1000
0000
0100
0010
0000
0010
0000
0001
0100
0000
0100
0000
0001
0000
,
0101
0000
0100
0000
0001
0010
0000
0010
0000
0100
1000
0000
1001
0000
0001
0000
,
0101
0000
0100
0000
0001
0010
0000
0010
0000
0100
1000
0000
1001
0000
0001
0000
,
0011
0000
0010
0000
0001
0100
0000
0100
0000
0010
1000
0000
1001
0000
0001
0000
,
0011
0000
0010
0000
0001
0100
0000
0100
0000
0010
1000
0000
1001
0000
0001
0000
,
1000
0010
1000
0010
0100
0010
1000
0010
1000
0010
1000
0010
0100
0001
0010
0100
,
1000
0001
1000
0001
0100
0001
1000
0001
1000
0001
1000
0001
0100
0001
0010
0100
,
1000
0001
1000
0001
0010
0001
1000
0001
1000
0001
1000
0001
0010
0001
0100
0010
,
1000
0100
1000
0100
0010
0100
1000
0100
1000
0100
1000
0100
0010
0001
1000
0010
,
1000
0001
0010
0100
1000
0010
0100
0001
1000
0100
0010
0001
1000
0010
0100
0001
,
1000
0001
0010
0100
1000
0010
0100
0001
1000
0100
0010
0001
1000
0001
0010
0100
,
1000
0001
1000
0100
0010
0100
1000
0001
0010
0100
1000
0010
0100
0001
1000
0100
,
0010
0001
0100
0010
1000
0001
0010
0100
1000
0001
1000
0010
0100
0001
1000
0100
,
0010
0001
1000
0010
0100
0001
1000
0100
1000
0010
0100
0001
1000
0001
0010
0100
,
1000
0001
1000
0001
0010
0100
1000
0010
0100
0001
1000
0100
1000
0010
0100
0001
,
0010
0100
1000
0010
0100
0001
1000
0100
0010
0001
0100
0010
0100
0001
1000
0001
,
0010
0100
1000
0010
0100
0001
0100
0010
1000
0100
0010
0001
0100
0010
1000
0001
,
1000
0010
0100
0010
1000
0001
1000
0100
0010
0001
1000
0001
0100
0010
1000
0010
0100
0001
1000
0100
0010
0100
1000
0001
1000
0100
0010
0001
1000
0001
0100
0010
,
1000
0010
0100
0001
1000
0001
0010
0100
0010
0001
1000
0001
0100
0010
1000
0010
0100
0001
1000
0001
0010
0100
1000
0001
1000
0010
0100
0010
1000
0001
1000
0100
,
0010
0100
1000
0001
1000
0010
0100
0010
1000
0001
0100
0010
0100
0001
1000
0100
0010
0100
1000
0001
1000
0010
0100
0010
1000
0001
0010
0100
1000
0010
0100
0001
,
0100
0010
1000
0001
0100
0001
1000
0100
0010
0001
1000
0001
0100
0010
0100
0001
1000
0010
1000
0100
0010
0001
0100
0001
1000
0010
0100
0010
1000
0001
0100
0010
,
0100
0001
1000
0001
0010
0100
1000
0001
1000
0010
0100
0001
1000
0100
0010
0001
0100
0001
1000
0010
1000
0100
0010
0001
0100
0001
1000
0010
0100
0010
1000
0001
,
0010
0100
0010
0001
1000
0001
0100
0010
1000
0010
0100
0001
1000
0100
0010
0001
0100
0010
1000
0100
0010
0001
1000
0001
0100
0010
0100
0001
1000
0100
0010
0100
,
1000
0001
1000
0010
0100
0010
1000
0001
0010
0100
0010
0001
0100
0010
1000
0100
0010
0001
1000
0001
0100
0010
0100
0001
1000
0001
0010
0100
1000
0001
1000
0010
,
0100
0001
0100
0010
1000
0001
0010
0100
0010
0001
0100
0010
1000
0100
0010
0001
0100
0010
1000
0010
0100
0001
1000
0100
0010
0100
1000
0001
0100
0010
0100
0001
,
1000
0001
1000
0001
0010
0100
1000
0100
1000
0001
0010
0100
0010
0001
1000
0100
,
1000
0001
0010
0100
0010
0001
1000
0001
1000
0010
0100
0001
0100
0001
1000
0100
,
0010
0001
0010
0001
0100
0010
1000
0010
1000
0001
0100
0010
0100
0001
1000
0010
,
0100
0001
0010
0100
1000
0010
0100
0010
1000
0001
0100
0001
0010
0100
1000
0001
,
0100
0010
0100
0001
0010
0100
1000
0100
1000
0001
0010
0100
0010
0001
1000
0001
,
0010
0100
1000
0001
0100
0010
1000
0001
0100
0001
0010
0100
0010
0001
1000
0100
,
0010
0001
0010
0100
1000
0010
0100
0001
1000
0001
0010
0100
1000
0001
1000
0010
,
0100
0001
1000
0001
0010
0001
0100
0010
1000
0001
1000
0001
0010
0100
1000
0001
,
1000
0010
1000
0010
1000
0100
1000
0100
1000
0001
0100
0001
0010
0100
0010
0001
,
1000
0010
1000
0010
1000
0100
1000
0100
1000
0001
0100
0001
0010
0100
0010
0001
,
0100
0001
0100
0001
0010
0001
0010
0001
1000
0010
1000
0100
1000
0001
0010
0001
,
0100
0001
0100
0001
0010
0001
0010
0001
1000
0010
1000
0100
1000
0001
0010
0001
,
1000
0100
1000
0100
1000
0010
1000
0010
1000
0001
0010
0001
0100
0010
0100
0001
,
1000
0100
1000
0100
1000
0010
1000
0010
1000
0001
0010
0001
0100
0010
0100
0001
,
0010
0001
0010
0001
0100
0001
0100
0001
1000
0100
1000
0010
1000
0001
0100
0001
,
0010
0001
0010
0001
0100
0001
0100
0001
1000
0100
1000
0010
1000
0001
0100
0001
,
1000
0010
1000
0001
0100
0010
0100
0001
1000
0001
0010
0100
1000
0010
0100
0010
1000
0100
0010
0001
0100
0001
1000
0010
0100
0010
1000
0001
0100
0001
1000
0100
,
0010
0100
1000
0001
1000
0100
0010
0001
0100
0001
1000
0010
0100
0010
1000
0001
0010
0100
0010
0001
0100
0010
1000
0010
0100
0001
1000
0001
0010
0100
1000
0001
,
1000
0010
0100
0001
1000
0100
0010
0100
1000
0001
1000
0010
0100
0001
1000
0100
0010
0001
0100
0001
0010
0100
1000
0010
0100
0010
1000
0001
0100
0001
1000
0100
,
0010
0100
1000
0001
0100
0001
1000
0010
0100
0010
1000
0001
1000
0100
0010
0001
0100
0001
1000
0010
1000
0100
0010
0001
1000
0010
0100
0010
1000
0001
1000
0100
,
0010
0001
1000
0001
0100
0010
1000
0010
0100
0001
1000
0001
0010
0100
0010
0001
0100
0001
1000
0100
0010
0001
0100
0001
1000
0010
0100
0010
1000
0001
1000
0100
,
0010
0100
1000
0001
0100
0010
1000
0010
0100
0001
1000
0100
0010
0001
0100
0001
0010
0100
1000
0010
0100
0010
1000
0001
1000
0100
0010
0100
1000
0001
1000
0100
,
0010
0001
1000
0001
0100
0010
1000
0010
0100
0001
1000
0001
0010
0100
0010
0001
0100
0010
1000
0100
0010
0001
1000
0001
0100
0010
0100
0001
1000
0100
0010
0100
,
1000
0001
0100
0001
1000
0010
0100
0010
1000
0001
1000
0100
0010
0001
0100
0001
0010
0100
1000
0010
0100
0010
1000
0001
1000
0100
0010
0100
1000
0001
0100
0010
,
1000
0100
0010
0001
0100
0001
1000
0010
0100
0010
1000
0100
0010
0001
0100
0001
1000
0010
0100
0010
1000
0001
0010
0100
0010
0001
0100
0010
1000
0010
0100
0001
,
1000
0100
0010
0001
0100
0001
1000
0010
0100
0010
1000
0001
0010
0100
1000
0010
0100
0001
1000
0100
0010
0100
1000
0010
0100
0001
1000
0001
0010
0100
1000
0010
,
0100
0001
0100
0010
1000
0001
0010
0100
0010
0001
0100
0010
1000
0010
0100
0001
1000
0100
0010
0001
0100
0001
1000
0100
0010
0100
1000
0010
0100
0001
1000
0100
,
0010
0001
0100
0001
1000
0010
1000
0100
0010
0001
1000
0001
0100
0010
0100
0001
0010
0100
0010
0001
1000
0001
0100
0010
1000
0100
0010
0001
1000
0001
0100
0010
,
0100
0001
1000
0100
0010
0100
1000
0001
0100
0010
0100
0001
1000
0100
0010
0100
1000
0010
0100
0001
1000
0100
0010
0001
0100
0001
1000
0010
0100
0010
1000
0001
,
0010
0100
0010
0001
0100
0010
1000
0010
0100
0001
1000
0100
0010
0001
0100
0001
1000
0010
0100
0010
1000
0001
0010
0100
0010
0001
0100
0010
1000
0010
0100
0001
,
1000
0100
0010
0001
0100
0001
1000
0010
0100
0010
1000
0001
0010
0100
0010
0001
0100
0001
1000
0010
0100
0010
1000
0100
0010
0001
0100
0001
1000
0010
0100
0010
,
1000
0001
0010
0100
0010
0001
0100
0001
1000
0010
0100
0010
1000
0001
1000
0100
0010
0001
0100
0001
1000
0010
0100
0010
1000
0001
0010
0100
0010
0001
0100
0010
,
2000
3200
0320
0032
2003
3020
0230
0302
,
0023
0230
0320
0032
0203
0320
2030
3200
,
2300
3002
0203
0320
2030
3200
0320
0032
,
2003
3020
0230
0302
0023
0230
2300
3002
,
0000
0000
0000
0000
0000
0000
0000
0003
;

//---------------dance-single - J. Nero----------------
#NOTES:
     dance-single:
     J. Nero:
     Medium:
     26:
     1.000,1.000,0.071,0.282,1.000,1256.000,8.000,32.000,0.000,0.000:
0000
0000
0000
0000
,
0000
0000
0000
0000
,
0000
0000
0000
0000
,
0000
0000
0000
0000
,
1000
0000
1000
0000
0010
0100
0000
0100
0000
0001
0010
0000
0010
0000
0001
0000
,
1000
0000
1000
0000
0010
0100
0000
0100
0000
0001
0010
0000
0010
0000
0001
0000
,
1000
0000
1000
0000
0100
0010
0000
0010
0000
0001
0100
0000
0100
0000
0001
0000
,
1000
0000
1000
0000
0100
0010
0000
0010
0000
0001
0100
0000
0100
0000
0001
0000
,
0101
0000
0100
0000
0001
0010
0000
0010
0000
0100
1000
0000
1001
0000
0001
0000
,
0101
0000
0100
0000
0001
0010
0000
0010
0000
0100
1000
0000
1001
0000
0001
0000
,
0011
0000
0010
0000
0001
0100
0000
0100
0000
0010
1000
0000
1001
0000
0001
0000
,
0011
0000
0010
0000
0001
0100
0000
0100
0000
0010
1000
0000
1001
0000
0001
0000
,
1000
0010
1000
0010
0100
0010
1000
0010
1000
0010
1000
0010
0100
0001
0010
0100
,
1000
0001
1000
0001
0100
0001
1000
0001
1000
0001
1000
0001
0100
0001
0010
0100
,
1000
0001
1000
0001
0010
0001
1000
0001
1000
0001
1000
0001
0010
0001
0100
0010
,
1000
0100
1000
0100
0010
0100
1000
0100
1000
0100
1000
0100
0010
0001
1000
0010
,
1000
0001
0010
0100
1000
0010
0100
0001
1000
0100
0010
0001
1000
0010
0100
0001
,
1000
0001
0010
0100
1000
0010
0100
0001
1000
0100
0010
0001
1000
0001
0010
0100
,
1000
0001
1000
0100
0010
0100
1000
0001
0010
0100
1000
0010
0100
0001
1000
0100
,
0010
0001
0100
0010
1000
0001
0010
0100
1000
0001
1000
0010
0100
0001
1000
0100
,
0010
0001
1000
0010
0100
0001
1000
0100
1000
0010
0100
0001
1000
0001
0010
0100
,
1000
0001
1000
0001
0010
0100
1000
0010
0100
0001
1000
0100
1000
0010
0100
0001
,
0010
0100
1000
0010
0100
0001
1000
0100
0010
0001
0100
0010
0100
0001
1000
0001
,
0010
0100
1000
0010
0100
0001
0100
0010
1000
0100
0010
0001
0100
0010
1000
0001
,
1000
0010
0100
0010
1000
0001
1000
0100
0010
0001
1000
0001
0100
0010
1000
0010
0100
0001
1000
0100
0010
0100
1000
0001
1000
0100
0010
0001
1000
0001
0100
0010
,
1000
0010
0100
0001
1000
0001
0010
0100
0010
0001
1000
0001
0100
0010
1000
0010
0100
0001
1000
0001
0010
0100
1000
0001
1000
0010
0100
0010
1000
0001
1000
0100
,
0010
0100
1000
0001
1000
0010
0100
0010
1000
0001
0100
0010
0100
0001
1000
0100
0010
0100
1000
0001
1000
0010
0100
0010
1000
0001
0010
0100
1000
0010
0100
0001
,
0100
0010
1000
0001
0100
0001
1000
0100
0010
0001
1000
0001
0100
0010
0100
0001
1000
0010
1000
0100
0010
0001
0100
0001
1000
0010
0100
0010
1000
0001
0100
0010
,
0100
0001
1000
0001
0010
0100
1000
0001
1000
0010
0100
0001
1000
0100
0010
0001
0100
0001
1000
0010
1000
0100
0010
0001
0100
0001
1000
0010
0100
0010
1000
0001
,
0010
0100
0010
0001
1000
0001
0100
0010
1000
0010
0100
0001
1000
0100
0010
0001
0100
0010
1000
0100
0010
0001
1000
0001
0100
0010
0100
0001
1000
0100
0010
0100
,
1000
0001
1000
0010
0100
0010
1000
0001
0010
0100
0010
0001
0100
0010
1000
0100
0010
0001
1000
0001
0100
0010
0100
0001
1000
0001
0010
0100
1000
0001
1000
0010
,
0100
0001
0100
0010
1000
0001
0010
0100
0010
0001
0100
0010
1000
0100
0010
0001
0100
0010
1000
0010
0100
0001
1000
0100
0010
0100
1000
0001
0100
0010
0100
0001
,
1000
0001
1000
0001
0010
0100
1000
0100
1000
0001
0010
0100
0010
0001
1000
0100
,
1000
0001
0010
0100
0010
0001
1000
0001
1000
0010
0100
0001
0100
0001
1000
0100
,
0010
0001
0010
0001
0100
0010
1000
0010
1000
0001
0100
0010
0100
0001
1000
0010
,
0100
0001
0010
0100
1000
0010
0100
0010
1000
0001
0100
0001
0010
0100
1000
0001
,
0100
0010
0100
0001
0010
0100
1000
0100
1000
0001
0010
0100
0010
0001
1000
0001
,
0010
0100
1000
0001
0100
0010
1000
0001
0100
0001
0010
0100
0010
0001
1000
0100
,
0010
0001
0010
0100
1000
0010
0100
0001
1000
0001
0010
0100
1000
0001
1000
0010
,
0100
0001
1000
0001
0010
0001
0100
0010
1000
0001
1000
0001
0010
0100
1000
0001
,
1000
0010
1000
0010
1000
0100
1000
0100
1000
0001
0100
0001
0010
0100
0010
0001
,
1000
0010
1000
0010
1000
0100
1000
0100
1000
0001
0100
0001
0010
0100
0010
0001
,
0100
0001
0100
0001
0010
0001
0010
0001
1000
0010
1000
0100
1000
0001
0010
0001
,
0100
0001
0100
0001
0010
0001
0010
0001
1000
0010
1000
0100
1000
0001
0010
0001
,
1000
0100
1000
0100
1000
0010
1000
0010
1000
0001
0010
0001
0100
0010
0100
0001
,
1000
0100
1000
0100
1000
0010
1000
0010
1000
0001
0010
0001
0100
0010
0100
0001
,
0010
0001
0010
0001
0100
0001
0100
0001
1000
0100
1000
0010
1000
0001
0100
0001
,
0010
0001
0010
0001
0100
0001
0100
0001
1000
0100
1000
0010
1000
0001
0100
0001
,
1000
0010
1000
0001
0100
0010
0100
0001
1000
0001
0010
0100
1000
0010
0100
0010
1000
0100
0010
0001
0100
0001
1000
0010
0100
0010
1000
0001
0100
0001
1000
0100
,
0010
0100
1000
0001
1000
0100
0010
0001
0100
0001
1000
0010
0100
0010
1000
0001
0010
0100
0010
0001
0100
0010
1000
0010
0100
0001
1000
0001
0010
0100
1000
0001
,
1000
0010
0100
0001
1000
0100
0010
0100
1000
0001
1000
0010
0100
0001
1000
0100
0010
0001
0100
0001
0010
0100
1000
0010
0100
0010
1000
0001
0100
0001
1000
0100
,
0010
0100
1000
0001
0100
0001
1000
0010
0100
0010
1000
0001
1000
0100
0010
0001
0100
0001
1000
0010
1000
0100
0010
0001
1000
0010
0100
0010
1000
0001
1000
0100
,
0010
0001
0010
0001
0100
0010
1000
0010
0100
0001
0100
0001
1000
0100
0010
0001
,
0100
0001
1000
0010
0100
0010
1000
0001
0010
0100
0010
0001
0100
0001
1000
0100
,
0010
0001
0100
0001
0100
0010
1000
0010
0100
0001
1000
0001
0010
0100
1000
0010
,
0100
0010
1000
0001
1000
0100
0010
0001
0100
0001
1000
0010
0100
0010
0100
0001
,
1000
0100
0010
0001
0100
0001
1000
0010
0100
0010
1000
0100
0010
0001
0100
0001
1000
0010
0100
0010
1000
0001
0010
0100
0010
0001
0100
0010
1000
0010
0100
0001
,
1000
0100
0010
0001
0100
0001
1000
0010
0100
0010
1000
0001
0010
0100
1000
0010
0100
0001
1000
0100
0010
0100
1000
0010
0100
0001
1000
0001
0010
0100
1000
0010
,
0100
0001
0100
0010
1000
0001
0010
0100
0010
0001
0100
0010
1000
0010
0100
0001
1000
0100
0010
0001
0100
0001
1000
0100
0010
0100
1000
0010
0100
0001
1000
0100
,
0010
0001
0100
0001
1000
0010
1000
0100
0010
0001
1000
0001
0100
0010
0100
0001
0010
0100
0010
0001
1000
0001
0100
0010
1000
0100
0010
0001
1000
0001
0100
0010
,
0100
0001
1000
0100
0010
0100
1000
0001
0100
0010
0100
0001
1000
0100
0010
0100
1000
0010
0100
0001
1000
0100
0010
0001
0100
0001
1000
0010
0100
0010
1000
0001
,
0010
0100
0010
0001
0100
0010
1000
0010
0100
0001
1000
0100
0010
0001
0100
0001
1000
0010
0100
0010
1000
0001
0010
0100
0010
0001
0100
0010
1000
0010
0100
0001
,
1000
0100
0010
0001
0100
0001
1000
0010
0100
0010
1000
0001
0010
0100
0010
0001
0100
0001
1000
0010
0100
0010
1000
0100
0010
0001
0100
0001
1000
0010
0100
0010
,
1000
0001
0010
0100
0010
0001
0100
0001
1000
0010
0100
0010
1000
0001
1000
0100
0010
0001
0100
0001
1000
0010
0100
0010
1000
0001
0010
0100
0010
0001
0100
0010
,
2000
3200
0320
0032
2003
3020
0230
0302
,
0023
0230
0320
0032
0203
0320
2030
3200
,
2300
3002
0203
0320
2030
3200
0320
0032
,
2003
3020
0230
0302
0023
0230
2300
3002
,
0000
0000
0000
0000
0000
0000
0000
0003
;

//---------------dance-single - Mad Matt ft. J. Nero----------------
#NOTES:
     dance-single:
     Mad Matt ft. J. Nero:
     Easy:
     17:
     1.000,1.000,0.071,0.009,1.000,1190.000,8.000,1.000,0.000,0.000:
0000
0000
0000
0000
,
0000
0000
0000
0000
,
0000
0000
0000
0000
,
0000
0000
0000
0000
,
1000
0000
1000
0000
0010
0100
0000
0100
0000
0001
0010
0000
0010
0000
0001
0000
,
1000
0000
1000
0000
0010
0100
0000
0100
0000
0001
0010
0000
0010
0000
0001
0000
,
1000
0000
1000
0000
0100
0010
0000
0010
0000
0001
0100
0000
0100
0000
0001
0000
,
1000
0000
1000
0000
0100
0010
0000
0010
0000
0001
0100
0000
0100
0000
0001
0000
,
0101
0000
0100
0000
0001
0010
0000
0010
0000
0100
1000
0000
1001
0000
0001
0000
,
0101
0000
0100
0000
0001
0010
0000
0010
0000
0100
1000
0000
1001
0000
0001
0000
,
0011
0000
0010
0000
0001
0100
0000
0100
0000
0010
1000
0000
1001
0000
0001
0000
,
0011
0000
0010
0000
0001
0100
0000
0100
0000
0010
1000
0000
1001
0000
0001
0000
,
1000
0010
1000
0010
0100
0010
1000
0010
1000
0010
1000
0010
0100
0001
0010
0100
,
1000
0001
1000
0001
0100
0001
1000
0001
1000
0001
1000
0001
0100
0001
0010
0100
,
1000
0001
1000
0001
0010
0001
1000
0001
1000
0001
1000
0001
0010
0001
0100
0010
,
1000
0100
1000
0100
0010
0100
1000
0100
1000
0100
1000
0100
0010
0001
1000
0010
,
1000
0001
0010
0100
1000
0010
0100
0001
1000
0100
0010
0001
1000
0010
0100
0001
,
1000
0001
0010
0100
1000
0010
0100
0001
1000
0100
0010
0001
1000
0001
0010
0100
,
1000
0001
1000
0100
0010
0100
1000
0001
0010
0100
1000
0010
0100
0001
1000
0100
,
0010
0001
0100
0010
1000
0001
0010
0100
1000
0001
1000
0010
0100
0001
1000
0100
,
0010
0001
1000
0010
0100
0001
1000
0100
1000
0010
0100
0001
1000
0001
0010
0100
,
1000
0001
1000
0001
0010
0100
1000
0010
0100
0001
1000
0100
1000
0010
0100
0001
,
0010
0100
1000
0010
0100
0001
1000
0100
0010
0001
0100
0010
0100
0001
1000
0001
,
0010
0100
1000
0010
0100
0001
0100
0010
1000
0100
0010
0001
0100
0010
1000
0001
,
1000
0100
1000
0100
0010
0001
1000
0001
0010
0100
1000
0010
0100
0001
0010
0100
1000
0001
1000
0001
0010
0100
0010
0001
,
1000
0010
1000
0010
0100
0001
1000
0001
0100
0010
1000
0100
0010
0001
0100
0010
1000
0001
1000
0010
0100
0001
1000
0100
,
0010
0001
0010
0001
1000
0100
0010
0001
0010
0100
1000
0010
0100
0001
0010
0100
1000
0001
1000
0100
0010
0001
1000
0010
,
0100
0001
0100
0001
1000
0010
0100
0001
0100
0010
1000
0100
0010
0001
0100
0010
1000
0001
1000
0010
0100
0001
1000
0010
,
1000
0001
0010
0001
1000
0010
1000
0001
0100
0010
1000
0100
0010
0001
0100
0010
1000
0001
0010
0001
1000
0010
1000
0001
,
0100
0001
1000
0100
1000
0001
0100
0001
1000
0100
0010
0001
0100
0010
1000
0100
0010
0001
1000
0100
1000
0001
0100
0001
,
1000
0100
0010
0001
1000
0001
0010
0100
1000
0100
0010
0001
0100
0010
1000
0100
0010
0001
1000
0001
0010
0100
1000
0001
,
1000
0010
0100
0001
1000
0001
0100
0010
1000
0010
0100
0001
0010
0100
1000
0010
0100
0001
1000
0001
0100
0010
1000
0001
,
1000
0001
1000
0001
0010
0100
1000
0100
1000
0001
0010
0100
0010
0001
1000
0100
,
1000
0001
0010
0100
0010
0001
1000
0001
1000
0010
0100
0001
0100
0001
1000
0100
,
0010
0001
0010
0001
0100
0010
1000
0010
1000
0001
0100
0010
0100
0001
1000
0010
,
0100
0001
0010
0100
1000
0010
0100
0010
1000
0001
0100
0001
0010
0100
1000
0001
,
0100
0010
0100
0001
0010
0100
1000
0100
1000
0001
0010
0100
0010
0001
1000
0001
,
0010
0100
1000
0001
0100
0010
1000
0001
0100
0001
0010
0100
0010
0001
1000
0100
,
0010
0001
0010
0100
1000
0010
0100
0001
1000
0001
0010
0100
1000
0001
1000
0010
,
0100
0001
1000
0001
0010
0001
0100
0010
1000
0001
1000
0001
0010
0100
1000
0001
,
1000
0010
1000
0010
1000
0100
1000
0100
1000
0001
0100
0001
0010
0100
0010
0001
,
1000
0010
1000
0010
1000
0100
1000
0100
1000
0001
0100
0001
0010
0100
0010
0001
,
0100
0001
0100
0001
0010
0001
0010
0001
1000
0010
1000
0100
1000
0001
0010
0001
,
0100
0001
0100
0001
0010
0001
0010
0001
1000
0010
1000
0100
1000
0001
0010
0001
,
1000
0100
1000
0100
1000
0010
1000
0010
1000
0001
0010
0001
0100
0010
0100
0001
,
1000
0100
1000
0100
1000
0010
1000
0010
1000
0001
0010
0001
0100
0010
0100
0001
,
0010
0001
0010
0001
0100
0001
0100
0001
1000
0100
1000
0010
1000
0001
0100
0001
,
0010
0001
0010
0001
0100
0001
0100
0001
1000
0100
1000
0010
1000
0001
0100
0001
,
1000
0001
1000
0010
0100
0010
1000
0001
0010
0100
1000
0010
0100
0001
0010
0100
1000
0001
1000
0100
0010
0001
1000
0001
,
1000
0010
0100
0001
0100
0010
1000
0001
0100
0010
1000
0100
0010
0001
0100
0010
1000
0001
1000
0010
0100
0001
1000
0001
,
1000
0100
0010
0100
1000
0001
0010
0001
1000
0100
1000
0010
0100
0001
0010
0001
1000
0100
1000
0001
0010
0100
1000
0001
,
1000
0010
0100
0010
1000
0001
0100
0001
1000
0010
1000
0100
0010
0001
0100
0001
1000
0010
1000
0001
0100
0010
1000
0001
,
1000
0001
0100
0010
0100
0001
1000
0001
1000
0010
0100
0001
1000
0100
0010
0001
0100
0010
1000
0001
0010
0100
1000
0010
,
0100
0001
1000
0001
0010
0100
1000
0001
1000
0100
1000
0001
0010
0100
1000
0010
0100
0001
1000
0100
0010
0001
0100
0010
,
1000
0001
0100
0001
1000
0010
0100
0001
1000
0001
1000
0010
0100
0001
0010
0100
1000
0010
0100
0001
1000
0001
1000
0100
,
0010
0001
1000
0001
0010
0100
1000
0001
1000
0100
0010
0100
1000
0001
0010
0100
1000
0010
0100
0001
1000
0100
0010
0001
,
1000
0100
0010
0100
1000
0001
0010
0001
1000
0100
0010
0001
0100
0010
1000
0100
0010
0001
1000
0001
0010
0100
1000
0001
,
1000
0010
0100
0010
1000
0001
0100
0001
1000
0010
0100
0001
0010
0100
1000
0010
0100
0001
1000
0001
0100
0010
1000
0001
,
1000
0100
0010
0001
0010
0100
1000
0001
0010
0100
1000
0010
0100
0001
0010
0100
1000
0100
0010
0001
1000
0100
0010
0001
,
1000
0010
0100
0001
0100
0010
1000
0001
0100
0010
1000
0100
0010
0001
0100
0010
1000
0010
0100
0001
1000
0010
0100
0001
,
1000
0100
1000
0001
0010
0001
1000
0100
0010
0100
1000
0010
0100
0001
0010
0100
0010
0001
1000
0100
1000
0001
0010
0001
,
1000
0010
1000
0001
0100
0001
1000
0010
0100
0010
1000
0100
0010
0001
0100
0010
0100
0001
1000
0010
1000
0001
0100
0001
,
1000
0100
0010
0100
1000
0001
0010
0001
1000
0100
1000
0010
0100
0001
0010
0001
1000
0100
1000
0001
0010
0100
0010
0001
,
1000
0010
0100
0010
1000
0001
0100
0001
1000
0010
1000
0100
0010
0001
0100
0001
1000
0010
1000
0001
0100
0010
0100
0001
,
1000
0100
0010
0001
1000
0001
0100
0010
0100
0001
1000
0001
0010
0100
1000
0010
0100
0001
1000
0001
1000
0100
0010
0001
,
1000
0001
0010
0100
1000
0001
1000
0010
0100
0001
1000
0001
0010
0100
1000
0010
0100
0001
1000
0100
0010
0001
1000
0001
,
1000
0100
0010
0001
1000
0001
0100
0010
1000
0001
0100
0010
1000
0001
0010
0100
1000
0010
0100
0001
1000
0100
0010
0001
,
1000
0001
1000
0010
0100
0001
1000
0001
0010
0100
1000
0010
0100
0001
1000
0100
0010
0001
1000
0100
1000
0002
0000
0000
,
0000
0000
0003
0000
;
