#TITLE:Super Mario Bros. BGM Medley EX;
#SUBTITLE:;
#ARTIST:近藤浩治;
#TITLETRANSLIT:;
#SUBTITLETRANSLIT:;
#ARTISTTRANSLIT:Koji Kondo;
#CREDIT:Kyon;
#BANNER:Super Mario Bros. BGM Medley EX.png;
#BACKGROUND:Super Mario Bros. BGM Medley EX-bg.png;
#LYRICSPATH:;
#CDTITLE:Pop'n Music.png;
#MUSIC:Super Mario Bros. BGM Medley EX.mp3;
#OFFSET:-0.080;
#SAMPLESTART:7.200;
#SAMPLELENGTH:12.000;
#SELECTABLE:YES;
#DISPLAYBPM:*;
#BPMS:0.000=100.000,91.500=150.000,110.500=112.500,162.500=150.000,206.000=150.000,222.000=180.000,288.000=90.000;
#STOPS:;
#BGCHANGES:0.000=World 1.png=1.000=1=0=1,
71.000=Underground.png=1.000=1=0=1,
93.000=World 1b.png=1.000=1=0=1,
112.000=Underwater.png=1.000=1=0=1,
162.500=World 1.png=1.000=1=1=1,
206.000=Flag.png=1.000=1=0=1,
238.000=Bowser.png=1.000=1=0=1,
292.500=Super Mario Bros. BGM Medley EX-bg.png=1.000=1=0=1,
99999=-nosongbg-=1.000=0=0=0 // don't automatically add -songbackground-
;
// cache tags:
#FIRSTBEAT:0.000;
#LASTBEAT:292.500;
#SONGFILENAME:Songs/toune 4/Super Mario Bros. BGM Medley EX/Super Mario Bros. BGM Medley EX.sm;
#HASMUSIC:1;
#HASBANNER:1;
#MUSICLENGTH:150.394;
// end cache tags

//---------------dance-single - ----------------
#NOTES:
     dance-single:
     :
     Easy:
     2:
     0.163,0.243,0.053,0.199,0.000,134.000,8.000,30.000,0.000,0.000:
0000
0000
0000
0100
,
0010
0100
0000
0010
,
0000
0100
0000
0001
,
0000
1000
0000
0001
,
0000
1000
0000
0010
,
0200
0000
0000
0000
,
0320
0000
1030
0000
,
2000
0000
0000
0000
,
3002
0000
0013
0100
,
0020
0000
0000
0130
,
0200
0000
0000
0000
,
0301
0000
0000
0000
,
2000
0000
0000
3010
,
0100
0020
0000
0130
,
0100
0100
0010
0001
,
1000
0001
0000
1000
,
0010
0100
0010
0110
,
0000
2002
0000
3003
0000
0000
0000
0010
,
0000
0000
0000
0000
0000
0100
0000
0000
,
0000
0000
0000
0010
0000
0000
0000
0000
,
0000
0100
0000
0000
0000
0000
0020
0000
,
0000
0000
0000
0230
0000
0000
0302
0000
,
0000
0000
1003
0000
,
0100
0000
0010
0000
,
0100
0000
0010
0000
,
0001
0000
1000
0000
,
0001
0000
1000
0000
,
0010
2002
3003
0000
,
1001
0000
0000
0000
0000
0000
0000
0002
,
0000
0000
0000
0000
0000
0013
0000
0000
,
0100
0000
0000
0010
0000
0000
1001
0000
,
0000
0010
0000
0000
0100
0000
0000
0010
,
0000
0000
0000
0000
0000
1000
0000
0000
,
0010
0000
0000
1000
0000
0000
0000
0000
,
0000
0001
0000
0000
0100
0000
0000
0001
,
0000
0000
0000
0000
0000
0010
0000
0000
,
0100
0000
0000
0010
0000
0000
2000
0000
,
0000
3001
0000
0000
0010
0000
0000
0100
,
0000
0020
0000
0000
,
0230
0000
0300
0000
,
0000
1001
0000
0000
0000
0000
0001
0000
,
0000
0010
0000
0000
0100
0000
0000
2000
,
0000
0000
3001
0000
,
0000
0010
0000
0000
,
0100
0000
0000
0010
,
0000
0200
0000
0000
,
0320
0000
2030
0000
,
0000
3001
0000
0000
0000
0000
0010
0000
,
0000
0000
0100
0010
,
0100
0010
1000
0001
,
1000
0010
0100
2002
,
0000
0000
3003
0010
,
0000
0000
0000
0100
,
0000
0000
0000
0020
,
0000
0000
0230
0000
,
0000
0000
0301
0000
,
0001
0000
0001
0000
,
0001
0000
0001
0000
,
0001
0000
0000
0000
,
0000
0000
0001
0000
,
0000
0000
0010
0000
,
0000
0000
0100
0000
,
0000
0000
0010
0000
,
0000
0000
0100
0000
,
0000
0000
0010
0000
,
0000
0000
0001
0000
,
1000
0000
0001
0000
,
1000
0000
0010
0000
,
1000
0000
0010
0000
,
0100
0110
0000
0002
,
0000
0000
0000
1003
,
0000
0000
0000
0000
,
0020
0000
0032
0000
,
1003
0000
0000
0000
;

//---------------dance-single - ----------------
#NOTES:
     dance-single:
     :
     Hard:
     8:
     0.431,0.558,0.246,0.146,0.299,395.000,37.000,22.000,0.000,0.000:
0000
0000
0000
1001
,
0010
1000
0010
0000
0001
1000
0001
0000
,
1000
0000
0100
0000
1000
0000
0100
0000
0000
0010
0000
0000
0100
0000
0000
0000
0000
0000
0100
0000
0000
1000
0000
0000
,
0100
0000
0110
0000
1000
0100
1000
0000
,
0010
0000
0001
0000
0010
0000
0001
0000
0000
1000
0000
0000
0001
0000
0000
1000
0000
0000
0001
0000
0000
0000
0000
0000
,
1000
0000
0100
1000
0100
1000
0000
0110
0000
0010
0001
0010
0000
1000
0001
1000
,
0001
0000
0100
1000
0100
1000
0000
0110
0000
0010
0000
0010
0001
0000
0000
0000
,
0010
0000
0010
0001
0010
0001
0000
0110
0000
1000
0001
1000
0000
0100
0010
0100
,
0000
0000
0110
0000
0000
1001
0000
0000
1001
0000
0000
0000
1000
0000
0000
0000
,
0110
0000
0100
0010
0100
0010
0000
1001
0000
1000
0001
1000
0000
0100
0010
0100
,
0000
0000
0010
0001
0010
0001
0000
1100
0000
0100
0000
0100
0010
0000
0000
0000
,
0110
0000
0001
1000
0001
1000
0000
1000
0000
1000
0100
1000
0000
0100
0010
0100
,
0000
0000
0110
0000
0000
1001
0000
0000
0110
0000
0000
0000
0001
0000
0000
0000
,
1000
0001
0000
0000
0002
0000
0000
0000
0000
0000
0000
0000
1003
0000
0000
0000
,
1000
0001
0000
0000
0001
0000
0000
0000
0001
0000
0000
0000
0100
0000
0000
0000
,
0010
0100
0000
0000
0100
0000
0000
0000
0100
0000
0000
0100
0010
0000
0000
0000
,
0001
1000
0000
0000
1000
0000
0000
0000
0001
0000
0000
0000
1001
0000
0000
0000
,
0000
0000
0220
0000
0000
0000
0330
0000
0000
0000
0000
0000
0000
0000
0001
1000
,
0001
1000
0001
1000
0000
0000
0000
0000
0000
0000
1000
0100
1000
0100
1000
0100
,
0000
0000
0000
0000
0000
0000
0001
0010
0001
0010
0001
0010
0000
0000
0000
0000
,
0000
0000
1000
0001
1000
0001
1000
0001
0000
0000
0000
0000
0001
0100
0001
0000
,
0001
1000
0001
1000
0100
2000
0000
3200
,
0000
0310
0110
0000
,
0000
0000
0001
1000
0001
0000
1000
0100
,
0000
0100
1000
0100
1000
0000
0100
0010
,
0000
0010
0001
0010
0001
0000
0001
1000
,
0000
1000
0001
1000
0001
0000
0001
1000
,
0001
1000
0220
0000
0330
0000
0000
0000
,
0000
0010
1000
0010
0001
0010
0001
0200
,
0000
0000
0000
0000
0001
0301
0000
0000
,
1100
0000
0000
1001
0000
0000
0110
0000
,
0000
0011
0000
0000
1100
0000
0001
0001
,
0000
0000
0000
0000
0000
0000
0000
0000
0000
0001
0010
0000
0000
0000
0000
0000
,
1001
0000
0000
0110
0000
0000
0200
0000
,
0000
1300
0000
0000
1100
0000
1000
0100
,
0000
0000
0000
0000
0000
0000
0000
0000
0000
1000
0001
0000
0000
0000
0000
0000
,
1001
0000
0000
0110
0000
0000
0100
0010
,
0000
0010
0001
0000
0000
0000
0000
0000
1001
0000
0000
0000
0000
0000
1100
0000
,
0000
0000
0002
0000
0000
1000
0000
0000
,
2003
0000
0000
0000
0000
0000
0000
0000
3000
0000
0000
0001
1000
0000
0000
0000
,
0000
0110
0000
0000
0000
0000
0100
0000
,
0000
0001
0000
0000
1000
0000
0010
0020
,
0000
0000
0000
0000
0130
0001
0100
0000
,
0000
0000
0001
1000
0001
0000
0000
0000
,
1000
0100
1000
0000
0000
0000
0001
1000
,
0001
0000
2000
0000
,
3200
0000
0320
0000
,
0000
0000
0000
0000
0130
0000
0000
0000
0000
0000
0000
0000
0001
1000
0000
1000
,
0000
1000
0001
0000
0110
0000
0000
0000
1000
0000
0000
0000
0001
0000
0000
1000
,
0000
0000
0001
0000
0000
0000
0100
0000
0010
0100
0000
0000
0100
0010
0100
0010
,
0100
0000
1000
0001
0000
0000
0001
1000
0000
0220
0000
0000
,
0000
0000
0000
0000
0000
0000
0330
0000
0000
0001
1000
0001
,
1000
0001
1000
0001
0000
0000
0110
0000
0000
1000
0100
1000
,
0100
1000
0100
1000
0000
0000
0110
0000
0000
0001
0010
0001
,
0010
0001
0010
0001
0000
0000
1000
0100
1000
0200
0000
0000
,
0300
0000
0000
0000
0000
0100
0000
0000
,
0000
0100
0000
0000
0000
0100
0000
0000
,
0000
0100
0000
0000
0000
0100
0000
0000
,
0000
0100
0000
0000
0000
0000
0000
0000
,
0000
0000
0000
0000
0000
0001
0100
0001
,
0100
1000
0010
0001
0010
1000
0010
0001
,
0010
1000
0010
0100
1000
0001
1000
0001
,
0010
0001
0010
0001
0010
0100
0010
0100
,
1000
0001
1000
0001
1000
0001
0010
0001
,
0010
0001
0010
1000
0100
1000
0100
0001
,
0100
0001
0010
0100
0010
0100
0010
0001
,
1000
0001
0010
0001
0010
0100
0010
0100
,
0001
1000
0001
1000
0001
0010
0100
0010
,
0100
0010
1000
0100
0010
0100
0010
0001
,
1000
0001
0110
0000
0000
0000
0100
0010
,
0000
0010
0100
0010
0100
0010
0100
0000
,
0001
1000
0000
0000
0000
0000
0000
0000
,
0002
0000
0000
2003
0000
0000
3002
0000
0203
0000
0000
0000
0000
0000
0000
0000
,
0310
0000
0000
0000
;

//---------------dance-single - ----------------
#NOTES:
     dance-single:
     :
     Challenge:
     9:
     0.531,0.608,0.372,0.126,0.529,484.000,56.000,19.000,0.000,0.000:
0001
1000
0000
1000
0000
1000
0010
0000
0110
0000
0000
0000
0110
0000
0000
0000
,
1100
0000
0000
0110
0000
0000
1001
0000
0010
0000
0100
0010
0000
0010
0100
0000
,
0100
0000
0000
0000
0001
0000
0000
0000
0100
0000
0000
0000
0001
0000
0000
0000
0000
0000
1000
0000
0000
0001
0000
0000
0000
0000
0000
0001
0000
0000
0000
0000
0000
0001
0000
0000
1000
0000
0000
0001
0000
0000
0000
0000
0000
0000
0000
0000
,
1001
0000
0000
0110
0000
0000
1001
0000
0100
0000
0001
0100
0000
0100
0001
0000
,
1000
0000
0000
0000
0010
0000
0000
0000
1000
0000
0000
0000
0010
0000
0000
0000
0000
0000
0100
0000
0000
0010
0000
0000
0000
0000
0000
0010
0000
0000
0000
0000
0000
0100
0000
0000
0010
0000
0000
0100
0000
0000
0000
0000
0000
0000
0000
0000
,
1001
0000
0001
0100
0001
0100
0000
1001
0000
1000
0010
1000
0000
0100
0010
0100
,
0010
0000
0001
0100
0001
0100
0000
1001
0000
1000
0000
1000
0010
0000
0000
0000
,
1000
0000
1000
0010
1000
0010
0000
1001
0000
0100
0010
0100
0000
0001
1000
0001
,
0000
0000
1001
0000
0000
0110
0000
0000
0110
0000
0000
0010
0100
0000
0100
0000
,
1001
0000
0001
1000
0001
1000
0000
0110
0000
0100
0010
0100
0000
0001
1000
0001
,
0000
0000
1000
0010
1000
0010
0000
0101
0000
0001
0000
0001
1000
0000
0000
0000
,
1001
0000
0010
0100
0010
0100
0000
0100
0000
0100
0001
0100
0000
0001
1000
0001
,
0000
0000
1001
0000
0000
0110
0000
0000
1001
0000
0000
0100
0010
0000
0010
0000
,
0100
0010
0000
0010
0000
0010
0001
0000
0001
1000
0000
1000
0100
0000
0000
0000
,
0100
0010
0000
0010
0000
0010
0100
0010
0000
0000
1001
0000
1001
0000
0000
0000
,
1000
0001
0000
1001
0000
0010
0100
0000
0100
0001
0000
0001
1000
0000
0000
0000
,
0010
0100
0000
1001
0000
0100
0010
0000
0110
0000
0000
0000
0110
0000
0000
0000
,
0000
0000
0000
2002
0000
0000
0000
3003
0000
0000
0000
0000
0000
0000
0010
0100
,
0010
0100
0010
0100
0000
0000
0000
0000
0000
0000
0100
0001
0100
0001
0100
0001
,
0000
0000
0000
0101
0000
0000
0010
1000
0010
1000
0010
1000
0000
0000
0110
0000
,
0000
0010
0100
0010
0100
0010
0100
0010
0000
0000
0000
0000
0010
0001
0010
0000
,
0010
0000
0000
0100
0000
0000
0010
0000
0000
0100
0000
0000
0001
0000
0000
0100
0020
0000
0000
0000
0000
0000
0000
0000
,
0030
0001
0000
1000
0000
0001
0000
1000
0000
0000
0000
0000
1001
0000
0000
0000
0000
0000
0000
0000
0000
0000
0000
0000
,
0000
0000
0010
0100
0010
0001
0100
0001
,
0100
0001
0100
0001
0100
1000
0001
1000
,
0001
1000
0010
1000
0010
0100
0010
0100
,
0001
0100
0001
0100
0001
0100
0010
0100
,
0010
0000
0100
0000
0000
2002
0000
0000
0000
3003
0000
0000
0000
0000
0000
0000
,
0000
1000
0000
0100
0000
1000
0000
0010
0000
1000
0000
0010
0000
1000
0010
1000
,
0010
0110
0110
0000
0010
0010
0000
0000
,
0101
0000
0000
0000
0000
0000
0110
0000
0000
0000
0000
0000
0001
1000
0001
1000
,
0001
1010
0000
0000
0101
0000
0010
0010
,
0000
0000
0000
0000
0100
0000
0000
0000
0000
0010
1000
0000
0000
0000
0000
0000
,
0110
0000
0000
0000
0000
0000
1001
0000
0000
0000
0000
0000
0001
1000
0001
1000
,
0001
0110
0000
0000
0101
0000
0100
0001
,
0000
0000
0000
0000
0000
0000
0000
0000
0000
0100
0010
0000
0000
0000
0000
0000
,
0110
0000
0000
0000
0000
0000
1001
0000
0000
0000
0000
0000
0001
1000
0000
0000
,
0000
1000
0010
0000
0000
0000
0000
0000
0110
0000
0000
0000
0000
0000
0101
0000
,
0000
0000
0000
0000
0010
0100
0000
0000
0000
0010
0100
0000
0000
0000
0000
0000
,
0100
0000
0010
0000
0100
0000
0010
0100
0010
0000
0000
0010
0100
0000
0000
0000
,
0000
0000
2002
0000
0000
0000
3003
0000
0000
0000
0000
0000
0001
0000
0001
0010
,
0000
0000
0010
0000
0010
0100
0000
0000
0100
0000
0100
1000
0000
0000
2002
0000
,
0000
0000
0000
0000
3003
0000
0000
0000
0001
0010
0001
0010
0001
0000
0000
0000
,
0110
0000
0000
0000
0010
0100
0010
0100
0010
0000
0100
0000
0100
0000
0000
0000
,
0100
0001
0100
0001
0100
0000
0000
0000
1001
0000
0000
0000
0010
0100
0010
0100
,
0010
0020
0000
0230
,
0000
0302
0000
0000
,
0003
1000
0000
0000
1000
0000
0000
1000
0000
0000
0000
0000
0010
0100
0000
0100
,
0000
0100
0010
0000
1001
0000
0000
0000
0100
0000
0000
0000
0010
0000
0000
0100
,
0000
0000
0010
0000
0000
0000
0001
0000
1000
0001
0000
0000
0001
1000
0001
1000
,
0001
0000
0100
0010
0000
0000
0010
0100
0000
2002
0000
0000
,
0000
0000
0000
0000
0000
0000
3003
0000
0000
0010
0100
0010
,
0100
0010
0100
0010
0000
0000
1001
0000
0000
0100
0001
0100
,
0001
0100
0001
0100
0000
0000
1001
0000
0000
0010
1000
0010
,
1000
0010
1000
0010
0000
0000
0100
0001
0100
0002
0000
0000
,
0003
0000
0000
0000
0000
0001
0000
0000
,
0000
0001
0000
0000
0000
0001
0000
0000
,
0000
0001
0000
0000
0000
0001
0000
0000
,
0000
0001
0000
0000
0000
0000
0000
0000
,
0000
0000
0000
0000
0001
0010
0001
0010
,
0001
0100
1000
0010
1000
0100
1000
0010
,
1000
0100
1000
0001
0100
0010
0100
0010
,
1000
0010
1000
0010
1000
0001
1000
0001
,
0100
0010
0100
0010
0100
0010
1000
0010
,
1000
0010
1000
0100
0001
0100
0001
0010
,
0001
0010
1000
0001
1000
0001
1000
0010
,
0100
0010
1000
0010
1000
0001
1000
0001
,
0010
0100
0010
0100
0010
1000
0001
1000
,
0001
1000
0100
0001
1000
0001
1000
0010
,
0100
0010
1001
0000
0000
0000
0001
1000
,
0000
1000
0001
1000
0001
1000
0001
0000
,
0010
0100
0000
0000
0000
0000
0000
0000
,
0020
0000
0000
0230
0000
0000
0320
0000
0032
0000
0000
0000
1003
0000
0000
0000
,
1000
0001
1000
0000
0000
0000
0000
0000
0000
0000
0000
0000
0000
0000
0000
0000
;

//---------------dance-single - ----------------
#NOTES:
     dance-single:
     :
     Medium:
     6:
     0.349,0.437,0.193,0.206,0.133,307.000,29.000,31.000,0.000,0.000:
0000
0000
0000
1001
,
0100
0001
0100
0000
1000
0001
1000
0000
,
0020
0000
0000
0000
0031
0000
0010
0001
,
0010
0000
0110
0000
0001
0010
0001
0000
,
0002
0000
0000
0000
1003
0001
1000
0000
,
0001
0000
0010
0001
0010
0000
0000
0100
0000
0100
1000
0000
0000
0001
1000
0000
,
1000
0000
0010
0001
0000
0001
0000
0100
0000
0100
0000
0100
1000
0000
0000
0000
,
0100
0000
0100
1000
0100
0000
0000
0110
0000
0001
1000
0000
0000
0010
0100
0000
,
0000
0000
0010
0000
0000
0001
0000
0000
1000
0000
0000
0000
0001
0000
0000
0000
,
0110
0000
0010
0100
0010
0000
0000
1001
0000
0001
1000
0000
0000
0010
0100
0000
,
0000
0000
0100
1000
0100
0000
0000
0011
0000
0010
0000
0010
0100
0000
0000
0000
,
0110
0000
1000
0001
1000
0000
0000
0001
0000
0001
0010
0000
0000
0010
0100
0000
,
0000
0000
0100
0000
0000
1000
0000
0000
0010
0000
0000
0000
1000
0000
0000
0000
,
0001
1000
0000
0000
2000
0000
0000
0000
0000
0000
0000
0000
3001
0000
0000
0000
,
0001
1000
0000
0000
1000
0000
0000
0000
1000
0000
0000
0000
0010
0000
0000
0000
,
0100
0010
0000
0000
0010
0000
0000
0000
0010
0000
0000
0010
0100
0000
0000
0000
,
1000
0001
0000
0000
0001
0000
0000
0000
1000
0000
0000
0000
1001
0000
0000
0000
,
0000
0220
0000
0330
0000
0000
0000
1000
,
0001
1000
0000
0000
0000
0001
0010
0001
,
0000
0000
0000
1000
0100
1000
0000
0000
,
0000
0001
1000
0001
0000
0000
0002
0000
,
1003
0001
1000
0001
0010
0002
0000
0023
,
0000
0130
0110
0000
,
0000
0000
1000
0001
1000
0000
0001
0010
,
0000
0010
0001
0010
0001
0000
0010
0100
,
0000
0100
1000
0100
1000
0000
1000
0001
,
0000
0001
1000
0001
1000
0000
1000
0001
,
1000
0001
0000
0000
0000
0000
0000
0000
,
0000
0200
0000
0000
0000
0000
0000
0320
,
0000
0000
0000
0000
1000
1030
0000
0000
,
0011
0000
0000
1001
0000
0000
0110
0000
,
0000
1100
0000
0000
0011
0000
1000
1000
,
0000
0000
0000
0000
0000
0000
0000
0000
0000
1000
0100
0000
0000
0000
0000
0000
,
1001
0000
0000
0110
0000
0000
0020
0000
,
0000
0031
0000
0000
0011
0000
0001
0010
,
0000
0000
0000
0000
0000
0000
0000
0000
0000
0001
1000
0000
0000
0000
0000
0000
,
1001
0000
0000
0110
0000
0000
0010
0100
,
0000
0100
1000
0000
0000
0000
0000
0000
1001
0000
0000
0000
0000
0000
0011
0000
,
0000
2000
0000
0000
,
3002
0000
0000
0000
0000
0000
0000
0000
0003
0000
0000
1000
0001
0000
0000
0000
,
0000
0110
0000
0000
0000
0000
0010
0000
,
0000
1000
0000
0000
0001
0000
0100
0200
,
0000
0000
0000
0000
0310
1000
0010
0000
,
0000
0000
1000
0001
1000
0000
0000
0000
,
0001
0010
0001
0000
0000
0000
1000
0001
,
1000
0000
0002
0000
,
0023
0000
0230
0000
,
0000
0000
0000
0000
0310
0000
0000
0000
0000
0000
0000
0000
1000
0001
0000
0001
,
0000
0000
0010
0000
0100
0000
0000
0000
0001
0000
0000
0000
1000
0000
0000
0001
,
0000
1000
0000
0010
0100
0000
0010
0100
,
0010
1000
1000
0220
,
0000
0000
0330
2002
,
0000
3003
0110
0022
,
0000
0033
0110
2200
,
0000
3300
0002
0023
,
0030
0000
0000
0000
0000
0010
0000
0000
,
0000
0010
0000
0000
0000
0010
0000
0000
,
0000
0010
0000
0000
0000
0010
0000
0000
,
0000
0010
0000
0000
0000
0000
0000
0000
,
0000
0000
0000
0000
0000
1000
0010
1000
,
0000
0001
0100
0001
0000
0001
1000
0001
,
0000
0001
0100
0001
0000
1000
0001
1000
,
0000
1000
0010
1000
0000
0010
0100
0010
,
0000
1000
0001
1000
0000
1000
0010
1000
,
0000
0001
0100
0001
0000
0001
0010
0001
,
0000
0010
0100
0010
0000
0010
0100
0010
,
0000
0100
1000
0100
0000
0010
0100
0010
,
0000
0001
1000
0001
0000
0100
0010
0100
,
0000
0010
0001
0010
0000
1000
0100
1000
,
0000
1000
0001
0000
0000
0000
0010
0100
,
0000
0100
0010
0100
0010
0100
0010
0000
,
1000
0001
0000
0000
0000
0000
0000
0000
,
2000
0000
0000
3002
0000
0000
2003
0000
3020
0000
0000
0000
0000
0000
0000
0000
,
0130
0000
0000
0000
;
