#TITLE:Soldier Game;
#SUBTITLE:;
#ARTIST:Sonoda Umi, Nishikino Maki, & Ayase Eli;
#TITLETRANSLIT:;
#SUBTITLETRANSLIT:;
#ARTISTTRANSLIT:;
#CREDIT:;
#BANNER:Soldier Game-bn.png;
#BACKGROUND:Soldier Game-bg.png;
#LYRICSPATH:;
#CDTITLE:;
#MUSIC:soldier game.ogg;
#OFFSET:0.012;
#SAMPLESTART:52.680;
#SAMPLELENGTH:15.000;
#SELECTABLE:YES;
#BPMS:0.000=132.000;
#STOPS:;
#BGCHANGES:;
// cache tags:
#FIRSTBEAT:13.500;
#LASTBEAT:292.500;
#SONGFILENAME:Songs/Index Tournament 1/Soldier Game/Soldier Game.sm;
#HASMUSIC:1;
#HASBANNER:1;
#MUSICLENGTH:136.816;
// end cache tags

//---------------dance-single - Kurosan----------------
#NOTES:
     dance-single:
     Kurosan:
     Challenge:
     11:
     0.898,0.935,0.599,0.504,0.866,709.000,82.000,69.000,0.000,1.000:
0000
0000
0000
0000
,
0000
0000
0000
0000
,
0000
0000
0000
0000
,
0000
0000
0000
0000
0000
0000
0000
0000
0000
0000
0000
0000
0001
0000
1000
0100
1000
0000
0000
0000
0001
0000
1000
0100
1000
0000
0000
0000
1002
0000
0000
0000
,
0000
0000
0103
0000
0110
0000
0010
0000
1000
0000
0001
0010
0100
0000
1100
0000
,
1000
0000
1001
0000
0001
0000
0100
0010
1000
0010
0100
0001
1000
0100
0020
0000
,
0001
0000
0000
0000
1000
0000
0000
0000
0031
0000
0010
0100
1000
0100
0010
0001
,
1000
0000
0100
0000
1000
0000
0001
0000
0010
0000
0100
0000
1000
0000
0001
0100
0001
0000
0000
0000
1000
0000
1000
0000
0010
0000
0010
0000
0100
0000
0100
0000
,
0002
0000
1003
0000
1100
0000
0100
0000
0010
0000
0001
1000
0001
0000
1010
0000
,
0010
0000
0100
0001
0100
0000
0010
0000
1000
0000
0100
0000
0010
0000
0012
0000
,
0000
1003
0010
2010
0000
3001
0010
0210
,
0000
0000
1300
0001
1000
0000
0100
0000
0010
0000
0001
0000
0000
0000
1000
0100
1000
0000
0010
0000
0100
0000
0000
0000
0000
0000
0000
0000
2002
0000
0000
0000
,
3003
0001
0101
0100
0010
1000
1010
0010
,
0100
0001
1001
1000
0100
0010
0011
0001
,
1000
0010
0110
0100
0001
1000
1100
0100
,
0010
0000
0001
0000
1001
0000
0001
0100
0001
0000
0110
0000
1010
0000
2002
0000
,
3003
1000
1100
0100
0010
0001
1001
1000
,
0010
0000
0100
0001
0100
0010
0000
0000
0100
0001
1000
0100
0000
0000
0010
0000
,
0001
1000
1010
0010
0100
0101
0001
1001
,
0000
0000
0000
0000
1000
0000
0001
0000
1000
0100
1000
0000
0000
0000
0001
0000
0100
0000
0000
0000
0010
0000
0000
0000
0100
0000
0001
0000
1000
0000
0000
0000
,
1001
0001
0101
0100
0010
1000
1001
0011
,
0010
0110
0010
1010
0010
0110
0010
0011
,
1001
0001
0101
0100
0010
1000
1001
1200
,
0310
0000
0000
0000
2100
0000
0000
0000
3010
0000
0000
0000
0100
0000
0001
1000
0001
0000
0000
0000
0010
0000
0000
0000
0100
0000
1000
0001
1000
0000
0010
0000
,
0100
0001
0101
0001
1000
0100
1100
1000
,
0001
0000
0010
0000
0011
0000
0001
0000
1000
0000
0010
0000
0100
0001
2000
0000
,
0000
0000
0000
0000
3010
0000
0000
0000
0100
0000
0000
0000
0102
0000
0000
0000
0000
0000
0000
0000
1003
0000
0010
0100
0010
0000
0000
0000
2001
0000
0000
0000
,
0000
0000
0000
0000
3010
0000
0100
0000
0001
1000
0001
0000
0000
0000
0010
0000
0100
1000
0100
0000
0010
0000
0001
0000
0100
0000
0010
1000
0010
0000
0100
0000
,
0001
0000
0000
1001
0000
0000
0110
0000
0000
0000
1001
0000
0000
0000
0000
0000
,
1200
0000
0310
0001
0000
0100
0000
2000
0000
0000
3100
0000
0010
0000
1000
0000
,
0021
0000
0130
1000
0000
0010
0000
0002
0000
0000
0013
0000
0100
0001
1000
0100
,
0010
0000
0110
0000
0100
0000
1000
0000
0001
0000
0100
0000
0010
0000
1000
0001
,
0020
0000
0000
0000
0031
0000
1000
0000
0020
0000
0000
0000
1030
0000
0001
0000
0200
0000
0000
0000
0301
0000
1000
0100
1000
0000
0001
0000
1000
0000
0001
0000
,
0200
0000
0310
1000
0000
0100
0000
0002
0000
0000
0103
0000
0010
0000
0001
0000
,
1020
0000
0130
0001
0000
0010
0000
2000
0000
0000
3010
0000
0100
1000
0001
0100
,
0010
0000
0110
0000
0100
0000
0001
1000
0200
0000
0010
0000
1300
0000
0001
1000
,
0020
0000
0000
0000
0100
0000
0000
0000
1030
0000
0001
0000
0000
0000
0010
0000
0100
0000
1000
0000
0001
0000
0100
0000
0010
1000
0010
0000
0100
0000
0001
0000
,
2000
3100
0110
0010
0001
1000
1001
0001
,
0100
0000
0010
0000
0110
0000
0100
0001
1000
0000
0001
0000
1001
0000
1000
0001
,
0100
0000
0010
1000
0010
0100
0001
1000
0100
0000
0000
0110
0000
0000
1001
0000
,
0001
0000
0000
0000
0000
0000
0000
0000
0000
0000
0000
0000
1000
0000
0000
0000
0000
0000
0100
0000
0000
0000
0000
0000
1000
0000
0000
0000
0000
0000
0000
0000
0000
0000
0000
0000
0001
0000
0000
0000
0000
0000
0100
0000
0000
0000
0000
0000
0001
0000
0000
0000
0000
0000
0000
0000
1000
0000
0000
0000
0000
0000
0000
0000
0100
0000
0000
0000
0000
0000
0000
0000
1000
0000
0000
0000
0000
0000
0000
0000
0001
0000
0000
0000
0000
0000
0000
0000
1000
0000
0000
0000
0000
0000
0000
0000
0100
0000
0000
0000
0000
0000
0000
0000
0010
0000
0000
0000
0000
0000
0000
0000
0001
0000
0000
0000
0000
0000
0000
0000
0010
0000
0000
0000
0000
0000
0000
0000
0100
0000
0000
0000
0000
0000
0000
0000
1000
0000
0000
0000
0000
0000
0000
0000
0002
0000
0000
0000
0000
0000
0000
0000
0000
0000
0000
0000
0000
0000
0000
0000
0000
0000
0000
0000
0000
0000
0000
0000
0010
0000
0000
0000
0000
0000
0000
0000
0000
0000
0000
0000
0000
0000
0000
0000
0000
0000
0000
0000
0000
0000
0000
0000
,
1000
0000
1000
0000
0000
0000
0100
0000
0000
0000
0010
0000
0000
0000
1000
0000
2003
0000
0000
0000
0010
0000
0000
0000
3200
0000
0000
0000
0310
0000
0001
1000
,
0001
0000
0010
0100
0010
0000
0001
0000
0000
0000
0000
0000
1000
0000
0000
0000
0001
0000
0100
0000
0000
0000
0010
0000
1000
0000
0001
0000
0000
0000
1000
0000
,
0100
0000
0000
0000
0010
0000
0001
1000
0001
0000
0100
0000
0010
0000
1000
0000
0001
0000
0010
0000
0000
0000
0110
0000
0000
0000
0000
0000
1001
0000
0000
0000
,
0000
0000
1000
0010
0200
0000
0001
0000
0001
0000
0301
1000
0100
0000
0010
0000
,
0001
0000
1000
0000
0001
0000
0100
0000
0100
0000
0100
0010
1000
0000
0001
0020
,
0000
0000
0130
1000
0001
1000
0010
0100
0002
0000
0203
0000
0320
0000
1030
0001
,
1000
0000
0000
0000
0100
0000
0010
0000
0001
0000
0000
0000
0010
0000
0100
0000
1000
0001
1000
0000
0100
0000
0010
0000
0001
0000
1000
0000
0001
0000
0100
0000
,
0010
0000
0000
0000
2001
0000
0000
0000
3100
0010
0000
0002
0000
0000
0000
1003
,
0100
1000
0001
0100
0001
0010
0100
1000
0001
1000
0100
0010
0001
1000
0010
0100
,
0002
0000
0000
0000
0000
0000
0103
0000
0010
0000
0000
0000
0010
0000
1000
0000
0000
0000
1000
0000
0001
0000
0000
0000
0010
0000
0000
0000
0100
0000
1000
0001
,
1000
0000
0000
0000
0001
0000
0100
0000
0000
0000
0100
0000
0010
0000
1000
0000
0010
0000
0100
0000
0001
0000
1000
0000
0100
0000
0010
0001
0010
0000
0100
0000
,
2000
0000
0000
3020
0000
0000
0230
0000
0302
0000
0023
0000
0230
0000
2300
0000
,
3201
0000
0310
1000
0000
0100
0000
0002
0000
0000
0103
0000
0010
0000
0001
0000
,
1020
0000
0130
0001
0000
0010
0000
2000
0000
0000
3010
0000
0100
1000
0010
0100
,
0001
0000
1001
0000
1000
0000
0100
0000
0010
0000
0001
0000
1000
0000
0001
1000
,
0020
0000
0000
0000
1030
0000
0001
0000
0020
0000
0000
0000
0031
0000
1000
0000
0200
0000
0000
0000
1300
0000
0001
0010
0001
0000
1000
0000
0100
0000
1000
0000
,
0020
0000
0130
0001
0000
0010
0000
2000
0000
0000
3010
0000
0100
0000
1000
0000
,
0201
0000
0310
1000
0000
0100
0000
0002
0000
0000
0103
0000
0010
0001
0100
0010
,
1000
0000
1001
0000
0001
0000
1000
0001
0020
0000
0100
0000
0031
0000
1000
0001
,
0200
0000
0000
0000
0010
0000
0000
0000
0301
0000
1000
0000
0000
0000
0100
0000
0010
0000
0001
0000
1000
0000
0010
0000
0100
0001
0100
0000
0010
0000
1000
0000
,
0002
0013
0110
0100
1000
0001
1001
1000
,
0010
0000
0100
0000
0110
0000
0100
0001
1000
0000
0001
0000
1001
0000
0001
1000
,
0010
0000
0100
0001
0100
0010
1000
0001
0010
0000
0000
0110
0000
0000
1001
0000
,
0000
0000
0000
0000
0000
0000
0000
0000
0000
0000
0000
0000
0000
0000
0000
0000
0001
0000
0000
0000
0010
0100
0010
0100
0010
0000
0000
0000
2001
0000
0000
0000
,
0000
0000
3010
0000
0110
0000
0100
0000
0001
0000
1000
0100
0010
0000
0011
0000
,
0001
0000
1001
0000
1000
0000
0010
0100
0001
0100
0010
1000
0001
0010
0200
0000
,
1000
0000
0000
0000
0001
0000
0000
0000
1300
0000
0100
0010
0001
0010
0100
1000
,
0001
0000
0010
0000
0001
0000
1000
0000
0100
0000
0010
0000
0001
0000
1000
0010
1000
0000
0000
0000
0001
0000
0001
0000
0100
0000
0100
0000
0010
0000
0010
0000
,
2000
0000
3001
0010
0001
0010
0001
0010
0001
0010
0001
0010
0001
0000
1001
0000
,
1000
0000
0010
1000
0100
0000
0110
0000
0010
0000
0011
0000
0001
0000
2100
0000
,
0000
3001
0100
0102
0000
1003
0100
0120
,
0000
0000
0031
1000
0001
0000
0010
0000
0100
0000
1000
0000
0000
0000
0001
0010
0001
0000
0100
0000
0010
0000
0000
0000
0000
0000
0000
0000
2002
0000
0000
0000
,
0000
3003
0000
0000
0000
0000
0000
0000
;

//---------------dance-double - I. Berg----------------
#NOTES:
     dance-double:
     I. Berg:
     Challenge:
     11:
     0.822,0.852,0.482,0.278,0.789,683.000,66.000,38.000,0.000,0.000:
00000000
00000000
00000000
00000000
,
00000000
00000000
00000000
00000000
,
00000000
00000000
00000000
00000000
,
00000000
00000000
00000000
00000000
00000000
00000000
00000000
00000000
00000000
00001000
00010000
00001000
00100000
00000000
00000000
00001000
00010000
00001000
01000000
00000000
00000000
01020000
00000000
00000000
,
00000000
00000000
01030000
00000000
01100000
00000000
00100000
00000000
10000000
00000000
01000000
00100000
00010000
00000000
00110000
00000000
,
00100000
00000000
00010010
00000000
00000010
00000000
00001000
00000100
00010000
00001000
00010000
01000000
10000000
01000000
00200000
00000000
,
00010000
00000000
00000000
00000000
00001000
00000000
00000000
00000000
00310000
00000000
00100000
00010000
01000000
00001000
00100000
00001000
,
00010000
00000100
00001000
00000010
00000100
00000010
00001000
00000100
00010000
00001000
00100000
00001000
00010000
00000100
00001000
00000010
,
00002000
00003010
00010000
00001000
00100000
00010000
10000000
10100000
,
00100000
01000000
00001000
00011000
00010000
00000010
00001000
00001002
,
00000000
00000013
00000100
00010200
00000000
00010300
00001000
00102000
,
00103000
00010000
10000000
01000000
00100000
00010000
00100000
00001000
00010000
00000000
00101000
00000000
00000000
00000000
00011000
00000000
,
00000000
00010000
00010100
00000100
00001000
00000010
00001010
00001000
,
00000100
00010000
00011000
00001000
00100000
00010000
01010000
01000000
,
00010000
00100000
00101000
00001000
00010000
00000100
00010100
00010000
,
00000100
00000000
00000010
00000000
00000110
00000000
00000100
00010000
00001000
00000000
00011000
00000000
00100000
00000000
00202000
00000000
,
00303000
00001000
01001000
01000000
00010000
10000000
11000000
01000000
,
00100000
00000000
00010000
00100000
00001000
00010000
00000000
00000000
00001000
00010000
00000100
00001000
00000000
00000000
00000010
00000000
,
00000100
00000001
00000101
00000100
00000010
00001010
00001000
00001001
,
00000000
00000000
00000001
00000010
00000100
00010000
00001000
00010000
00000100
00000000
00010000
00000000
00001000
00010000
00000100
00000000
,
00010100
00010000
00001000
01000000
01010000
00010000
10000000
10010000
,
00100000
10010000
01000000
10010000
00010000
00100000
00001000
00010000
,
00000100
00001000
00000100
00000001
00000100
00001000
00000100
00011000
,
00010000
00000000
00010100
00000000
00000100
00000000
00010000
00001000
00100000
00000000
00010000
00000000
10000000
01000000
00100000
00010000
,
10000000
00010000
01010000
01000000
00010000
00100000
00101000
00001000
,
00010000
00000000
00000100
00000000
00001100
00000000
00001000
00000000
00000010
00000000
00000100
00000000
00000010
00001000
00000200
00000000
,
00000000
00000000
00000310
00000000
00000001
00000000
00002001
00000000
00000000
00000000
00003010
00000100
00000001
00000000
00002000
00000000
,
00000000
00000000
00003100
00010000
00001000
00010000
00000100
00100000
00001000
00100000
00010000
01000000
00100000
01000000
00010000
00100000
,
00001000
00000000
00000000
00010100
00000000
00000000
01001000
00000000
00000000
00000000
00100100
00000000
00000000
00000000
00000000
00000000
,
00010000
00001000
01000000
00001000
00000000
01000000
00000000
20000000
00000000
00000000
31000000
00000000
00010000
01000000
00001000
00000000
,
00100000
00001000
00010000
00001000
00000000
00000100
00000000
00000002
00000000
00000000
00001003
00000000
00000010
00001000
00000100
00010000
,
00001000
00000000
00011000
00000000
00001000
00000000
00100000
00000000
00010000
00000000
01000000
00000000
00100000
00000000
10000000
01000000
,
00200000
00000000
00301000
00010000
00002000
00000000
00003010
00000001
00000100
00000000
00000010
00001000
00000100
00010000
00001000
00100000
,
00010000
10000000
01000000
00100000
00000000
00010000
00000000
00000200
00000000
00000000
00000301
00000000
00000100
00000010
00001000
00000000
,
00000100
00010000
00001000
00010000
00000000
01000000
00000000
20000000
00000000
00000000
30010000
00000000
00100000
00000100
00010000
00001000
,
00010000
00000000
00010100
00000000
00010000
00000000
00001000
00100000
00001000
00000000
00010000
00000000
00001000
00000000
00010000
00000100
,
00010000
00000000
00000000
00000000
00001000
00000000
00000000
00000000
00010000
00000000
00001000
00000000
01000000
00000000
00100000
00000000
10000000
00000000
01000000
00000000
00100000
00000000
00001000
00000000
00010000
00001000
00010000
00000000
00000100
00000000
00010000
00000000
,
00001000
00000000
00010000
00000000
00010100
00000000
00000100
00000000
00000010
00000000
00000010
00000001
00000000
00000001
00000100
00000000
,
00000010
00000000
00001000
00000000
00000100
00000000
00010000
00001000
00010000
00000000
00001000
00000000
00100000
00000000
00010000
10000000
,
00100000
00000000
01000000
00010000
00100000
00001000
00010000
00000100
00001000
00000000
00000000
00101000
00000000
00000000
00010100
00000000
,
00010000
00001000
00100000
00001000
00010000
00000100
00010000
00001000
01000000
00010000
00100000
01000000
10000000
01000000
00100000
00001000
00010000
00000100
00002000
00000000
00000000
00000000
00000000
00000000
,
00003100
00000000
00000000
00010000
00000000
00000000
00000000
00000000
00000000
00010000
00000000
00000000
00000000
00000000
00000000
00000010
00000000
00000000
00000000
00000000
00000000
00001000
00000000
00000000
00000100
00000000
00000000
00000000
00000000
00000000
00000010
00000000
00000000
00000000
00000000
00000000
00000001
00000000
00000000
00000000
00000000
00000000
00000100
00000000
00000010
00000000
00001000
00000000
,
00000100
00000000
00010000
00000000
00001000
00000000
00100000
00000000
00010000
00000000
10000000
00000000
00010000
00000000
00000000
00000000
00000000
00000000
10000000
00000000
00000000
00000000
00000000
00000000
00000000
00000000
00000000
01000000
00000000
00000000
00000000
00000000
00000000
00100000
00000000
00000000
00001000
00000000
00000000
00000000
00000000
00000000
00010000
00000000
00000000
00000400
00000000
00000000
,
00000000
00000000
00001300
00000001
00000010
00000100
00010000
00001000
00010000
00001000
00000000
00011000
00000000
00000000
00101000
00000000
,
00000000
00000000
10000000
00100000
01000000
00000000
00010000
00000000
01000000
00000000
00001000
00100000
00000000
00000000
00002000
00000000
,
00000000
00000000
00000000
00000000
00013000
00000000
00000100
00000000
00000001
00000000
00000000
00000100
00000000
00000000
00010000
00000000
,
00001000
00000000
01000000
00100000
10000000
01000000
00100000
00001000
00020000
00030000
00000200
00000300
00002000
00003000
00000010
00001000
,
00000000
00000000
00000100
00010000
00001000
00000000
00001000
00100000
00010000
10000000
00100000
10000000
00100000
01000000
00001000
00010000
,
00001000
00000000
00010000
00000100
00001000
00000000
00000000
00000000
00000010
00010000
00000000
00000100
00000000
00000000
00010000
00000100
,
00010000
00000000
00000100
00010000
00001000
00000000
00000000
00010000
00001000
00000000
00100000
00000000
00010000
10000000
00010000
00000000
,
10010000
00000000
10000000
01000000
00000000
00010000
00001000
00000000
00000010
00000001
00000000
00000000
00000101
00000000
00000001
00000100
,
00000010
00000000
00001000
00000100
00010000
00001000
00100000
00010000
10000000
00100000
01000000
00010000
00100000
00001000
00010000
00001000
,
00020000
00000000
00000000
00000000
00000000
00000000
00030000
00000000
00022000
00000000
00000000
00000000
00000000
00033000
00000000
00000000
,
00010000
00001000
01000000
00001000
00000000
01000000
00000000
20000000
00000000
00000000
31000000
00000000
00010000
01000000
00001000
00000000
,
00100000
00001000
00010000
00001000
00000000
00000100
00000000
00000002
00000000
00000000
00001003
00000000
00000010
00001000
00000100
00010000
,
00001000
00000000
00011000
00000000
00001000
00000000
00100000
00000000
00010000
00000000
01000000
00000000
00100000
00000000
10000000
01000000
,
00200000
00000000
00301000
00010000
00002000
00000000
00003010
00000001
00000100
00000000
00000010
00001000
00000100
00010000
00001000
00100000
,
00010000
10000000
01000000
00100000
00000000
00010000
00000000
00000200
00000000
00000000
00000301
00000000
00000100
00000010
00001000
00000000
,
00000100
00010000
00001000
00010000
00000000
01000000
00000000
20000000
00000000
00000000
30010000
00000000
00100000
00000100
00010000
00001000
,
00100000
00000000
00010100
00000000
00010000
00000000
00001000
00100000
00001000
00000000
00010000
00000000
00001000
00000000
00010000
00000100
,
00010000
00000000
00000000
00000000
00001000
00000000
00000000
00000000
00010000
00000000
00001000
00000000
01000000
00000000
00100000
00000000
10000000
00000000
01000000
00000000
00100000
00000000
00001000
00000000
00010000
00001000
00010000
00000000
00000100
00000000
00010000
00000000
,
00001000
00000000
00010000
00000000
00010100
00000000
00000100
00000000
00000010
00000000
00000010
00000001
00000000
00000001
00000100
00000000
,
00000010
00000000
00001000
00000000
00000100
00000000
00010000
00001000
00010000
00000000
00001000
00000000
00100000
00000000
00010000
10000000
,
00100000
00000000
01000000
00010000
00100000
00001000
00010000
00000100
00001000
00000000
00000000
00101000
00000000
00000000
00010200
00000000
,
00000000
00000000
00000000
00000000
00000000
00000000
00000000
00000000
00000000
00000300
00000000
00000000
00000000
00000000
01020000
00000000
,
00000000
00000000
01030000
00000000
01100000
00000000
00100000
00000000
10000000
00000000
01000000
00100000
00010000
00000000
00110000
00000000
,
00100000
00000000
00010010
00000000
00000010
00000000
00001000
00000100
00010000
00001000
00010000
01000000
10000000
01000000
00200000
00000000
,
00010000
00000000
00000000
00000000
00001000
00000000
00000000
00000000
00310000
00000000
00100000
00010000
01000000
00001000
00100000
00001000
,
00010000
00000100
00001000
00000010
00000100
00000010
00001000
00000100
00010000
00001000
00100000
00001000
00010000
00000100
00001000
00000010
,
00002000
00003010
00010000
00001000
00100000
00010000
10000000
10100000
,
00100000
01000000
00001000
00011000
00010000
00000010
00001000
00001002
,
00000000
00000013
00000100
00010200
00000000
00010300
00001000
00102000
,
00103000
00010000
10000000
01000000
00100000
00010000
00100000
00001000
00010000
00000000
00101000
00000000
00000000
00000000
00011000
00000000
;
