#TITLE:Go Baby Go;
#SUBTITLE:(New Generation Remix);
#ARTIST:A-Beat Sisters;
#TITLETRANSLIT:;
#SUBTITLETRANSLIT:;
#ARTISTTRANSLIT:;
#CREDIT:;
#BANNER:gobabygo-bn.png;
#BACKGROUND:gobabygo-bg.png;
#LYRICSPATH:;
#CDTITLE:cdtitle.png;
#MUSIC:01_-_A-Beat_Sisters_-_Go_Baby_Go_(New_Generation_Remix).mp3;
#OFFSET:1.488;
#SAMPLESTART:29.600;
#SAMPLELENGTH:12.000;
#SELECTABLE:YES;
#BPMS:0.000=158.010;
#STOPS:;
#BGCHANGES:;
// cache tags:
#FIRSTBEAT:4.000;
#LASTBEAT:378.000;
#SONGFILENAME:Songs/Fabulously Fresh Flock of Fantastic Files F5/(Zaghurim) Go Baby Go/gobabygo.sm;
#HASMUSIC:1;
#HASBANNER:1;
#MUSICLENGTH:142.184;
// end cache tags

//---------------dance-single - ----------------
#NOTES:
     dance-single:
     :
     Hard:
     12:
     1.000,1.000,1.000,0.035,0.953,892.000,314.000,5.000,0.000,0.000:
0000
0000
0000
0000
,
1001
0000
0110
0000
1000
0010
0100
0001
0000
1000
0010
0000
0101
0000
1010
0000
,
1001
0000
0110
0000
1000
0001
0100
0010
0000
1000
0010
0000
0110
0000
1001
0000
,
0011
0000
1100
0000
0001
1000
0010
0100
0000
0001
1000
0000
0110
0000
0101
0000
,
1001
0000
1010
0000
0001
0100
0010
1000
0000
0001
1000
0000
0101
0000
0110
0000
,
1010
0000
0110
0000
1000
0010
0100
0001
0000
0001
0100
0000
1010
0000
0101
0000
,
1001
0000
0101
0000
1000
0010
0100
0001
0000
0001
1000
0000
0110
0000
1001
0000
,
1010
0000
1001
0000
1000
0100
0010
0001
0000
0100
1001
0000
1001
0000
1001
0000
,
1001
0000
0000
0000
0110
0000
0000
0000
1001
0000
0100
0010
1001
0000
0000
0000
,
1001
0000
0010
0100
1001
0000
0000
0000
1001
0000
0100
0010
1001
0000
0000
0000
,
0101
0000
0101
0000
0101
0000
0101
0000
0101
0000
0001
1000
0101
0000
0000
0000
,
1001
0000
0001
0100
0001
0100
0001
0100
0010
1000
0010
1000
0010
1000
0010
1000
,
0000
0000
0010
0100
0010
0100
0010
0100
0010
1000
0010
1000
0010
1000
0010
1000
,
0000
0000
1000
0010
1000
0010
1000
0010
0100
0001
0100
0001
0100
0001
0100
0001
,
1100
0011
1100
0011
,
1100
0000
0001
1000
0001
1000
0001
1000
0010
0100
0010
0100
0010
0100
0010
0100
,
0000
0000
1000
0001
1000
0001
1000
0001
1000
0010
1000
0010
1000
0010
1000
0010
,
0000
0000
0001
1000
0001
1000
0001
1000
0001
0100
0001
0100
0001
0100
0001
0100
,
0011
0110
1001
0110
,
1001
0000
0000
0100
0000
0000
0010
0000
0000
0001
0000
0000
1000
0000
0000
0010
0000
0000
0100
0000
0000
0001
0000
0000
1000
0000
0100
0000
0010
0000
0001
0000
1000
0000
0010
0000
0100
0000
0001
0000
1000
0000
0100
0000
0010
0000
0001
0000
,
1100
0000
0000
0000
0101
0000
0000
0000
1100
0000
0000
0000
0101
0000
0000
0010
0000
0000
1001
0000
0000
0010
0000
0000
,
1100
1010
1001
0101
1000
0011
0101
1010
,
0001
1100
1010
0101
0011
1000
0101
1001
,
0001
0010
0001
0000
0001
0100
0001
0000
0100
0010
0100
0000
1000
0100
1000
0000
,
1001
0000
0000
0000
1010
0000
0000
0000
1001
0000
0000
0000
1010
0000
0000
0100
0000
0000
1001
0000
0000
0010
0000
0000
,
1001
1010
1001
0101
1000
0011
0101
1010
,
1100
0000
0000
0000
0010
0000
0000
0000
1001
0000
0000
0000
0100
0000
0000
0000
1010
0000
0000
0000
0010
0000
0000
0000
1001
0000
0000
0000
0001
0100
0001
0100
,
1010
1010
1010
1001
,
1001
0000
0001
0100
0001
0100
0001
0100
0001
1000
0001
1000
0001
1000
0001
1000
,
0000
0000
1000
0010
1000
0010
1000
0010
1000
0001
1000
0001
1000
0001
1000
0001
,
0000
0000
0001
1000
0001
1000
0001
1000
0001
0100
0001
0100
0001
0100
0001
0100
,
1010
1001
0110
1001
,
1100
0000
0001
1000
0001
1000
0001
1000
0001
0100
0001
0100
0001
0100
0001
0100
,
0000
0000
0001
0100
0001
0100
0001
0100
0010
1000
0010
1000
0010
1000
0010
1000
,
0000
0000
0100
0001
0100
0001
0100
0001
0100
0010
0100
0010
0100
0010
0100
0010
,
0101
1001
1010
1001
,
1100
0000
1010
0000
1001
0000
0101
0000
0011
0000
0101
0000
1000
0010
0100
0010
,
1000
0010
1001
1010
1001
0101
0011
0101
,
1001
1010
1100
1010
0010
1000
0001
0100
,
1001
0000
0000
0000
1010
0000
0000
0000
1001
0000
0000
0000
0101
0000
0000
0000
1001
0000
0000
0000
1010
0000
0000
0000
1001
0000
0000
0000
1000
0100
0010
0001
,
1000
0100
0010
0001
1000
0010
0100
0001
1000
0100
0010
0001
1000
0010
0100
0001
,
1100
0001
0110
0101
0110
1010
0110
0101
,
0110
1010
0110
0101
0010
1000
0010
0100
,
1001
0110
1001
0110
1001
0101
1001
1010
,
1001
0010
1001
0100
1001
1010
0110
0101
,
0100
1010
0110
0101
0010
1010
0110
1010
,
0101
0000
0000
0000
0110
0000
0000
0000
0000
1010
0000
0000
0101
0000
0000
1010
0000
0000
0001
0000
0000
0100
0000
0000
,
0001
1100
0110
0101
1010
0101
0010
0101
,
0010
0000
1010
0000
0101
0000
0100
0010
1000
0010
0100
0001
0100
0010
1000
0010
,
1001
0010
1010
0100
1001
0101
0010
0101
,
0010
0101
1010
0100
1010
0101
1000
0010
,
0101
0100
1010
0010
0101
1010
0100
0101
,
1000
0000
0011
0000
0110
0000
1100
0000
0001
0010
0100
1000
0010
0100
0001
0100
,
0011
0000
0000
0000
1100
0000
0000
0000
0011
0000
0000
0000
1100
0000
0000
0001
0000
0000
0110
0000
0000
1000
0000
0000
,
0110
1010
0110
0101
0010
0101
0110
1010
,
0100
1010
0110
0101
0011
1000
0011
0101
,
1000
0100
1000
0000
0100
0010
0100
0000
0001
0010
0001
0000
1000
0100
0010
0001
,
1100
0000
0000
0000
1001
0000
0000
0000
1100
0000
0000
0000
1001
0000
0000
0010
0000
0000
0110
0000
0000
0100
0000
0000
,
1001
1010
1001
0101
0010
0101
1001
1010
,
1001
0010
0101
0100
1001
1010
0010
1100
,
0010
0000
1001
0000
0010
0100
0010
1000
0010
0100
0001
0100
0001
0010
0100
1000
,
0011
0000
0000
0000
1100
0000
0000
0000
0011
0000
0000
0000
1100
0000
0000
0001
0000
0000
0110
0000
0000
1000
0000
0000
,
0011
0101
1001
1010
0010
1100
1010
1001
,
0010
1001
0101
0011
0101
0010
1001
1010
,
0001
0010
0001
0000
0010
0100
0010
0000
1000
0100
1000
0000
0001
0010
0100
1000
,
0101
0000
0000
0000
1010
0000
0000
0000
0101
0000
0000
0000
1010
0000
0000
0001
0000
0000
0110
0000
0000
1000
0000
0000
,
0101
1010
0110
0101
0010
0101
0110
1010
,
0110
0000
0000
0000
0010
0000
0000
0000
0101
0000
0000
0000
1000
0000
0000
0000
0110
0000
0000
0000
0001
0000
0000
0000
0110
0000
0000
0000
1000
0100
0010
0001
,
1100
1100
1100
0011
,
1001
0000
1000
0010
1000
0010
1000
0010
0100
0001
0100
0001
0100
0001
0100
0001
,
0000
0000
0001
0100
0001
0100
0001
0100
0010
1000
0010
1000
0010
1000
0010
1000
,
0000
0000
0010
0100
0010
0100
0010
0100
0010
0100
0001
0100
0001
0100
0001
0100
,
1001
1010
1001
0101
,
1001
0000
1000
0010
1000
0010
1000
0010
0100
0001
0100
0001
0100
0001
0100
0001
,
0000
0000
0001
0100
0001
0100
0001
0100
0010
1000
0010
1000
0010
1000
0010
1000
,
0000
0000
0100
0010
0100
0010
0100
0010
1000
0001
1000
0001
1000
0001
1000
0001
,
1100
0011
1100
0011
,
1100
0001
1100
0001
1100
0011
1100
0001
,
1100
0000
0000
0000
0001
0000
0000
0000
1100
0000
0000
0000
0011
0000
0000
0000
1100
0000
0000
0000
0001
0000
0000
0000
0110
0000
0000
0000
1000
0100
0010
0001
,
1100
0000
0000
0000
0000
0000
0000
0000
1100
0000
0000
0000
0000
0000
0000
0000
1100
0000
0000
0000
0000
0000
0000
0000
1000
0000
0010
0000
1000
0100
0010
0001
,
1100
0000
1100
0000
0001
0010
0100
1000
0001
0100
0010
1000
0001
0100
0010
1000
,
0011
0000
0011
0000
0001
0010
0100
1000
0001
0100
0010
1000
0001
0100
0010
1000
,
0011
0000
0011
0000
1000
0100
0010
0001
1000
0010
0100
0001
1000
0010
0100
0001
,
1100
0000
0000
0000
0000
0000
0000
0000
1010
0000
0000
0000
0000
0000
0000
0000
0101
0000
0000
0000
0000
0000
0000
0000
0001
0000
0100
0000
0001
0010
0100
1000
,
0011
0000
0011
0000
1000
0100
0010
0001
1000
0010
0100
0001
1000
0010
0100
0001
,
1100
0000
1100
0000
1000
0100
0010
0001
1000
0010
0100
0001
1000
0010
0100
0001
,
0110
0000
0110
0000
0001
0010
0100
1000
0001
1000
0010
0100
0001
1000
0010
0100
,
1001
0000
1010
0000
1001
0000
0210
0300
,
1001
0000
0210
0300
1001
0000
0210
0300
,
1100
1100
1010
1010
0110
0110
0101
0000
,
0022
0000
0000
0000
,
0000
0000
0000
0000
,
0000
0000
0000
0000
,
0000
0000
0000
0000
,
0000
0000
0033
0000
;
