#TITLE:Rise;
#SUBTITLE:- Instrumental Edit;
#ARTIST:Safri Duo;
#TITLETRANSLIT:;
#SUBTITLETRANSLIT:;
#ARTISTTRANSLIT:;
#CREDIT:;
#BANNER:Safri Duo - Rise (Instrumental Edit)_bn.png;
#BACKGROUND:Safri Duo - Rise (Instrumental Edit)_bg.png;
#LYRICSPATH:;
#CDTITLE:!StepmaniaFreak Title.png;
#MUSIC:Safri Duo - Rise (Instrumental Edit).mp3;
#OFFSET:-5.435;
#SAMPLESTART:102.700;
#SAMPLELENGTH:20.000;
#SELECTABLE:YES;
#DISPLAYBPM:138.000;
#BPMS:0.000=138.000,128.000=69.000,176.000=34.500,178.000=138.000,242.000=69.000,250.500=0.000;
#STOPS:;
#BGCHANGES:;
// cache tags:
#FIRSTBEAT:0.000;
#LASTBEAT:250.500;
#SONGFILENAME:Songs/StepmaniaFreak's Favorites/Safri Duo - Rise (Instrumental Edit)/Safri Duo - Rise (Instrumental Edit).sm;
#HASMUSIC:1;
#HASBANNER:1;
#MUSICLENGTH:143.237;
// end cache tags

//---------------dance-single - ----------------
#NOTES:
     dance-single:
     :
     Hard:
     9:
     0.749,1.000,0.447,0.133,0.862,668.000,64.000,19.000,0.000,0.000:
1001
1000
0000
1001
0001
0000
1001
1000
,
0110
0010
0000
0110
0100
0000
0110
0010
,
1001
0100
0000
0110
0010
0000
0000
1010
,
1001
0000
0000
1001
1000
0000
0110
0000
,
1010
0010
0000
1010
1000
0000
1010
0010
,
0110
0100
0000
0110
0010
0000
1010
1000
,
1001
0001
0000
1001
1000
0000
0000
1010
,
1001
0000
0000
1001
0001
0000
2002
3003
,
1001
0000
1000
0100
1000
0000
0010
0000
0100
0000
0001
0010
0001
0000
0100
0000
,
0011
0000
1000
0001
1000
0000
0100
0000
1001
0000
0000
0000
1001
0000
0100
0000
,
0010
0000
0100
0001
0100
0000
0010
0000
1000
0000
0010
0100
0010
0000
1000
0000
,
1001
0000
1001
0010
0100
0001
0010
0100
,
1000
0000
0100
0010
0100
0000
1000
0000
0100
0000
0010
0000
0001
0000
0100
0000
,
0010
0000
0100
0010
0100
0000
0001
0000
0101
0000
0000
0000
0101
0000
1000
0000
,
0001
0000
1000
0010
1000
0000
0001
0000
0100
0000
0000
0000
1000
0100
0010
0001
,
1000
0000
0000
0010
0000
0000
1000
0100
,
0011
0000
0001
0010
0001
0000
1000
0000
0010
0000
0100
0000
0001
0000
1000
0000
,
0110
0000
0010
0100
0010
0000
0001
0000
1010
0000
0000
0000
1010
0000
0100
0000
,
0001
0000
1000
0010
1000
0000
0010
0000
0001
0000
0000
0000
0001
0000
0100
0000
,
1010
0000
1000
0010
1000
0000
0001
0000
0100
0000
0010
0000
1000
0000
0100
0000
,
0011
0000
0001
1000
0001
0000
0100
0000
0010
0000
0000
0000
1000
0000
0001
0000
,
0101
0000
0010
1000
0010
0000
1000
0000
1001
0000
0000
0000
1001
0000
0100
0000
,
1000
0000
1000
0100
1000
0000
0001
0000
1010
0000
0000
0000
1000
0000
0001
0000
,
1000
0000
1000
0010
1000
0000
0100
0000
1001
0000
0000
0000
0010
0000
0100
0000
,
0010
0000
0010
0100
0010
0000
1000
0000
0011
0000
0000
0000
0010
0000
0001
0000
,
0010
0000
0100
1000
0100
0000
0010
0000
1001
0000
0000
0000
0001
0000
0010
0000
,
0001
0000
0001
0100
0001
0000
1000
0000
0101
0000
0010
0000
0100
0000
0001
0000
,
0100
1000
0100
0010
1100
0001
0100
0010
,
0100
1000
0100
0001
0110
1000
0001
0100
,
0010
1000
0001
0010
0101
1000
0001
0100
,
0010
1000
0001
0100
0010
1000
0001
1000
0100
0010
0001
1000
0100
0010
0001
1000
,
0010
0100
0001
1000
0010
0100
0001
0010
0100
1000
0100
0010
0001
0000
0000
0000
,
1010
0000
0000
0000
1000
0000
0000
0000
0001
0000
0000
0000
0010
0000
0100
0000
1000
0000
0000
0000
1000
0000
0000
0000
0001
0000
0000
0000
0010
0000
0100
0000
1000
0000
0000
0000
1000
0000
0000
0000
0001
0000
0000
0000
0010
0000
0000
0000
0000
0000
1000
0000
0000
0000
0000
0000
0202
0303
0000
0000
0000
0000
0000
0000
,
0010
0000
0000
0000
0010
0000
0000
0000
1000
0000
0000
0000
0001
0000
1000
0000
0010
0000
0000
0000
0010
0000
0000
0000
1000
0000
0000
0000
0001
0000
1000
0000
0010
0000
0000
0000
0010
0000
0000
0000
1000
0000
0000
0000
0001
0000
0000
0000
0000
0000
0100
0000
0000
0000
0000
0000
0022
0033
0000
0000
0000
0000
0000
0000
,
1000
0000
0000
0000
1000
0000
0000
0000
0010
0000
0000
0000
0100
0000
0001
0000
1000
0000
0000
0000
1000
0000
0000
0000
0010
0000
0000
0000
0100
0000
0001
0000
1000
0000
0000
0000
1000
0000
0000
0000
0010
0000
0000
0000
0100
0000
0000
0000
0000
0000
0001
0000
0000
0000
0000
0000
2020
3030
0000
0000
0000
0000
0000
0000
,
0100
0000
0000
0000
0100
0000
0000
0000
0010
0000
0000
0000
1000
0000
0001
0000
0100
0000
0000
0000
0100
0000
0000
0000
0010
0000
0000
0000
1000
0000
0001
0000
0100
0000
0010
0000
1000
0000
0001
0000
0100
0000
0010
0000
1000
0000
0001
0000
0100
0000
0010
0000
1000
0000
0001
0000
0200
0300
0000
0000
0000
0000
0000
0000
,
1001
0000
0000
0000
0100
0000
0010
0000
0100
0000
0000
0000
0010
0000
0000
0000
0100
0000
0000
0000
0000
0000
0100
0000
0010
0000
0100
0000
0010
0000
0000
0000
0100
0000
0000
0000
0000
0000
0100
0000
0000
0000
0100
0000
0010
0000
0000
0000
0100
0000
0000
0000
0000
0000
0100
0000
0002
0003
0100
0000
0010
0000
0000
0000
,
1000
0000
0000
0000
0000
0000
0010
0000
0100
0000
0001
0000
1000
0000
0000
0000
0010
0000
0000
0000
0000
0000
1000
0000
0000
0000
1000
0000
0010
0000
0000
0000
0100
0000
0000
0000
0000
0000
0010
0000
0000
0000
0010
0000
0100
0000
0000
0000
0010
0000
0000
0000
0000
0000
1000
0000
0020
0030
0100
0000
0001
0000
0000
0000
,
1000
0000
0000
0000
0000
0000
0100
0000
0010
0000
0100
0000
1000
0000
0000
0000
0001
0000
0000
0000
0000
0000
0010
0000
0000
0000
0010
0000
0001
0000
0000
0000
1000
0000
0000
0000
0000
0000
0100
0000
0000
0000
0100
0000
1000
0000
0000
0000
0001
0000
0000
0000
0000
0000
0010
0000
0200
0300
0010
0000
0001
0000
0000
0000
,
1000
0000
0100
0000
0010
0000
0001
0000
1000
0000
0100
0000
0010
0000
0001
0000
1000
0000
0010
0000
0100
0000
0001
0000
1000
0000
0010
0000
0100
0000
0001
0000
1000
0000
0100
0000
0010
0000
0001
0000
1000
0000
0100
0000
0010
0000
0001
0000
0100
0000
0001
0000
0100
0000
0001
0000
2000
3000
0000
0000
0000
0000
0000
0000
,
0010
0000
1000
0000
0001
0000
1000
0000
0010
0000
0000
0000
1000
0000
0001
0000
0000
0000
0100
0000
0000
0000
0100
0000
0010
0000
0000
0000
0100
0000
0000
0000
0010
0000
1000
0000
0001
0000
1000
0000
0010
0000
0000
0000
1000
0000
0001
0000
0000
0000
0100
0000
0000
0000
0100
0000
0020
0030
0000
0000
0100
0000
0000
0000
,
0010
0000
0100
0000
0010
0000
1000
0000
0100
0000
0000
0000
0100
0000
1000
0000
0000
0000
0100
0000
0000
0000
0100
0000
1000
0000
0000
0000
0001
0000
0000
0000
0010
0000
0100
0000
1000
0000
0100
0000
0010
0000
0000
0000
0001
0000
1000
0000
0000
0000
0100
0000
0000
0000
0100
0000
2000
3000
0000
0000
0001
0000
0000
0000
,
0010
0000
0001
0000
1000
0000
0001
0000
0010
0000
0000
0000
0001
0000
1000
0000
0000
0000
0100
0000
0000
0000
0100
0000
1000
0000
0000
0000
0100
0000
0000
0000
0010
0000
0001
0000
1000
0000
0001
0000
0010
0000
0000
0000
0001
0000
1000
0000
0000
0000
0100
0000
0000
0000
0100
0000
0020
0030
0000
0000
0100
0000
0000
0000
,
0010
0000
0100
0000
0010
0000
0001
0000
0010
0000
0000
0000
0100
0000
1000
0000
0000
0000
0100
0000
0000
0000
0100
0000
1000
0000
0000
0000
0001
0000
0000
0000
0010
0000
0100
0000
0001
0000
0100
0000
0010
0000
0000
0000
0001
0000
1000
0000
0000
0000
0100
0000
0000
0000
0100
0000
0020
0030
0000
0000
0100
0000
0000
0000
,
2002
0000
0000
0000
0000
0000
0000
0000
3003
0000
0000
0000
1000
0010
0100
0001
1000
0000
0000
0000
0000
0000
0010
0000
0000
0000
0000
0000
0100
0000
0010
0000
1001
0000
0000
0000
0000
0000
0000
0000
0001
0000
0000
0000
0010
0000
0000
0000
0001
0000
0000
0000
0000
0000
0000
0000
1000
0000
0000
0000
0000
0000
0000
0000
,
0010
0000
0100
0000
0001
0000
1000
0000
1100
0000
0010
0100
0010
0000
0001
0000
,
1010
0000
0000
0000
1010
0000
0100
0000
0001
0000
1000
0010
1000
0000
0010
0000
,
0100
0000
0000
0000
0001
0000
0100
0000
1001
0000
1000
0010
1000
0000
0001
0000
,
0100
0000
0010
0000
1000
0000
0100
0000
0010
0000
0001
1000
0001
0000
0100
0000
,
0010
0000
0000
0000
1010
0000
0001
0000
1100
0000
0010
1000
0010
0000
1000
0000
,
0011
0000
0000
0000
0011
0000
0100
0000
1000
0000
0100
1000
0100
0000
1000
0000
,
0001
0000
0000
0000
1000
0000
0010
0000
1000
0000
1000
0001
1000
0000
0010
0000
,
0100
0000
0000
0000
0001
0000
0100
0000
0010
0000
1000
0010
1000
0000
0100
0000
,
0010
0000
0000
0000
0001
0000
1000
0000
0010
0000
0100
0010
0100
0000
0001
0000
,
1000
0000
0000
0000
1000
0000
0001
0000
0100
0000
0010
1000
0100
0000
0010
0000
,
0001
0000
0000
0000
1000
0000
0010
0000
0100
0000
0001
0010
0001
0000
1000
0000
,
0100
0000
0000
0000
1000
0000
0010
0000
1000
0000
0000
0100
1000
0000
0100
0000
,
1000
0000
0000
0001
1000
0010
0100
0000
0001
0000
0000
1000
0001
0000
0100
0000
,
0010
0000
0000
0010
0000
0010
0100
0000
0010
1000
0001
0100
0010
1000
0001
0100
,
0010
1000
0100
0010
0001
1000
0100
0010
0001
0100
0010
1000
0001
0100
0010
1000
,
0001
0000
1000
0000
0100
0000
0010
0000
0001
0000
0000
0000
0000
0000
1000
0000
0001
0000
0001
0000
0010
0000
0000
1000
0001
0000
0001
0000
0010
0000
0000
0000
,
0000
0000
0000
0000
0000
0000
0000
0000
0000
0000
0000
0000
0000
0000
0000
0001
1000
0000
1000
0000
0100
0000
0000
0001
1000
0000
1000
0000
0100
0000
0000
0000
,
0000
0000
0000
0000
0000
0000
0000
0000
0000
0000
0000
0000
0000
0000
0000
1000
0010
0000
0010
0000
0100
0000
0000
0000
0000
0000
0000
0000
0000
0000
0000
0000
;

//---------------dance-single - ----------------
#NOTES:
     dance-single:
     :
     Medium:
     6:
     0.455,0.678,0.251,0.161,0.175,397.000,36.000,23.000,0.000,0.000:
0001
0000
0100
0001
0000
0100
0001
0100
,
0010
0000
1000
0010
0000
1000
0010
0100
,
0001
0000
0100
0001
0000
0100
0001
1000
,
0010
0000
0100
0010
0000
0000
0110
0000
,
0010
0000
0100
0010
0000
0100
0010
1000
,
0001
0000
0100
0001
0000
0100
0001
1000
,
0010
0000
1000
0010
0000
0000
0000
1000
,
0010
0000
0000
0010
0000
0000
0220
0330
,
1001
0000
0000
0010
0001
1000
0100
0010
,
0001
0000
0000
1000
0010
0000
0010
0100
,
0000
0000
0100
0010
0000
0010
0100
0000
,
0001
0000
0001
0100
0010
1000
0100
0010
,
0001
0000
0000
1000
0010
0100
0001
0010
,
0100
0000
0000
0001
1000
0000
1000
0010
,
0000
0000
0000
0000
0100
0000
0010
0000
0000
0000
0000
0000
0010
0100
0010
0100
,
0010
0000
0000
0100
0000
0000
0010
0100
,
1001
0000
0010
0001
0010
0100
1000
0001
,
1000
0000
0000
0010
1000
0000
1000
0001
,
0000
1000
0010
0000
0010
0000
0010
0000
,
1001
0000
0010
0100
0001
0010
0100
1000
,
0010
0000
0010
0000
0100
0000
0100
0001
,
0010
0000
0001
0100
0010
0000
0010
1000
,
0000
0001
1000
0000
1000
0000
0100
0000
,
0100
0010
0010
0001
,
1001
0000
0000
1001
0000
0000
1001
0000
,
1100
0000
0000
1100
0000
0000
1100
0000
,
0101
0000
0000
0101
0000
0000
0101
0000
,
0011
0000
0000
0011
0000
0000
0011
0000
,
0010
0010
0100
0100
,
1000
1000
1000
1000
,
1000
1000
0001
0001
0100
0100
0010
0010
,
1000
1000
0001
0001
0100
0100
0010
0000
,
1000
0000
0000
0000
1000
0000
0000
0000
0010
0000
0000
0000
0000
0000
0000
0000
1000
0000
0000
0000
1000
0000
0000
0000
0010
0000
0000
0000
0000
0000
0000
0000
1000
0000
0000
0000
0010
0000
0000
0000
0100
0000
0000
0000
0001
0000
0000
0000
0000
0000
0100
0000
0000
0000
0000
0000
2002
3003
0000
0000
0000
0000
0000
0000
,
0001
0000
0000
0000
0001
0000
0000
0000
1000
0000
0000
0000
0000
0000
0000
0000
0001
0000
0000
0000
0001
0000
0000
0000
1000
0000
0000
0000
0000
0000
0000
0000
0001
0000
0000
0000
0001
0000
0000
0000
1000
0000
0000
0000
0010
0000
0000
0000
0000
0000
0100
0000
0000
0000
0000
0000
0202
0303
0000
0000
0000
0000
0000
0000
,
0100
0000
0000
0000
0001
0000
0000
0000
1000
0000
0000
0000
0000
0000
0000
0000
0100
0000
0000
0000
1000
0000
0000
0000
0001
0000
0000
0000
0000
0000
0000
0000
0100
0000
0000
0000
0100
0000
0000
0000
0010
0000
0000
0000
1000
0000
0000
0000
0000
0000
0001
0000
0000
0000
0000
0000
0220
0330
0000
0000
0000
0000
0000
0000
,
0100
0000
0000
0000
0100
0000
0000
0000
0010
0000
0000
0000
0000
0000
0000
0000
0100
0000
0000
0000
0100
0000
0000
0000
0010
0000
0000
0000
0000
0000
0000
0000
0100
0000
0000
0000
0100
0000
0000
0000
0010
0000
0000
0000
0010
0000
0000
0000
0100
0000
0000
0000
0100
0000
0000
0000
2000
3000
0000
0000
0000
0000
0000
0000
,
0001
0000
0000
0000
0000
0000
0000
0000
0100
0000
0000
0000
0010
0000
0000
0000
0100
0000
0000
0000
0000
0000
0000
0000
0001
0000
0000
0000
1000
0000
0000
0000
0001
0000
0000
0000
0000
0000
0000
0000
0100
0000
0000
0000
0010
0000
0000
0000
0100
0000
0000
0000
0000
0000
0000
0000
2200
3300
0000
0000
0000
0000
0000
0000
,
1000
0000
0000
0000
0000
0000
0000
0000
0001
0000
0000
0000
0100
0000
0000
0000
0001
0000
0000
0000
0000
0000
0000
0000
1000
0000
0000
0000
0010
0000
0000
0000
0100
0000
0000
0000
0000
0000
0000
0000
0001
0000
0000
0000
1000
0000
0000
0000
0010
0000
0000
0000
0000
0000
0000
0000
0200
0300
0000
0000
0000
0000
0000
0000
,
0001
0000
0000
0000
0000
0000
0000
0000
0010
0000
0000
0000
0001
0000
0000
0000
0010
0000
0000
0000
0000
0000
0000
0000
0001
0000
0000
0000
0010
0000
0000
0000
0100
0000
0000
0000
0000
0000
0000
0000
1000
0000
0000
0000
0010
0000
0000
0000
0100
0000
0000
0000
0000
0000
0000
0000
0002
0003
0000
0000
0000
0000
0000
0000
,
1000
0000
0000
0000
1000
0000
0000
0000
0010
0000
0000
0000
0010
0000
0000
0000
0100
0000
0000
0000
0100
0000
0000
0000
0001
0000
0000
0000
0001
0000
0000
0000
0010
0000
0000
0000
0010
0000
0000
0000
0100
0000
0000
0000
0100
0000
0000
0000
1000
0000
0000
0000
1000
0000
0000
0000
0002
0003
0000
0000
0000
0000
0000
0000
,
0100
0000
0000
0000
0000
0000
0000
0000
0010
0000
0000
0000
0000
0000
0000
0000
1000
0000
0000
0000
0000
0000
0000
0000
0001
0000
0000
0000
0000
0000
0000
0000
0100
0000
0000
0000
0000
0000
0000
0000
0010
0000
0000
0000
0000
0000
0000
0000
1000
0000
0000
0000
0000
0000
0000
0000
0202
0303
0000
0000
0000
0000
0000
0000
,
1000
0000
0000
0000
0000
0000
0000
0000
0010
0000
0000
0000
0000
0000
0000
0000
0100
0000
0000
0000
0000
0000
0000
0000
0001
0000
0000
0000
0000
0000
0000
0000
1000
0000
0000
0000
0000
0000
0000
0000
0010
0000
0000
0000
0000
0000
0000
0000
0100
0000
0000
0000
0000
0000
0000
0000
0022
0033
0000
0000
0000
0000
0000
0000
,
1000
0000
0000
0000
0000
0000
0000
0000
0100
0000
0000
0000
0000
0000
0000
0000
0010
0000
0000
0000
0000
0000
0000
0000
0001
0000
0000
0000
0000
0000
0000
0000
1000
0000
0000
0000
0000
0000
0000
0000
0100
0000
0000
0000
0000
0000
0000
0000
0010
0000
0000
0000
0000
0000
0000
0000
0202
0303
0000
0000
0000
0000
0000
0000
,
1000
0000
0000
0000
0000
0000
0000
0000
0010
0000
0000
0000
0000
0000
0000
0000
1000
0000
0000
0000
0000
0000
0000
0000
0001
0000
0000
0000
0000
0000
0000
0000
0100
0000
0000
0000
0000
0000
0000
0000
0010
0000
0000
0000
0000
0000
0000
0000
1000
0000
0000
0000
0000
0000
0000
0000
0020
0030
0000
0000
0000
0000
0000
0000
,
2002
0000
0000
0000
3003
0000
1000
0100
1000
0000
0000
0100
0000
0000
0010
0100
1000
0000
0000
0000
0100
0000
0000
0000
0010
0000
0000
0000
0001
0000
0000
0000
,
0010
0100
1000
0001
1000
0000
0000
0010
,
1000
0000
1000
0001
0000
1000
0010
0000
,
0010
0000
0010
0000
1001
0000
0010
0100
,
0001
0010
0100
1000
0010
0000
0010
0000
,
0100
0000
0010
0100
0001
0000
0001
0100
,
0010
0000
0010
1000
0000
0001
1000
0000
,
1000
0100
0100
0010
,
0010
0000
0001
0000
1010
0000
0000
1010
,
0000
0000
1010
0000
1001
0000
0000
1001
,
0000
0000
1001
0000
0011
0000
0000
0011
,
0000
0011
1001
1000
,
0010
0000
0001
0000
1000
0001
1000
0100
,
1000
0000
1000
0001
0100
0000
0010
1000
,
0010
0000
0000
0100
0000
0000
0001
0000
0001
0000
0001
0000
0100
0000
0100
0000
,
0010
0010
1000
1000
0100
0100
0010
0010
,
0001
0000
0001
0000
1000
0000
0000
0000
0100
0100
0010
0000
0100
0100
0010
0000
,
0000
0000
0000
0000
0000
0000
0000
0000
0100
0100
0010
0000
0100
0100
0010
0000
,
0000
0000
0000
0000
0000
0000
0000
0000
0000
0000
0000
0000
0000
0000
0000
1000
0100
0000
0100
0000
0010
0000
0000
0000
0000
0000
0000
0000
0000
0000
0000
0000
;

//---------------dance-single - ----------------
#NOTES:
     dance-single:
     :
     Easy:
     4:
     0.304,0.547,0.056,0.105,0.028,282.000,8.000,15.000,0.000,0.000:
1000
0000
0000
1000
0000
0000
1000
0000
,
0001
0000
0000
0001
0000
0000
0001
0000
,
1000
0000
0000
1000
0000
0000
1000
0001
,
1000
0000
0000
1000
0000
0000
1000
0000
,
0010
0000
0000
0010
0000
0000
0010
0000
,
0100
0000
0000
0100
0000
0000
0100
0000
,
0010
0000
0000
0010
0000
0000
0010
0100
,
0010
0000
0000
0010
0000
0000
0020
0030
,
1000
0010
1000
0001
,
0001
0100
0010
1000
,
0100
0100
0100
0100
,
0010
0010
0010
0010
,
0100
0000
0100
0000
,
0001
0000
0001
0000
,
1000
0000
0000
0000
1000
0000
1000
1000
,
1000
0000
0000
0100
0000
0000
0010
0001
,
0100
0001
0100
0010
,
0100
0010
1000
0001
,
1000
1000
1000
1000
,
0001
0001
0001
0001
,
1000
0000
1000
0000
,
0010
0000
0010
0000
,
0100
0000
0100
0000
,
0001
0000
0001
0000
,
0001
0001
0001
1000
,
1000
1000
0010
0010
,
0010
0100
0100
0100
,
0010
1000
0001
1000
,
0001
0010
0100
0010
,
0100
1000
0001
1000
,
0100
0010
0100
0000
0010
0100
0010
0000
,
0100
0010
0100
0000
0010
0100
0010
0000
,
1001
0000
0000
0000
0000
0000
0000
0000
1000
0000
0000
0000
0000
0000
0000
0000
1000
0000
0000
0000
0000
0000
0000
0000
1000
0000
0000
0000
0000
0000
0000
0000
1000
0000
0000
0000
0000
0000
0000
0000
1000
0000
0000
0000
0000
0000
0000
0000
1000
0000
0000
0000
0000
0000
0000
0000
0020
0030
0000
0000
0000
0000
0000
0000
,
1001
0000
0000
0000
0000
0000
0000
0000
0001
0000
0000
0000
0000
0000
0000
0000
0001
0000
0000
0000
0000
0000
0000
0000
0001
0000
0000
0000
0000
0000
0000
0000
0001
0000
0000
0000
0000
0000
0000
0000
0001
0000
0000
0000
0000
0000
0000
0000
0001
0000
0000
0000
0000
0000
0000
0000
0200
0300
0000
0000
0000
0000
0000
0000
,
1010
0000
0000
0000
0000
0000
0000
0000
1000
0000
0000
0000
0000
0000
0000
0000
0010
0000
0000
0000
0000
0000
0000
0000
1000
0000
0000
0000
0000
0000
0000
0000
0010
0000
0000
0000
0000
0000
0000
0000
1000
0000
0000
0000
0000
0000
0000
0000
0010
0000
0000
0000
0000
0000
0000
0000
0200
0300
0000
0000
0000
0000
0000
0000
,
0101
0000
0000
0000
0000
0000
0000
0000
0001
0000
0000
0000
0000
0000
0000
0000
0100
0000
0000
0000
0000
0000
0000
0000
0001
0000
0000
0000
0000
0000
0000
0000
0100
0000
0000
0000
0001
0000
0000
0000
0100
0000
0000
0000
0001
0000
0000
0000
0100
0000
0000
0000
0001
0000
0000
0000
0200
0300
0000
0000
0000
0000
0000
0000
,
1010
0000
0000
0000
0000
0000
0000
0000
0010
0000
0000
0000
0000
0000
0000
0000
1000
0000
0000
0000
0000
0000
0000
0000
0010
0000
0000
0000
0000
0000
0000
0000
0100
0000
0000
0000
0000
0000
0000
0000
0001
0000
0000
0000
0000
0000
0000
0000
1000
0000
0000
0000
0000
0000
0000
0000
0020
0030
0000
0000
0000
0000
0000
0000
,
0101
0000
0000
0000
0000
0000
0000
0000
0001
0000
0000
0000
0000
0000
0000
0000
1000
0000
0000
0000
0000
0000
0000
0000
0010
0000
0000
0000
0000
0000
0000
0000
0100
0000
0000
0000
0000
0000
0000
0000
0001
0000
0000
0000
0000
0000
0000
0000
1000
0000
0000
0000
0000
0000
0000
0000
0020
0030
0000
0000
0000
0000
0000
0000
,
1001
0000
0000
0000
0000
0000
0000
0000
1000
0000
0000
0000
0000
0000
0000
0000
0100
0000
0000
0000
0000
0000
0000
0000
0010
0000
0000
0000
0000
0000
0000
0000
0001
0000
0000
0000
0000
0000
0000
0000
1000
0000
0000
0000
0000
0000
0000
0000
0100
0000
0000
0000
0000
0000
0000
0000
0020
0030
0000
0000
0000
0000
0000
0000
,
0001
0000
0000
0000
1000
0000
0000
0000
0001
0000
0000
0000
0000
0000
0000
0000
0010
0000
0000
0000
0100
0000
0000
0000
0010
0000
0000
0000
0000
0000
0000
0000
0100
0000
0000
0000
0001
0000
0000
0000
0100
0000
0000
0000
0000
0000
0000
0000
1000
0000
0000
0000
0010
0000
0000
0000
2000
3000
0000
0000
0000
0000
0000
0000
,
0010
0000
0000
0000
0000
0000
0000
0000
0100
0000
0000
0000
0000
0000
0000
0000
0010
0000
0000
0000
0000
0000
0000
0000
1000
0000
0000
0000
0000
0000
0000
0000
0010
0000
0000
0000
0000
0000
0000
0000
0100
0000
0000
0000
0000
0000
0000
0000
0010
0000
0000
0000
0000
0000
0000
0000
2000
3000
0000
0000
0000
0000
0000
0000
,
0010
0000
0000
0000
0000
0000
0000
0000
0100
0000
0000
0000
0000
0000
0000
0000
0001
0000
0000
0000
0000
0000
0000
0000
0010
0000
0000
0000
0000
0000
0000
0000
0001
0000
0000
0000
0000
0000
0000
0000
0100
0000
0000
0000
0000
0000
0000
0000
0010
0000
0000
0000
0000
0000
0000
0000
2000
3000
0000
0000
0000
0000
0000
0000
,
0001
0000
0000
0000
0000
0000
0000
0000
0010
0000
0000
0000
0000
0000
0000
0000
0100
0000
0000
0000
0000
0000
0000
0000
1000
0000
0000
0000
0000
0000
0000
0000
0001
0000
0000
0000
0000
0000
0000
0000
0010
0000
0000
0000
0000
0000
0000
0000
0100
0000
0000
0000
0000
0000
0000
0000
2000
3000
0000
0000
0000
0000
0000
0000
,
0001
0000
0000
0000
0000
0000
0000
0000
0010
0000
0000
0000
0000
0000
0000
0000
0100
0000
0000
0000
0000
0000
0000
0000
0010
0000
0000
0000
0000
0000
0000
0000
0001
0000
0000
0000
0000
0000
0000
0000
1000
0000
0000
0000
0000
0000
0000
0000
0100
0000
0000
0000
0000
0000
0000
0000
0002
0003
0000
0000
0000
0000
0000
0000
,
2200
3300
0000
0000
0001
0000
0100
0000
,
0010
1000
0001
0010
,
0100
1000
0100
0100
,
0100
0100
0010
0010
,
0010
0010
0100
0000
,
0100
0000
1000
0000
,
1000
0000
0001
0000
,
0001
0000
0010
0000
,
0010
0000
0001
1000
,
0001
1000
0010
0100
,
0010
0100
0001
1000
,
0001
1000
1000
0100
,
0010
0001
1000
1000
,
1000
0000
0001
0001
,
0001
0000
0000
0000
0100
0001
0100
0000
,
0010
1000
0010
0000
1000
0001
1000
0000
,
0001
0100
0001
0000
1000
0000
0000
0000
,
0000
0000
0000
0000
0001
0001
0000
0000
,
0000
0000
0000
0000
0000
0000
0000
0000
0100
0100
0010
0000
0000
0000
0000
0000
;

//---------------dance-single - ----------------
#NOTES:
     dance-single:
     :
     Challenge:
     11:
     1.000,1.000,1.000,0.887,1.000,783.000,150.000,127.000,0.000,0.000:
1010
0100
0001
1100
0001
0010
1001
0100
,
1010
0100
0001
0000
0100
0000
1010
0000
0100
0000
1000
0000
0011
0000
0100
0000
,
1001
0010
0100
0000
0001
0000
1010
0000
0001
0000
0100
0000
0001
0000
1010
0000
,
1001
1000
0001
1100
0100
0010
0101
1000
,
0011
0100
0010
1100
0001
0010
1100
0010
,
0101
1000
0010
0000
0001
0000
1010
0000
0001
0000
0100
0000
0011
0000
0100
0000
,
1010
0100
0001
0000
0010
0000
1001
0000
0100
0000
0010
0000
0001
0000
1100
0000
,
1001
1000
0100
1001
0010
0100
0002
0003
,
1000
0000
0000
0000
0010
0000
0000
0000
0000
0000
0000
0000
1000
0000
0000
0000
0010
0000
0000
0000
0000
0000
0000
0000
0201
0300
0000
0000
0000
0000
0000
0000
2000
3000
0000
0000
0001
0000
0000
0000
0020
0030
0000
0000
0001
0000
0000
0000
2000
3000
0000
0000
0000
0000
0000
0000
0020
0030
0000
0000
0000
0000
0000
0000
,
0200
0300
0000
0000
0001
0000
0000
0000
0000
0000
0000
0000
0001
0000
0000
0000
0100
0000
0000
0000
0000
0000
0000
0000
2002
3003
0000
0000
0000
0000
0000
0000
0200
0300
0000
0000
0010
0000
0000
0000
0000
0000
0000
0000
0010
0000
0000
0000
0200
0300
0000
0000
0000
0000
0000
0000
0022
0033
0000
0000
0000
0000
0000
0000
,
1000
0010
0000
0010
1000
0000
0101
0000
0001
0100
0000
0010
1000
0000
0101
0000
,
0020
0030
0000
0000
0001
0000
0000
0000
0000
0000
0000
0000
1000
0000
0000
0000
0010
0000
0000
0000
0000
0000
0000
0000
0110
0000
0000
0000
0000
0000
0000
0000
0200
0300
0000
0000
0001
0000
0000
0000
2000
3000
0000
0000
0100
0000
0000
0000
0020
0030
0000
0000
0000
0000
0000
0000
0202
0303
0000
0000
0000
0000
0000
0000
,
0200
0300
0000
0000
1000
0000
0000
0000
0000
0000
0000
0000
0001
0000
0000
0000
1000
0000
0000
0000
0000
0000
0000
0000
0110
0000
0000
0000
0000
0000
0000
0000
0100
0000
0000
0000
0001
0000
0000
0000
0000
0000
0000
0000
1000
0000
0000
0000
0020
0030
0000
0000
0000
0000
0000
0000
2200
3300
0000
0000
0000
0000
0000
0000
,
0002
0003
0000
0000
1000
0000
0000
0000
0000
0000
0000
0000
1000
0000
0000
0000
0002
0003
0000
0000
0000
0000
0000
0000
2200
3300
0000
0000
0000
0000
0000
0000
0020
0030
0000
0000
1000
0000
0000
0000
0000
0000
0000
0000
0010
0000
0000
0000
2000
3000
0000
0000
0000
0000
0000
0000
0202
0303
0000
0000
0000
0000
0000
0000
,
0010
0000
0000
0000
0001
0000
0000
0000
0000
0000
0000
0000
0010
0000
0000
0000
0001
0000
0000
0000
0000
0000
0000
0000
1010
0000
0000
0000
0000
0000
0000
0000
0100
0000
0000
0000
0010
0000
0000
0000
0000
0000
0000
0000
0020
0030
0000
0000
2000
3000
0000
0000
0200
0300
0000
0000
2000
3000
0000
0000
0200
0300
0000
0000
,
0020
0030
0000
0000
0000
0000
0000
0000
0000
0000
0000
0000
0000
0000
0000
0000
0000
0000
0000
0000
0000
0000
0000
0000
0202
0303
0000
0000
0000
0000
0000
0000
0000
0000
0000
0000
0000
0000
0000
0000
0000
0000
0000
0000
0000
0000
0000
0000
2002
3003
0000
0000
0000
0000
0000
0000
2200
3300
0000
0000
0000
0000
0000
0000
,
0020
0000
0000
0030
0000
0000
0000
0000
0000
0000
0000
0000
0001
0000
0000
0000
0000
0000
0000
0000
0000
0000
0000
0000
0000
0000
0000
0000
0000
0000
0000
0000
0000
0000
0000
0000
0010
0000
0000
0000
0000
0000
0000
0000
0000
0000
0000
0000
0001
0000
0000
0000
0000
0000
0000
0000
0000
0000
0000
0000
0000
0000
0000
0000
0000
0000
0000
0000
0000
0000
0000
0000
1010
0000
0000
0000
0000
0000
0000
0000
0000
0000
0000
0000
0000
0000
0000
0000
0000
0000
0000
0000
0000
0000
0000
0000
0100
0000
0000
0000
0000
0000
0000
0000
0000
0000
0000
0000
0010
0000
0000
0000
0000
0000
0000
0000
0000
0000
0000
0000
0000
0000
0000
0000
0000
0000
0000
0000
0000
0000
0000
0000
0010
0000
0000
0000
0000
0000
0000
0000
0000
0000
0000
0000
0200
0000
0000
0300
0000
0000
0000
0000
0000
0000
0000
0000
0000
0000
0000
0000
0000
0000
0000
0000
0000
0000
0000
0000
2002
0000
0000
3000
0003
0000
0000
0000
0000
0000
0000
0000
0000
0000
0000
0000
0000
0000
0000
0000
0000
0000
0000
0000
,
2000
3000
0000
0000
0001
0000
0000
0000
0000
0000
0000
0000
1000
0000
0000
0000
0001
0000
0000
0000
0000
0000
0000
0000
1100
0000
0000
0000
0000
0000
0000
0000
0020
0030
0000
0000
1000
0000
0000
0000
0000
0000
0000
0000
1000
0000
0000
0000
0002
0003
0000
0000
0000
0000
0000
0000
0220
0330
0000
0000
0000
0000
0000
0000
,
0001
1000
0000
1000
0001
0000
1001
0000
0010
0100
0000
0100
0010
0000
1100
0000
,
0001
0000
0000
0000
0010
0000
0000
0000
0000
0000
0000
0000
0100
0000
0000
0000
1000
0000
0000
0000
0000
0000
0000
0000
2002
3003
0000
0000
0000
0000
0000
0000
0020
0030
0000
0000
0100
0000
0000
0000
2000
3000
0000
0000
0100
0000
0000
0000
0020
0030
0000
0000
0000
0000
0000
0000
2200
3300
0000
0000
0000
0000
0000
0000
,
0002
0003
0000
0000
0100
0000
0000
0000
0000
0000
0000
0000
0010
0000
0000
0000
1000
0000
0000
0000
0000
0000
0000
0000
0101
0000
0000
0000
0000
0000
0000
0000
0010
0000
0000
0000
0001
0000
0000
0000
0000
0000
0000
0000
0001
0000
0000
0000
0020
0030
0000
0000
0000
0000
0000
0000
2200
3300
0000
0000
0000
0000
0000
0000
,
0200
0300
0000
0000
0010
0000
0000
0000
0000
0000
0000
0000
0100
0000
0000
0000
0010
0000
0000
0000
0000
0000
0000
0000
0202
0303
0000
0000
0000
0000
0000
0000
2000
3000
0000
0000
0100
0000
0000
0000
0000
0000
0000
0000
0100
0000
0000
0000
2000
3000
0000
0000
0000
0000
0000
0000
0022
0033
0000
0000
0000
0000
0000
0000
,
0100
0010
0000
1000
0001
0000
1100
0000
0010
1000
0000
0010
1000
0000
0101
0000
,
1000
0100
0000
0100
1000
0000
0011
0000
0100
0001
0000
0001
0100
0000
0011
0000
,
1100
0000
0000
1000
0100
0000
0000
0000
1100
0000
0000
0100
1000
0010
0100
0000
,
1100
0000
0000
0000
0000
0000
0010
0000
0100
0000
0000
0000
0001
0000
0000
0000
1010
0000
0000
0000
0000
0000
0001
0000
0020
0030
0100
0000
1000
0000
0000
0000
,
0110
0000
0000
1000
0001
0000
0100
0000
0011
0000
0000
1000
0010
0100
0001
0000
,
1010
0000
0000
0000
0000
0000
0100
0000
1000
0000
0000
0000
0001
0000
0000
0000
0110
0000
0000
0000
0000
0000
0001
0000
0020
0030
0100
0000
1000
0000
0000
0000
,
0011
0000
0000
0100
1000
0000
0010
0000
0101
0000
0000
0010
1000
0001
0100
0000
,
0011
0000
0000
0000
0000
0000
1000
0000
0100
0000
0000
0000
1000
0000
0000
0000
1010
0000
0000
0000
0000
0000
0100
0000
0020
0030
0001
0000
0100
0000
0000
0000
,
1000
0000
0100
1000
0010
0000
0100
0000
0001
0010
0001
0000
1000
0000
0100
0000
1000
0000
0010
0100
0001
0000
0010
0000
0001
1000
0100
0000
1000
0000
0010
0000
,
0100
0000
0001
0010
0001
0000
1000
0000
0100
1000
0010
0000
0100
0000
0001
0000
0010
0000
0001
1000
0100
0000
0010
0000
1001
0000
0000
0000
0000
0000
0000
0000
,
1001
0000
0000
0000
0010
0000
0000
0000
1001
0000
0000
0000
1000
0000
0010
0000
0100
0000
0000
0000
0001
0000
0000
0000
1100
0000
0000
0000
0100
0000
0001
0000
1000
0000
0000
0000
0100
0000
0000
0000
1010
0000
0000
0000
0010
0000
0000
0000
0000
0000
1000
0000
0000
0000
1000
0000
0220
0330
0000
0000
0000
0000
0001
0000
,
1000
0000
0000
0000
0100
0000
0000
0000
0011
0000
0000
0000
0010
0000
1000
0000
0100
0000
0000
0000
0010
0000
0000
0000
1001
0000
0000
0000
1000
0000
0100
0000
1000
0000
0000
0000
0010
0000
0000
0000
0101
0000
0000
0000
0010
0000
0000
0000
0000
0000
0001
0000
0000
0000
0001
0000
2200
3300
0000
0000
0000
0000
0001
0000
,
1000
0000
0000
0000
0010
0000
0000
0000
0101
0000
0000
0000
1000
0000
0001
0000
1000
0000
0000
0000
0010
0000
0000
0000
1100
0000
0000
0000
1000
0000
0010
0000
0100
0000
0000
0000
0001
0000
0000
0000
1010
0000
0000
0000
0100
0000
0000
0000
0000
0000
0001
0000
0000
0000
0001
0000
2200
3300
0000
0000
0000
0000
0100
0000
,
0001
0000
0000
0000
1000
0000
0000
0000
0110
0000
0000
0000
0010
0000
1000
0000
0001
0000
0000
0000
0100
0000
0000
0000
1010
0000
0000
0000
0100
0000
1000
0000
0001
0000
0010
0001
0100
0000
0010
0000
1000
0100
1000
0000
0001
0000
0010
0000
0001
0000
0100
0010
1000
0000
0100
0000
2200
3300
0000
0000
0000
0000
0000
0000
,
1001
0000
0000
0000
0000
0000
0010
0000
0100
0000
0000
0000
0010
0000
0000
0000
1100
0000
0000
0000
0000
0000
0001
0000
0100
0000
0001
0000
0010
0000
0000
0000
0101
0000
0000
0000
0000
0000
1000
0000
0010
0000
0000
0000
0100
0000
0000
0000
1001
0000
0000
0000
0000
0000
0100
0000
0002
0003
0010
0000
0100
0000
0000
0000
,
1010
0000
0000
0000
0000
0000
0100
0000
0001
0000
0000
0000
0010
0000
0000
0000
1100
0000
0000
0000
0000
0000
0010
0000
0100
0000
0001
0000
1000
0000
0000
0000
0110
0000
0000
0000
0000
0000
1000
0000
0001
0000
0000
0000
0010
0000
0000
0000
1100
0000
0000
0000
0000
0000
0010
0000
0002
0003
1000
0000
0100
0000
0000
0000
,
0011
0000
0000
0000
0000
0000
1000
0000
0100
0000
0000
0000
1000
0000
0000
0000
0110
0000
0000
0000
0000
0000
0001
0000
0100
0000
0010
0000
1000
0000
0000
0000
0101
0000
0000
0000
0000
0000
0010
0000
1000
0000
0000
0000
0100
0000
0000
0000
0011
0000
0000
0000
0000
0000
1000
0000
0200
0300
0010
0000
0100
0000
0000
0000
,
0001
0000
0010
0001
0100
0000
0010
0000
1000
0100
1000
0000
0001
0000
0010
0000
0001
0000
0100
0010
1000
0000
0100
0000
1000
0001
0010
0000
0001
0000
0100
0000
0010
0000
1000
0100
1000
0000
0001
0000
0010
0001
0100
0000
0010
0000
1000
0000
0100
0000
1000
0001
0010
0000
0001
0000
2200
3300
0000
0000
0000
0000
0000
0000
,
0100
0000
0010
0000
0100
0000
1000
0000
0011
0000
0000
0000
0010
0000
0100
0000
0000
0000
0010
0000
0000
0000
0100
0000
1001
0000
0000
0000
0010
0000
0100
0000
0010
0000
1000
0000
0010
0000
0100
0000
0011
0000
0000
0000
1000
0000
0001
0000
0000
0000
0100
0000
0000
0000
0010
0000
0202
0303
0000
0000
0010
0000
1000
0000
,
0010
0000
0100
0000
0010
0000
1000
0000
0101
0000
0000
0000
1000
0000
0001
0000
0000
0000
0100
0000
0000
0000
0010
0000
1001
0000
0000
0000
1000
0000
0100
0000
0010
0000
0001
0000
0010
0000
0100
0000
0011
0000
0000
0000
0100
0000
1000
0000
0000
0000
0010
0000
0000
0000
1000
0000
0220
0330
0000
0000
0001
0000
1000
0000
,
0001
0000
0010
0000
0100
0000
1000
0000
0101
0000
0000
0000
1000
0000
0010
0000
0000
0000
0100
0000
0000
0000
0001
0000
1100
0000
0000
0000
0010
0000
1000
0000
0001
0000
1000
0000
0100
0000
1000
0000
0110
0000
0000
0000
0001
0000
0100
0000
0000
0000
0010
0000
0000
0000
0100
0000
0022
0033
0000
0000
1000
0000
0001
0000
,
1000
0000
0100
0000
0010
0000
0001
0000
1100
0000
0000
0000
0001
0000
1000
0000
0000
0000
0010
0000
0000
0000
1000
0000
0101
0000
0000
0000
1000
0000
0001
0000
0100
0000
0001
0000
0010
0000
0001
0000
1010
0000
0000
0000
0100
0000
0010
0000
0000
0000
0001
0000
0000
0000
0100
0000
2002
3003
0000
0000
0010
0000
0000
0000
,
2002
0000
0000
0000
0000
0000
0000
0000
0000
0000
0000
0000
0000
0000
0000
0000
0000
0000
0000
0000
0000
0000
0000
0000
3003
0000
0000
0000
0000
0000
0000
0000
0000
0000
0000
0000
0001
0000
0000
0000
0100
0000
0010
0000
0001
0010
0000
0000
0100
0000
0000
0000
0000
0000
0000
0000
0000
0000
0000
0000
0000
0000
0000
0000
0000
0000
0020
0000
0000
0030
0000
0000
0000
0000
0000
0000
0000
0000
0000
0000
0000
0000
0000
0000
0200
0000
0000
0300
0000
0000
2000
0000
0000
3000
0000
0000
0220
0000
0000
0330
0000
0000
0000
0000
0000
0000
0000
0000
0000
0000
0000
0000
0000
0000
0000
0000
0000
0000
0000
0000
0000
0000
0000
0000
0000
0000
0000
0000
0000
0000
0000
0000
0100
0000
0000
0000
0000
0000
0000
0000
0000
0000
0000
0000
1000
0000
0000
0000
0000
0000
0000
0000
0000
0000
0000
0000
0000
0000
0000
0000
0000
0000
0000
0000
0000
0000
0000
0000
0101
0000
0000
0000
0000
0000
0000
0000
0000
0000
0000
0000
0000
0000
0000
0000
0000
0000
0000
0000
0000
0000
0000
0000
,
0010
0000
0000
0000
0001
0000
0000
0000
0000
0000
0000
0000
1000
0000
0000
0000
0002
0003
0000
0000
0000
0000
0000
0000
2200
3300
0000
0000
0000
0000
0000
0000
0020
0030
0000
0000
0100
0000
0000
0000
0000
0000
0000
0000
0010
0000
0000
0000
0100
0000
0000
0000
0000
0000
0000
0000
1001
0000
0000
0000
0000
0000
0000
0000
,
2000
3000
0000
0000
0100
0000
0000
0000
0000
0000
0000
0000
0100
0000
0000
0000
0020
0030
0000
0000
0000
0000
0000
0000
0202
0303
0000
0000
0000
0000
0000
0000
1000
0000
0000
0000
0010
0000
0000
0000
0000
0000
0000
0000
0100
0000
0000
0000
0010
0000
0000
0000
0000
0000
0000
0000
0101
0000
0000
0000
0000
0000
0000
0000
,
0010
0000
0000
0000
1000
0000
0000
0000
0000
0000
0000
0000
1000
0000
0000
0000
0100
0000
0000
0000
0000
0000
0000
0000
1001
0000
0000
0000
0000
0000
0000
0000
0020
0030
0000
0000
1000
0000
0000
0000
0000
0000
0000
0000
0001
0000
0000
0000
0100
0000
0000
0000
0000
0000
0000
0000
1100
0000
0000
0000
0000
0000
0000
0000
,
0002
0003
0000
0000
0100
0000
0000
0000
0020
0030
0000
0000
0100
0000
0000
0000
0002
0003
0000
0000
0000
0000
0000
0000
2200
3300
0000
0000
0000
0000
0000
0000
0020
0030
0000
0000
1000
0000
0000
0000
0000
0000
0000
0000
1000
0000
0000
0000
0100
0000
0000
0000
0000
0000
0000
0000
1010
0000
0000
0000
0000
0000
0000
0000
,
0001
0000
0000
0000
0010
0000
0000
0000
0000
0000
0000
0000
0010
0000
0000
0000
0002
0003
0000
0000
0000
0000
0000
0000
0220
0330
0000
0000
0000
0000
0000
0000
0002
0003
0000
0000
1000
0000
0000
0000
0000
0000
0000
0000
0001
0000
0000
0000
1000
0000
0000
0000
0000
0000
0000
0000
0022
0033
0000
0000
0000
0000
0000
0000
,
0200
0300
0000
0000
0001
0000
0000
0000
0000
0000
0000
0000
0001
0000
0000
0000
0200
0300
0000
0000
0000
0000
0000
0000
2020
3030
0000
0000
0000
0000
0000
0000
1000
0000
0000
0000
0001
0000
0000
0000
0000
0000
0000
0000
0100
0000
0000
0000
0010
0000
0000
0000
0000
0000
0000
0000
1001
0000
0000
0000
0000
0000
0000
0000
,
1000
0100
0000
1000
0100
0000
1010
0000
0100
0001
0000
0001
0100
0000
1100
0000
,
0001
0010
0000
0010
0001
0000
1100
0000
0010
0100
0000
0100
0010
0000
1001
0000
,
0010
1000
0000
1000
0010
0000
1100
0000
0001
1000
0000
1000
0010
0000
1100
0000
,
0001
0010
0000
0010
0001
0000
0101
0000
0010
1000
0000
1000
0100
0000
1010
0000
,
0010
0100
0000
0100
0010
0000
1100
0000
0001
0010
0000
0010
0001
0000
1100
0000
,
0010
1000
0000
1000
0010
0000
0101
0000
1010
0000
0000
0100
0001
0000
1000
0000
,
0110
0000
0000
0010
1000
0010
0100
0000
0011
0000
0000
1000
0010
0000
0001
0000
,
1100
0000
0000
0000
0000
0000
1100
0000
0000
0000
1100
0000
0010
0000
0000
0000
1000
0000
0100
1000
0010
0000
0100
0000
0001
0010
0001
0000
1000
0000
0100
0000
,
1000
0000
0010
0100
0001
0000
0010
0000
0001
1000
0100
0000
1000
0000
0010
0000
0100
0000
0001
0010
0001
0000
1000
0000
0100
1000
0010
0000
0100
0000
0001
0000
,
0010
0000
0001
1000
0100
0000
1000
0000
0020
0000
0000
0000
0030
0000
0010
0000
1100
0000
1100
0000
0001
0000
0000
0010
0100
0000
1000
0000
0001
0000
0000
0000
,
0000
0000
0000
0000
0000
0000
0000
0000
0000
0000
0000
0000
0000
0000
0000
0010
1100
0000
1100
0000
0001
0000
0000
0010
0100
0000
1000
0000
0001
0000
0000
0000
,
0000
0000
0000
0000
0000
0000
0000
0000
0000
0000
0000
0000
0000
0000
0000
0010
1100
0000
1100
0000
0001
0000
0000
0000
0000
0000
0000
0000
0000
0000
0000
0000
;

//---------------dance-single - ----------------
#NOTES:
     dance-single:
     :
     Beginner:
     2:
     0.213,0.349,0.028,0.049,0.000,203.000,4.000,7.000,0.000,0.000:
1000
0000
0000
1000
0000
0000
1000
0000
,
0001
0000
0000
0001
0000
0000
0001
0000
,
0100
0000
0000
0100
0000
0000
0100
0000
,
0010
0000
0000
0010
0000
0000
0010
0000
,
0100
0000
0000
0100
0000
0000
0100
0000
,
0001
0000
0000
0001
0000
0000
0001
0000
,
1000
0000
0000
1000
0000
0000
1000
0000
,
0001
0000
1000
0000
0002
0000
0000
0003
,
1000
0000
1000
0000
,
0010
0000
0010
0000
,
0100
0000
0100
0000
,
0001
1000
0001
1000
,
0001
0000
0001
0000
,
1000
0000
1000
0000
,
0010
0000
0010
0000
,
0100
0000
0100
0000
,
0010
0000
0010
0000
,
1000
0000
1000
0000
,
0001
0000
0001
0000
,
1000
0001
1000
0010
,
0100
0000
0100
0000
,
0100
0000
0010
0000
,
0010
0000
1000
0000
,
1000
0000
1000
0000
,
0001
0000
0001
0000
,
0001
1000
0001
1000
,
0010
0100
0010
0100
,
0001
1000
0001
0010
,
0100
1000
0100
0010
,
0001
1000
0001
1000
,
0010
0100
0010
0100
,
0010
0100
0100
0010
,
1001
0000
0000
0000
0000
0000
0000
0000
1000
0000
0000
0000
0000
0000
0000
0000
0000
0000
0000
0000
0000
0000
0000
0000
1000
0000
0000
0000
0000
0000
0000
0000
0000
0000
0000
0000
0000
0000
0000
0000
0001
0000
0000
0000
0000
0000
0000
0000
0000
0000
0000
0000
0000
0000
0000
0000
0020
0030
0000
0000
0000
0000
0000
0000
,
1100
0000
0000
0000
0000
0000
0000
0000
0001
0000
0000
0000
0000
0000
0000
0000
0000
0000
0000
0000
0000
0000
0000
0000
0100
0000
0000
0000
0000
0000
0000
0000
0000
0000
0000
0000
0000
0000
0000
0000
0100
0000
0000
0000
0000
0000
0000
0000
0000
0000
0000
0000
0000
0000
0000
0000
2000
3000
0000
0000
0000
0000
0000
0000
,
0011
0000
0000
0000
0000
0000
0000
0000
1000
0000
0000
0000
0000
0000
0000
0000
0000
0000
0000
0000
0000
0000
0000
0000
0100
0000
0000
0000
0000
0000
0000
0000
0000
0000
0000
0000
0000
0000
0000
0000
0010
0000
0000
0000
0000
0000
0000
0000
0000
0000
0000
0000
0000
0000
0000
0000
0002
0003
0000
0000
0000
0000
0000
0000
,
1010
0000
0000
0000
0000
0000
0000
0000
0001
0000
0000
0000
0000
0000
0000
0000
0000
0000
0000
0000
0000
0000
0000
0000
0100
0000
0000
0000
0000
0000
0000
0000
0000
0000
0000
0000
0000
0000
0000
0000
0010
0000
0000
0000
0000
0000
0000
0000
0000
0000
0000
0000
0000
0000
0000
0000
0020
0030
0000
0000
0000
0000
0000
0000
,
0100
0001
1000
0000
0010
0100
0001
0000
,
0010
0010
0010
0000
0100
0001
1000
0000
,
0010
0010
0100
0000
0100
0100
0010
0000
,
1000
0000
0000
0000
0000
0000
0000
0000
1000
0000
0000
0000
0000
0000
0000
0000
0001
0000
0000
0000
0000
0000
0000
0000
0001
0000
0000
0000
0000
0000
0000
0000
0010
0000
0000
0000
0000
0000
0000
0000
0010
0000
0000
0000
0000
0000
0000
0000
0100
0000
0000
0000
0000
0000
0000
0000
0200
0300
0000
0000
0000
0000
0000
0000
,
1000
0001
0100
0010
,
1000
0001
0100
0010
,
0001
0010
0100
1000
,
0010
0100
0001
1000
,
0020
0030
1000
0000
,
1000
0000
0001
0000
,
0001
0000
0100
0000
,
0100
0000
0010
1000
,
0010
0100
0001
0000
,
0001
0000
1000
0000
,
1000
0000
0100
0000
,
0100
0000
0010
0000
,
0010
0010
0010
0000
,
1000
1000
1000
0000
,
0001
0001
0001
0000
,
0100
0100
0100
0000
,
1000
1000
1000
0001
,
0100
0100
0010
1000
,
0001
0001
0100
0100
,
0100
0010
0010
0010
,
1000
1000
1000
0000
,
0000
0000
1000
0000
,
0000
0000
1000
0000
;
