#TITLE:Jin;
#SUBTITLE:(Ramosu Version);
#ARTIST:TJ_MS-DOM;
#TITLETRANSLIT:;
#SUBTITLETRANSLIT:;
#ARTISTTRANSLIT:;
#CREDIT:;
#BANNER:jin-bn.png;
#BACKGROUND:jin-bg.png;
#LYRICSPATH:;
#CDTITLE:!mwerpTitle.png;
#MUSIC:jin2.mp3;
#OFFSET:-0.090;
#SAMPLESTART:40.786;
#SAMPLELENGTH:12.000;
#SELECTABLE:YES;
#BPMS:0.000=70.000,8.000=140.000,152.000=70.000,160.000=140.000;
#STOPS:;
#BGCHANGES:;
// cache tags:
#FIRSTBEAT:0.000;
#LASTBEAT:224.000;
#SONGFILENAME:Songs/Keyboard Collaboration II/Mwerp - Jin (Ramosu Version)/jin.sm;
#HASMUSIC:1;
#HASBANNER:1;
#MUSICLENGTH:109.522;
// end cache tags

//---------------dance-single - ----------------
#NOTES:
     dance-single:
     :
     Hard:
     11:
     1.000,1.000,1.000,0.018,1.000,710.000,290.000,2.000,0.000,0.000:  // measure 1
0001
0100
0010
0100
1001
0010
1000
0001
1000
0100
0010
0100
1001
0010
0001
1000
0001
0010
0100
1000
0110
1000
0001
0100
0011
0101
0000
0100
1001
0100
0010
1000
,  // measure 2
0001
0100
0010
0100
1001
0010
1000
0001
1000
0100
0010
0100
1001
0010
0001
1000
0001
0010
0100
1000
0110
1000
0001
0100
0011
0101
1100
1010
0000
0110
0000
0000
,  // measure 3
1001
0010
0100
1000
0011
0100
1000
0100
0010
1000
0100
0010
1100
0010
0001
0100
,  // measure 4
0010
1000
0001
0100
0011
1000
0100
0010
1001
0110
0000
0100
0011
1000
0100
1000
,  // measure 5
0010
0100
0001
0010
1100
0001
0010
0100
1000
0001
1000
0010
0101
0010
0100
0001
,  // measure 6
0010
0100
1000
0100
1001
0100
0010
1000
0110
0101
0011
1100
0000
1010
0000
0000
,  // measure 7
1001
0100
0010
0001
1100
0010
0001
0010
0100
0001
0010
0100
0011
0100
1000
0010
,  // measure 8
0100
0001
1000
0010
1100
0001
0010
0100
1001
0110
0000
0010
1100
0001
0010
0001
,  // measure 9
0100
0010
1000
0100
0011
1000
0100
0010
0001
1000
0001
0100
1010
0100
0010
1000
,  // measure 10
0100
0010
0001
0010
1001
0010
0100
0001
0110
1010
1100
0011
0000
0101
0000
0000
,  // measure 11
2002
0000
0000
0000
,  // measure 12
0000
0000
0000
0000
,  // measure 13
0000
0000
0000
0000
0000
0000
0000
0000
0000
0000
0000
0000
0000
0000
0000
3003
,  // measure 14
1001
0000
0000
0000
0000
0000
0000
0000
0000
0000
0000
0100
0000
0000
0000
0000
0000
0000
0000
0000
0000
0000
0000
0000
0000
0000
0000
0000
0000
0000
0000
0010
0000
0000
0000
0000
0000
0000
0000
0000
0000
0000
0000
0000
0000
0000
0000
1001
0000
0000
0000
0000
0000
0000
0000
0000
0000
0000
0000
0100
0000
0000
0000
0000
0000
0000
0000
0000
0000
0000
0000
0000
0000
0000
0000
0000
0000
0000
0000
0000
0000
0000
0000
0010
0000
0000
0000
0000
0000
0000
0000
0000
0000
0000
0000
1001
0000
0000
0000
0000
0000
0000
0000
0000
0000
0000
0000
0010
0000
0000
0000
0000
0000
0000
0000
0000
0000
0000
0000
1000
0000
0000
0000
0000
0000
0001
0000
0000
0000
0000
0000
0010
0000
0000
0000
0000
0000
0100
0000
0000
0000
0000
0000
1000
0000
0000
0000
0000
0000
0001
0000
0000
0000
0000
0000
0010
0000
0000
0000
0000
0000
0100
0000
0000
0000
0000
0000
1000
0000
0000
0000
0000
0000
0001
0000
0000
0000
0000
0000
0010
0000
0000
0000
0000
0000
0100
0000
0000
0000
0000
0000
1001
,  // measure 15
0000
0010
0100
1000
0011
0100
1000
0100
0010
1000
0100
0010
1100
0010
0001
0100
,  // measure 16
0010
1000
0001
0100
0011
1000
0100
0010
1001
0110
0000
0100
0011
1000
0100
1000
,  // measure 17
0010
0100
0001
0010
1100
0001
0010
0100
1000
0001
1000
0010
0101
0010
0100
0001
,  // measure 18
0010
0100
1000
0100
1001
0100
0010
1000
0110
0101
0011
1100
0000
1010
0000
0000
,  // measure 19
1001
0100
0010
0001
1100
0010
0001
0010
0100
0001
0010
0100
0011
0100
1000
0010
,  // measure 20
0100
0001
1000
0010
1100
0001
0010
0100
1001
0110
0000
0010
1100
0001
0010
0001
,  // measure 21
0100
0010
1000
0100
0011
1000
0100
0010
0001
1000
0001
0100
1010
0100
0010
1000
,  // measure 22
0100
0010
0001
0010
1001
0010
0100
0001
0110
1010
1100
0011
0000
0101
0000
0000
,  // measure 23
1001
0000
0010
0000
0110
0000
0100
0010
0000
0010
0001
0100
0101
0000
0001
0000
,  // measure 24
0001
0100
0010
0000
0110
0000
0100
0010
0000
0100
0010
1000
1010
0000
1000
0000
,  // measure 25
1000
0000
0100
0000
0101
0000
0001
0100
0000
0001
1000
0100
1100
0000
1000
0000
,  // measure 26
1000
0001
0010
0000
0011
0000
0001
0010
0000
0001
0010
0100
0110
0000
1000
0000
,  // measure 27
1000
0000
0010
0000
0110
0000
0100
0010
0000
0010
0001
0100
0101
0000
0001
0000
,  // measure 28
0001
0100
0010
0000
0110
0000
0100
0010
0000
0100
0010
1000
1010
0000
1000
0000
,  // measure 29
1000
0000
0100
0000
0101
0000
0001
0100
0000
0001
1000
0100
1100
0000
1000
0000
,  // measure 30
1000
0001
0010
0000
0011
0000
0001
0010
0000
0001
0010
0100
0110
0000
1000
0000
,  // measure 31
1100
0001
1100
0000
1001
0000
1001
0100
0011
0100
1010
0001
0101
0000
1010
0000
,  // measure 32
0011
0100
1001
0000
1100
0000
1001
0010
0101
1000
1010
0001
1010
0000
0011
0000
,  // measure 33
1100
0010
1001
0000
1001
0000
0011
1000
0011
0100
1010
0001
0101
0000
1010
0000
,  // measure 34
0011
0100
1001
0000
1100
0000
1001
0010
0101
1000
1010
0100
1001
0000
1010
0000
,  // measure 35
1100
0001
1100
0000
1001
0000
1001
0100
0011
0100
1010
0001
0101
0000
1010
0000
,  // measure 36
0011
0100
1001
0000
1100
0000
1001
0010
0101
1000
1010
0001
1010
0000
0011
0000
,  // measure 37
1100
0010
1001
0000
1001
0000
0011
1000
0011
0100
1010
0001
0101
0000
1010
0000
,  // measure 38
0011
0100
1001
0000
1100
0000
1001
0010
0101
1000
1010
0100
1001
0000
1010
0000
,  // measure 39
1100
1100
1001
1001
0011
1010
0101
1010
0011
1001
1100
1001
0101
1010
1010
0011
,  // measure 40
1100
1001
1001
0011
0011
1010
0101
1010
0011
1001
1100
1001
0101
1010
1001
1010
,  // measure 41
1001
0000
0100
0000
1001
0000
0010
1000
0010
0000
0100
0000
1001
0000
0010
0000
,  // measure 42
1001
0000
0011
0000
0101
1000
0100
0010
1001
0000
0100
0010
1001
0000
0100
0000
,  // measure 43
1001
0000
0010
0000
1001
0000
0100
0001
0100
0000
1010
0000
0100
0001
1000
0010
,  // measure 44
1001
0000
1100
0000
1010
0000
0100
1001
0000
0010
1001
0000
0011
0000
0100
0000
,  // measure 45
1100
0001
1100
0000
1001
0000
1001
0100
0011
0100
1010
0001
0101
0000
1010
0000
,  // measure 46
0011
0100
1001
0000
1100
0000
1001
0010
0101
1000
1010
0001
1010
0000
0011
0000
,  // measure 47
1100
0010
1001
0000
1001
0000
0011
1000
0011
0100
1010
0001
0101
0000
1010
0000
,  // measure 48
0011
0100
1001
0000
1100
0000
1001
0010
0101
1000
1010
0100
1001
0000
1010
0000
,  // measure 49
1001
0000
0100
0000
1001
0000
0010
1000
0010
0000
0100
0000
1001
0000
0010
0000
,  // measure 50
1001
0000
0011
0000
0101
1000
0100
0010
1001
0000
0100
0010
1001
0000
0100
0000
,  // measure 51
1001
0000
0010
0000
1001
0000
0100
0001
0100
0000
1010
0000
0100
0001
1000
0010
,  // measure 52
1001
0000
1100
0000
1010
0000
0100
1001
0000
0010
1001
0000
0011
0000
0100
0000
,  // measure 53
1100
0001
1100
0000
1001
0000
1001
0100
0011
0100
1010
0001
0101
0000
1010
0000
,  // measure 54
0011
0100
1001
0000
1100
0000
1001
0010
0101
1000
1010
0001
1010
0000
0011
0000
,  // measure 55
1100
0010
1001
0000
1001
0000
0011
1000
0011
0100
1010
0001
0101
0000
1010
0000
,  // measure 56
0011
0100
1001
0000
1100
0000
1001
0010
0101
1000
1010
0100
1001
0000
1010
0000
,  // measure 57
1001
0000
0000
0000
;
