#TITLE:A Powerful Puke Colored Light;
#SUBTITLE:;
#ARTIST:Graz;
#TITLETRANSLIT:;
#SUBTITLETRANSLIT:;
#ARTISTTRANSLIT:;
#CREDIT:ChaosUnown;
#BANNER:puke-bn.png;
#BACKGROUND:puke.png;
#LYRICSPATH:;
#CDTITLE:chaosunownCD.png;
#MUSIC:puke.ogg;
#OFFSET:0.004;
#SAMPLESTART:81.300;
#SAMPLELENGTH:12.000;
#SELECTABLE:YES;
#BPMS:0.000=176.000,187.000=88.000,203.000=176.000;
#STOPS:161.500=0.682
,175.500=0.682
,181.500=0.171
,182.000=0.170
;
#BGCHANGES:;
// cache tags:
#FIRSTBEAT:32.000;
#LASTBEAT:335.000;
#SONGFILENAME:Songs/Omnifarious/(ChaosUnown) A Powerful Puke Colored Light/puke.sm;
#HASMUSIC:1;
#HASBANNER:1;
#MUSICLENGTH:122.728;
// end cache tags

//---------------dance-single - P. Mason----------------
#NOTES:
     dance-single:
     P. Mason:
     Challenge:
     11:
     0.793,0.955,0.244,0.196,0.615,622.000,30.000,24.000,62.000,0.000:

0000
0000
0000
0000
,
0000
0000
0000
0000
,
0000
0000
0000
0000
,
0000
0000
0000
0000
,
0000
0000
0000
0000
,
0000
0000
0000
0000
,
0000
0000
0000
0000
,
0000
0000
0000
0000
,
1000
0000
0000
1000
0000
0000
0001
0000
0000
M000
0000
0000
000M
0000
0000
0000
,
0000
0010
0001
0010
0000
0001
0200
0310
,
1000
0000
0000
1000
0000
0000
0100
0000
0020
0000
0100
0000
0100
0000
0130
0000
,
0000
0100
1000
0100
0000
1000
0002
1003
,
0010
0000
0000
0010
0000
0000
0100
0000
0000
0001
0000
0000
0M00
0000
0000
000M
,
0000
1000
0001
1000
0000
0010
2000
3001
,
0010
0000
0000
0010
0000
0000
0100
0000
2000
0000
0001
0000
0001
0000
3001
0000
,
0000
0001
0100
0001
1000
0100
0020
0130
,
1000
0000
0000
0001
0100
0000
0010
0000
0000
000M
0M00
0000
00M0
0000
0000
0000
,
0000
0100
0010
0100
0000
0100
0002
1003
,
0100
0000
0000
0010
0001
0000
1000
0000
0020
0000
0100
0000
0100
0000
0130
0000
,
0000
0100
0001
0100
0000
0010
2000
3001
,
0010
0000
0000
0010
0000
0000
0100
0000
0000
00M0
0000
0000
0M00
0000
0000
0000
,
0000
1000
0100
1000
0000
0001
0200
0310
,
1000
0000
1000
0000
0100
0000
0100
0000
0010
0000
0010
0000
0001
0000
0001
0100
,
0001
1000
0001
0000
1000
0001
1000
0000
0100
0000
0100
0000
001M
0000
0010
0000
,
0M11
0001
1000
0010
0100
0001
0100
0010
,
1000
0100
1000
0001
0010
0100
110M
1000
,
0001
0100
0010
0100
0002
1000
1000
1003
,
0100
0000
1000
0000
0001
0000
0100
0010
1000
0001
1000
0001
0M40
0000
0130
0000
,
1000
0001
0100
0001
1000
0100
0010
0001
,
0100
0010
0100
0001
1000
0100
011M
0010
,
0001
0000
0001
0000
0100
0000
0100
0000
0010
1000
0010
0000
1000
0000
1000
0001
,
1000
0100
1000
0001
0100
0010
1000
0001
0040
0000
0000
0000
0130
1000
0100
1000
,
00M1
1000
0010
1000
0001
0010
0200
1300
,
0010
0000
0100
0000
0001
0000
0100
0000
0010
0000
0010
1000
0M01
0000
0040
0000
,
0130
1000
0001
1000
0020
0100
0100
0130
,
0001
1000
0001
0000
1000
0001
1000
0000
0100
0010
0100
0000
M010
0000
0040
0034
,
1003
0010
0100
0010
1000
0001
0020
0130
,
0010
0001
1000
0001
0100
0100
M140
0000
,
1030
0001
0100
0010
0200
0001
0001
0301
,
1000
0000
0000
0000
0100
0000
0000
0000
1000
0000
0000
0000
0001
0000
0000
0000
0100
0000
0000
0000
0000
0000
0000
0000
0010
0000
0000
0000
0100
0000
0000
0000
0001
0000
0000
0000
1000
0000
0000
0000
0001
0000
0000
0000
1000
0000
0000
0000
04M0
0000
0000
0000
0000
0000
0000
0000
0000
0000
0000
0000
0000
0000
0000
0300
,
10M1
1000
0002
1MM3
0000
0100
2000
3100
,
0000
0000
0000
0000
0000
0000
0100
0000
0000
0000
0000
0000
0020
0000
0000
0000
0000
0030
M011
0000
0000
0000
0000
0000
M011
0000
0000
0000
0000
0000
0000
0000
0000
0000
0000
0000
0002
0000
0000
0000
0000
0000
1003
0000
0000
0000
0000
0000
,
0000
0000
00M0
0000
0M00
0000
00M0
0000
M000
0000
0001
M000
0100
0000
00M1
0000
,
4000
0000
3100
0010
0100
0010
0100
0010
M002
0000
1003
0000
0002
0000
1MM3
0000
,
0000
0000
0000
0000
0000
0000
0010
0000
0000
0000
0000
0000
2000
0000
0000
0000
0000
0000
3010
0000
0000
0000
0000
0000
0000
0000
0000
0000
0000
0000
0010
0000
0000
0100
0000
0000
0004
0000
0000
0000
0000
0003
10M1
0000
0000
0000
0000
0000
,
10M1
0000
1000
01MM
M01M
M01M
0100
1100
,
1000
0000
0001
0000
1000
0000
0000
0000
0010
0000
0000
0000
0010
0000
0000
0000
0100
0000
0000
0000
0100
0000
0001
0000
1MM0
0000
0000
1000
0000
0000
0001
0000
,
0000
M000
0000
0000
000M
0000
0000
0000
0000
0000
0000
0000
0000
0000
0000
0000
0000
0000
1000
0000
0100
0000
1000
0000
0001
0000
0000
0001
0000
0000
0100
0000
,
0000
000M
0000
0000
0M00
0000
0000
0000
0000
0000
0000
0000
0000
0000
0000
0000
0040
0000
0000
0000
0000
0000
0000
0000
1030
0000
0000
0001
0000
0000
0100
0000
,
0000
0010
0000
0000
0M00
0000
0000
00M0
0000
0000
0000
0000
0000
0000
0000
0000
0000
0000
1000
0000
0001
0000
1000
0000
0100
0000
0000
0100
0000
0000
0010
0000
,
0000
0M00
0000
0000
00M0
0000
0000
0000
0002
0000
1003
0000
0000
0000
1000
0000
1000
0000
0000
0000
2000
0000
0000
0000
31MM
0000
0000
0000
0000
0000
0000
0000
,
0010
0010
0001
0000
0001
0000
1000
0000
,
1000
0000
0000
0010
0010
0010
1000
0001
,
1000
0100
1000
1000
0001
0001
0000
0001
,
0100
0001
0000
1000
0100
0100
0010
0000
,
0001
0001
0100
0000
0100
0000
0000
0010
,
1000
0000
0010
0000
0000
0000
0010
0000
0010
0000
0010
0000
0100
0001
0100
0001
,
1000
0100
1000
0100
0010
0001
0010
0001
1000
0001
1000
0001
0100
0000
0010
0000
,
0100
0010
0100
0000
0010
0000
0010
0000
1000
0000
1000
0000
0MM1
1000
0001
0000
,
1000
0001
1000
0000
0001
0100
0010
0100
0001
1000
0100
0000
0010
0100
0010
0000
,
0100
0010
0100
0000
1000
0000
0001
0000
0100
0000
0001
0000
0010
0100
0010
0000
,
0100
0010
0100
0000
1000
0001
0100
0001
1000
0100
0010
0000
0001
1000
0001
0000
,
1000
0001
1000
0100
0010
0100
0010
0001
4000
0000
3010
0000
0100
0001
0100
0000
,
0001
0100
0001
0000
1000
0100
1000
0001
0100
0010
0100
0000
0001
1000
0001
0000
,
1000
0001
1000
0000
0100
0000
0010
0000
0001
0000
1000
0000
0010
0000
0010
0000
,
0100
0000
0001
0000
1000
0100
1000
0000
0001
0100
0001
0000
1000
0100
0010
0001
,
1000
0000
0000
0000
0010
0000
0000
0000
0100
0000
0000
0000
0001
0000
0000
0000
0400
0000
0000
0000
0000
0000
0000
0300
0400
0000
0000
0000
0000
0000
0000
0000
0310
0000
0000
0000
1000
0000
0000
0000
0010
0000
0000
0000
1000
0000
0000
0000
0M01
0000
0000
0000
0010
0000
0000
0000
0001
0000
0000
0000
0000
0000
0000
0000
,
0010
0001
0010
0000
0001
1000
0010
0100
0001
1000
0001
0000
0010
0100
0010
0001
,
1000
0000
0010
0000
0100
0000
0001
0000
0100
0010
0100
0010
1000
0001
1000
0000
,
0001
1000
0001
0000
0010
0100
0010
0001
1000
0100
1000
0000
0001
0100
0001
0000
,
0100
0001
0100
0000
0010
1000
0010
1000
0001
0000
0010
0000
0100
1000
0100
0000
,
1000
0100
1000
0000
0001
0100
0010
0100
0001
1000
0001
0000
0010
0100
0010
0000
,
0100
0010
0100
0000
1000
0000
0001
0000
0100
0000
0001
0000
1000
0000
1000
0000
,
0100
0000
0010
0001
1000
0010
1000
0000
0010
1000
0010
0100
0001
1000
0001
1000
,
0100
1000
0100
1000
0004
0400
0000
0003
0310
1000
0001
0010
M100
0000
0010
0000
,
0011
0001
1000
0000
0110
0000
0001
1000
,
1010
0000
0010
0100
0001
0100
0010
1000
,
1001
0001
0010
0000
1100
0000
1000
0001
,
0101
0000
0100
0100
0010
0010
1000
0100
,
0110
0010
0001
0000
0110
0000
1000
0001
,
0101
0000
0100
0010
1000
0010
1001
0000
,
1001
0000
0000
0000
1000
0100
1000
0000
0001
0000
0001
0100
0010
1000
0010
1000
,
0001
0010
0001
0000
0001
1000
0010
1000
0001
0010
0100
0010
M001
0000
0000
0000
,
M000
M000
M000
M000
;
