#TITLE:Queen of Bootlegs;
#SUBTITLE:;
#ARTIST:KafkaType;
#TITLETRANSLIT:;
#SUBTITLETRANSLIT:;
#ARTISTTRANSLIT:;
#CREDIT:;
#BANNER:queen of bns.png;
#BACKGROUND:queen of bgs.png;
#LYRICSPATH:;
#CDTITLE:;
#MUSIC:Queen of Bootlegs.ogg;
#OFFSET:0.009;
#SAMPLESTART:25.588;
#SAMPLELENGTH:12.000;
#SELECTABLE:YES;
#BPMS:0.000=225.000;
#STOPS:;
#BGCHANGES:;
// cache tags:
#FIRSTBEAT:32.000;
#LASTBEAT:492.500;
#SONGFILENAME:Songs/SPEEEDCOOOORE 3/Queen of Bootlegs - [Aoreo]/Queen of Bootlegs.sm;
#HASMUSIC:1;
#HASBANNER:1;
#MUSICLENGTH:134.933;
// end cache tags

//---------------dance-single - J. Nero----------------
#NOTES:
     dance-single:
     J. Nero:
     Challenge:
     16:
     1.000,1.000,0.185,0.548,1.000,1098.000,25.000,74.000,8.000,0.000:

0000
0000
0000
0000
,
0000
0000
0000
0000
,
0000
0000
0000
0000
,
0000
0000
0000
0000
,
0000
0000
0000
0000
,
0000
0000
0000
0000
,
0000
0000
0000
0000
,
0000
0000
0000
0000
,
0002
0000
2003
0000
3200
0000
0310
0001
,
0000
0001
0100
0000
0020
0000
0000
0030
,
1000
0000
0100
0000
1000
0000
0001
0000
0100
0000
0001
0000
1000
0010
1000
0000
,
0001
0000
0010
0000
0100
0000
0010
0000
0001
0000
0000
1000
0100
1000
0001
0100
,
0002
0000
0023
0000
0230
0000
1300
0010
,
0000
0010
0100
0000
0002
0000
0000
0003
,
1000
1000
0001
0100
0010
0100
0001
0010
,
0100
1000
0001
0100
0010
0100
0001
0000
,
1000
0100
1000
0001
0010
0001
1000
0100
0010
0001
1000
0001
0100
0001
1000
0001
,
0100
0010
0100
0001
1000
0010
0100
0001
1000
0000
0000
0000
1000
0000
0000
0000
,
0001
0100
0001
1000
0010
0100
0001
1000
0001
0010
0100
1000
0001
1000
0001
0100
,
0001
1000
0100
0010
0001
1000
0001
0100
0001
0000
0000
0000
0001
0000
0000
0000
,
1000
0100
1000
0001
0010
0100
1000
0001
0100
0010
0100
0001
1000
0100
1000
0001
,
0010
0100
1000
0001
0100
0010
1000
0001
1000
0000
0000
0000
1000
0000
0000
0000
,
0001
0100
0001
1000
0100
0010
0001
1000
0001
0100
0010
0100
0001
1000
0100
0010
,
0001
1000
0100
1000
0001
0100
0010
0100
0001
0000
0000
0000
0001
0000
0000
0000
,
2002
0000
0000
0000
0000
0000
0000
0000
0000
0000
0000
0000
0000
0000
0000
0000
0000
0000
0000
0000
0000
0000
0000
0000
0000
0000
0000
0000
0000
0000
0000
0000
0000
0000
0000
0000
0000
0000
0000
0000
0000
0000
0000
0000
0000
0000
0000
0000
0000
0000
0000
0000
0000
0000
0000
0000
0000
0000
0000
0000
0000
0000
0000
3003
,
2002
0000
0000
0000
0000
0000
0000
3003
,
1000
0010
1000
0001
0100
0001
0100
0010
1000
0001
1000
0100
0010
0100
1000
0001
,
0010
0100
1000
0001
0100
0010
0100
0001
1000
0000
0000
0000
1000
0000
0000
0000
,
0001
0100
0001
1000
0100
0010
0001
1000
0001
0100
0001
1000
0010
0100
0010
1000
,
0001
0100
0001
1000
0100
0010
0001
1000
0001
0000
0000
0000
0001
0000
0000
0000
,
1000
0010
1000
0001
0100
0001
1000
0100
0010
0001
1000
0001
0010
0100
1000
0001
,
0010
0001
1000
0001
0100
0010
1000
0001
1000
0000
0000
0000
1000
0000
0000
0000
,
0001
0100
0001
1000
0100
0010
0001
1000
0001
0100
0010
0100
0001
1000
0100
1000
,
0001
0010
0100
1000
0001
1000
0010
0100
0001
0000
0000
0000
0001
0000
0000
0000
,
2000
0000
3010
0100
0001
1000
0001
0010
,
0000
0010
0100
0000
2200
0000
3300
0000
,
1000
0000
1000
0000
0020
0000
0030
0000
0100
0001
0100
0001
1000
0000
0001
0000
,
0000
0000
1000
0100
1000
0001
0010
0100
2000
0000
0000
0000
0000
0000
0000
0000
,
3001
0000
0100
0000
0010
0000
0000
0000
0100
0001
0100
0001
1000
0000
0100
0000
,
0000
0100
0010
0000
0022
0000
0033
0000
,
0002
0000
0103
0010
1000
0100
1000
0010
,
0000
0000
0010
0100
0001
1000
0100
1000
0002
0003
0000
0000
0000
0000
0000
0000
,
1002
0000
1003
0000
0001
0100
0001
1000
,
0100
0000
0000
1000
0000
0000
0001
0000
0000
0100
0000
0000
0001
0000
0000
1000
0000
0000
0100
0000
0000
0010
0000
0000
0001
0000
0000
1000
0000
0000
0001
0000
0000
0100
0000
0000
0001
0000
0000
0000
0010
0000
0000
0000
0100
0000
0000
0000
,
1000
0000
0000
0000
0000
0000
0004
0000
0000
0003
0000
0000
0000
0000
0000
0000
0000
0000
0004
0000
0000
0003
0000
0000
0000
0000
0000
0000
0000
0000
1000
0000
0000
0000
0000
0000
0100
0000
0000
0000
1000
0000
0000
0000
0001
0000
0000
0000
,
0100
0000
0001
0000
0010
0000
0100
0000
4000
3000
0000
0000
0040
0030
0000
0000
,
0220
0000
0330
0000
0000
0000
0000
0000
0100
0001
1000
0001
1000
0010
0100
0001
,
1000
0001
0100
0001
1000
0100
1000
0001
0010
0100
1000
0001
1000
0010
0100
0001
,
2000
3000
0001
0100
0020
0130
0001
1000
,
0002
0003
0020
0030
0200
0000
0000
0300
,
1000
0100
1000
0001
0100
0000
0001
0100
0001
0000
1000
0000
0010
0100
0010
1000
,
0001
0000
0000
0100
0000
0000
0001
0000
0000
1000
0000
0000
0100
0000
0000
0010
0000
0000
0001
0000
0000
1000
0000
0000
0001
0000
0000
0100
0000
0000
0010
0000
0000
1000
0000
0000
0001
0000
0000
0000
0010
0000
0000
0000
0100
0000
0000
0000
,
1000
0000
0000
0000
0000
0000
0004
0000
0000
0003
0000
0000
0000
0000
0000
0000
0000
0000
0004
0000
0000
0003
0000
0000
0000
0000
0000
0000
0000
0000
0100
0000
0000
0000
0000
0000
0001
0000
0000
0000
0100
0000
0000
0000
0001
0000
0000
0000
,
1000
0000
0100
0000
0010
0000
0100
0000
4000
3000
0000
0000
0004
0003
0000
0000
,
0200
0000
0000
0300
0000
0000
0100
0000
0000
0000
0001
0000
0000
0000
0010
0000
0000
0000
0100
0000
0000
0000
0000
0000
,
2002
0000
0000
0000
0000
0000
0000
3003
2002
0000
0000
0000
0000
0000
0000
3003
,
0101
0000
0000
0100
0000
0000
0001
0000
0010
0000
0100
0000
,
1000
0000
0000
0000
0010
0000
0000
0000
0100
0000
0000
0000
0002
0000
0000
0003
0000
0000
0000
0000
0000
0000
0000
0000
,
0101
0000
0100
0001
0010
0100
0000
0100
,
1000
0000
0010
0100
0020
0000
0130
0100
,
0001
0000
0010
0100
1000
0010
0000
0010
,
0100
0000
0001
1000
0200
0000
1300
1000
,
0020
0030
0000
0000
0100
0000
0001
0000
0010
0000
0100
0000
0000
0000
0100
0000
,
1000
0000
0001
0100
0020
0000
0130
0100
,
0001
0000
1000
0001
1000
0100
0000
0100
,
0010
0000
0001
1000
0000
0000
0000
0000
,
0022
0033
0000
0000
0010
0000
0001
0000
1000
0000
0001
0000
0100
0000
0010
0000
,
0100
0000
0001
0000
1000
0000
0100
0000
0010
0000
0001
1000
0001
0000
1000
0000
,
0200
0300
1000
0000
0001
0000
0100
0000
0010
0000
0100
0000
0001
0000
0010
0000
,
0100
1000
0001
0100
0010
0100
0010
1000
,
0200
0300
1000
0000
0001
0000
0100
0000
0020
0030
0100
0000
0001
0000
1000
0000
,
0200
0300
0010
0000
0001
0000
1000
0000
0020
0030
0100
0001
0100
0000
0001
0000
,
1000
0100
1000
0001
,
0100
0010
0100
0001
,
1000
0100
1000
0001
0010
0100
1000
0001
,
0100
0001
1000
0010
0100
0001
1000
0010
,
1000
0010
1000
0001
0100
0001
1000
0100
1000
0001
0100
0001
1000
0100
0010
0001
,
1000
0100
1000
0001
0010
0100
1000
0001
0100
0010
0100
0001
1000
0010
0100
0001
,
1000
0001
0100
0010
0100
0001
0100
0001
,
1000
0100
1000
0100
1000
0000
0000
0000
,
0000
0000
0000
0000
,
1001
0000
0000
0000
,
0001
0100
0001
1000
0010
0100
0001
1000
0001
0100
0010
1000
0001
1000
0001
0100
,
0001
1000
0100
1000
0001
0010
0100
1000
0001
0010
0001
1000
0100
0010
0001
1000
,
0001
0100
0010
0100
0001
1000
0001
0100
0010
1000
0010
1000
0001
1000
0010
0100
,
0001
1000
0001
0010
0001
1000
0001
0010
0100
1000
0001
0010
0001
1000
0100
0010
,
0001
1000
0001
0100
0010
1000
0001
0100
0001
1000
0010
0100
0010
1000
0001
0100
,
0001
1000
0001
0010
0100
1000
0001
1000
0100
1000
0001
0010
0001
1000
0100
0010
,
0001
1000
0001
0100
0010
0100
0001
0010
,
0100
1000
0100
0000
1000
0001
1000
0000
0010
0000
0100
0000
0010
0000
0000
0000
,
1000
0001
0100
0001
1000
0010
0100
0001
1000
0001
0010
0100
1000
0001
0010
0001
,
1000
0001
0100
0010
0100
0001
1000
0001
1000
0100
1000
0001
0010
0100
1000
0001
,
1000
0001
0100
0010
0100
0001
1000
0001
0100
0010
0100
0001
1000
0100
1000
0001
,
0010
0100
1000
0001
0010
0001
1000
0100
0010
0001
1000
0001
0100
0010
0100
0001
,
1000
0001
0100
0010
0100
0001
1000
0100
1000
0001
0010
0100
1000
0001
0010
0001
,
1000
0001
0100
0001
1000
0010
0100
0010
1000
0001
0100
0001
1000
0100
1000
0001
,
1000
0010
0200
0300
0001
0010
0200
0300
,
1000
0100
1000
0000
0001
0100
0001
0000
1000
0000
0010
0000
0100
0000
0000
0000
,
0001
0100
0001
1000
0010
0100
0001
1000
0100
0010
0001
1000
0001
0010
0100
0010
,
0001
1000
0001
0100
0010
0100
0001
1000
0001
1000
0100
1000
0001
0010
0100
1000
,
0001
0100
0001
1000
0100
0010
0001
1000
0001
0100
0010
0100
0001
1000
0001
0100
,
0001
1000
0100
1000
0001
0010
0100
0010
0001
1000
0001
0100
0010
0100
0001
1000
,
0001
0010
0100
1000
0001
0100
0001
1000
0100
0010
0001
1000
0001
0100
0010
0100
,
0001
1000
0100
1000
0001
0100
0010
0100
0001
1000
0100
0010
0001
1000
0010
0100
,
0001
1000
0001
0100
0001
1000
0001
0100
0001
1000
0100
1000
0001
1000
0100
1000
,
0001
0010
0001
0000
0100
0010
0100
0000
0001
0000
1000
0000
0100
0000
0000
0000
,
1000
0010
1000
0001
0100
0001
1000
0100
0010
0001
0100
0001
0100
0010
1000
0001
,
0100
0001
1000
0100
0010
0001
0100
0010
0100
0001
1000
0001
0010
0100
1000
0001
,
0100
0010
0100
0001
1000
0100
0010
0001
0100
0010
0100
0001
1000
0010
0100
0010
,
1000
0001
0010
0100
1000
0001
0100
0010
0100
0001
1000
0100
0010
0001
0100
0001
,
1000
0010
1000
0100
1000
0001
0010
0100
1000
0001
0100
0010
0100
0001
1000
0010
,
0100
0001
1000
0100
0010
0100
1000
0010
0100
0001
1000
0001
0010
0100
1000
0001
,
1000
0100
0010
0100
1000
0010
0100
0010
1000
0001
0010
0100
,
1000
0001
0100
0001
1000
0001
0100
0001
1000
0001
0010
0100
1000
0000
0000
0000
,
1001
0000
0001
0100
0000
0100
0010
0000
,
0220
0330
0202
0303
2002
3003
1000
0100
,
0020
0030
0000
0000
0000
0000
0002
0003
0000
0000
0000
0000
0200
0300
0000
0000
,
0002
0003
0000
0000
0002
0003
0000
0000
1000
0000
0100
0000
1000
0000
0001
0000
,
0200
0300
0000
0000
0001
0000
0010
0000
0000
0000
0000
0000
0022
0000
0033
0000
,
0220
0330
2200
3300
2002
3003
0001
0100
,
0010
0000
0000
0000
0000
0000
0220
0330
0000
0000
0000
0000
0202
0303
0000
0000
,
1001
0000
1001
0000
1000
0100
0010
0001
,
2002
0000
0000
0000
0000
0000
3MM3
0000
0000
0000
0000
0000
0000
0MM0
0000
0000
0000
0000
0000
0000
0MM0
0000
0000
0000
,
0000
0MM0
0000
0000
0000
0000
0000
0000
;

//---------------dance-single - Rynker----------------
#NOTES:
     dance-single:
     Rynker:
     Hard:
     14:
     1.000,1.000,0.178,0.852,1.000,967.000,24.000,115.000,8.000,1.000:
0000
0000
0000
0000
,
0000
0000
0000
0000
,
0000
0000
0000
0000
,
0000
0000
0000
0000
,
0000
0000
0000
0000
,
0000
0000
0000
0000
,
0000
0000
0000
0000
,
0000
0000
0000
0000
,
0002
0000
2003
0000
3200
0000
0310
0001
,
0000
0001
0100
0000
0020
0000
0000
0030
,
1000
0000
0100
0000
1000
0000
0001
0000
0100
0000
0001
0000
1000
0010
1000
0000
,
0001
0000
0010
0000
0100
0000
0010
0000
0001
0000
0000
1000
0100
1000
0001
0100
,
0002
0000
0023
0000
0230
0000
1300
0010
,
0000
0010
0100
0000
0002
0000
0000
0003
,
1000
1000
0001
0100
0010
0100
0001
0010
,
0100
1000
0001
0100
0010
0100
0001
0000
,
1000
0100
1000
0001
0010
0001
1000
0100
2000
0000
0000
0000
3001
0100
0010
0100
,
0001
1000
0100
1000
0100
0000
0010
0000
0002
0000
0000
0000
1003
0000
0000
0000
,
0001
0100
0001
1000
0010
0100
0001
1000
0002
0000
0000
0000
1003
0100
0010
0001
,
1000
0001
0100
0010
0100
0001
1000
0100
2000
0000
0000
0000
3001
0000
0000
0000
,
1000
0100
1000
0001
0010
0100
1000
0001
0020
0000
0000
0000
0130
1000
0100
0010
,
0001
1000
0001
0100
0010
0000
0100
0000
0002
0000
0000
0000
1003
0000
0000
0000
,
0001
0100
0001
1000
0100
0010
0001
1000
0002
0000
0000
0000
1003
0100
0010
0001
,
1000
0100
1000
0001
0100
0010
0100
0001
2000
0000
0000
0000
3001
0000
0000
0000
,
2002
0000
0000
0000
0000
0000
0000
0000
0000
0000
0000
0000
0000
0000
0000
0000
0000
0000
0000
0000
0000
0000
0000
0000
0000
0000
0000
0000
0000
0000
0000
0000
0000
0000
0000
0000
0000
0000
0000
0000
0000
0000
0000
0000
0000
0000
0000
0000
0000
0000
0000
0000
0000
0000
0000
0000
0000
0000
0000
0000
0000
0000
0000
3003
,
2002
0000
0000
0000
0000
0000
0000
3003
,
1000
0010
1000
0001
0100
0001
0100
0010
2000
0000
0000
0000
3001
0010
0100
1000
,
0001
0100
0010
0100
0001
0000
1000
0000
0200
0000
0000
0000
0310
0000
0000
0000
,
0001
0100
0001
1000
0100
0010
0001
1000
0002
0000
0000
0000
0103
0010
1000
0001
,
0010
0100
1000
0100
0010
0000
0001
0000
2000
0000
0000
0000
3001
0000
0000
0000
,
1000
0010
1000
0001
0100
0001
1000
0100
0020
0000
0000
0000
0130
1000
0001
0100
,
0010
0100
0001
1000
0100
0000
0010
0000
0002
0000
0000
0000
1003
0000
0000
0000
,
0001
0100
0001
1000
0100
0010
0001
1000
0001
0100
0010
0100
0001
1000
0100
1000
,
0001
0010
0100
1000
0100
0010
0001
1000
0001
0000
0000
0000
0001
0000
0000
0000
,
2000
0000
3020
0000
0230
0000
0301
0010
,
0000
0010
0100
0000
2200
0000
3300
0000
,
1000
0000
1000
0000
0020
0000
0030
0000
0100
0001
0100
0001
1000
0000
0001
0000
,
0000
0000
1000
0100
1000
0001
0010
0100
2000
0000
0000
0000
0000
0000
0000
0000
,
3001
0000
0100
0000
0010
0000
0000
0000
0100
0001
0100
0001
1000
0000
0100
0000
,
0000
0100
0010
0000
0022
0000
0033
0000
,
0002
0000
0203
0000
0320
0000
1030
0100
,
0000
0000
0100
1000
0001
1000
0100
1000
0002
0003
0000
0000
0000
0000
0000
0000
,
1002
0000
1003
0000
0001
0100
0001
1000
,
0100
0000
0000
1000
0000
0000
0001
0000
0000
0100
0000
0000
0001
0000
0000
1000
0000
0000
0100
0000
0000
0010
0000
0000
0001
0000
0000
1000
0000
0000
0001
0000
0000
0100
0000
0000
0001
0000
0000
0000
0010
0000
0000
0000
0100
0000
0000
0000
,
1000
0000
0000
0000
0000
0000
0004
0000
0000
0003
0000
0000
0000
0000
0000
0000
0000
0000
0004
0000
0000
0003
0000
0000
0000
0000
0000
0000
0000
0000
1000
0000
0000
0000
0000
0000
0100
0000
0000
0000
1000
0000
0000
0000
0001
0000
0000
0000
,
0100
0000
0001
0000
0010
0000
0100
0000
4000
3000
0000
0000
0040
0030
0000
0000
,
0220
0330
0000
0000
0100
0001
0010
0100
,
1000
0010
0100
0001
0010
0100
1000
0010
,
2000
3000
0001
0100
0010
0100
0001
1000
,
0002
0003
0020
0030
0200
0000
0300
0000
,
1000
0100
1000
0001
0100
0000
0001
0100
0001
0000
1000
0000
0010
0000
0100
0000
,
0001
0000
0000
0100
0000
0000
0001
0000
0000
1000
0000
0000
0100
0000
0000
0010
0000
0000
0001
0000
0000
1000
0000
0000
0001
0000
0000
0100
0000
0000
0010
0000
0000
1000
0000
0000
0001
0000
0000
0000
0010
0000
0000
0000
0100
0000
0000
0000
,
1000
0000
0000
0000
0000
0000
0004
0000
0000
0003
0000
0000
0000
0000
0000
0000
0000
0000
0004
0000
0000
0003
0000
0000
0000
0000
0000
0000
0000
0000
0100
0000
0000
0000
0000
0000
0001
0000
0000
0000
0100
0000
0000
0000
0001
0000
0000
0000
,
1000
0000
0100
0000
0010
0000
0100
0000
4000
3000
0000
0000
0004
0003
0000
0000
,
0200
0000
0000
0300
0000
0000
0100
0000
0000
0000
0001
0000
0000
0000
0010
0000
0000
0000
0100
0000
0000
0000
0000
0000
,
2002
0000
0000
0000
0000
0000
0000
3003
2002
0000
0000
0000
0000
0000
0000
0000
,
3113
0000
0000
1000
0000
0000
0001
0000
0010
0000
0100
0000
,
1000
0000
0000
0000
0010
0000
0000
0000
0100
0000
0000
0000
0002
0000
0000
0003
0000
0000
0000
0000
0000
0000
0000
0000
,
0101
0000
0100
0001
0010
0100
0000
0100
,
1000
0000
0010
0200
0020
0300
0030
0000
,
1001
0000
1000
0100
1000
0010
0000
0010
,
0100
0000
0100
0002
2000
0003
3100
0100
,
0020
0030
0000
0000
0001
0000
0100
0000
0010
0000
0100
0000
0000
0000
0100
0000
,
0001
0000
1000
0200
0020
0000
0300
0030
,
0011
0000
0001
0100
0001
1000
0000
1000
,
0010
0000
0100
0010
0000
0000
0000
0000
,
0220
0330
0000
0000
0100
0000
0001
0000
1000
0000
0001
0000
0100
0000
0010
0000
,
0100
0000
0001
0000
1000
0000
0100
0000
0010
0000
0001
1000
0001
0000
1000
0000
,
0002
0003
1000
0000
0001
0000
0010
0000
0100
0000
0010
0000
0001
0000
1000
0000
,
0001
0010
0100
1000
0001
0100
0010
1000
,
0200
0300
1000
0000
0001
0000
0100
0000
0020
0030
0100
0000
0001
0000
1000
0000
,
0200
0300
0010
0000
0001
0000
1000
0000
0020
0030
0100
0001
0100
0000
0001
0000
,
1000
0100
1000
0001
,
0100
0010
0100
0001
,
1000
0100
1000
0001
0010
0100
1000
0001
,
0100
0001
1000
0010
0100
0001
1000
0010
,
1000
0010
1000
0001
0100
0001
1000
0100
1000
0001
0100
0001
1000
0100
0010
0001
,
1000
0100
1000
0001
0010
0100
1000
0001
0100
0010
0100
0001
1000
0010
0100
0001
,
1000
0001
0100
0010
0100
0001
0100
0001
,
1000
0100
1000
0100
1000
0000
0000
0000
,
0000
0000
0000
0000
,
1001
0000
0000
0000
,
0001
0100
0001
1000
0010
0100
0001
1000
0002
0000
0000
0000
0103
0010
1000
0001
,
0100
0010
0100
0001
1000
0100
0010
0001
2000
0000
0000
0000
3100
0010
0001
1000
,
0001
0010
0100
0010
0001
1000
0001
0100
0020
0000
0000
0000
0130
0001
0100
0010
,
1000
0010
0100
0001
2000
0000
0000
0000
3002
0000
0000
0000
0000
0000
0000
0000
,
1003
0100
0010
0100
1000
0001
0100
0010
2000
0000
0000
0000
3001
0010
0100
1000
,
0100
0010
0001
1000
0100
1000
0001
0010
0200
0000
0000
0000
1300
0001
0100
0010
,
1000
0001
0100
0010
0100
0001
0010
0100
,
1000
0100
1000
0000
0001
0100
0001
0000
0100
0000
0010
0000
1000
0000
0000
0000
,
0001
0100
0010
1000
0010
0100
0001
1000
0200
0000
0000
0000
0310
0001
1000
0010
,
0100
0001
1000
0010
0100
0001
1000
0001
2000
0000
0000
0000
0000
0000
0000
0000
,
3100
0010
0001
0010
0100
1000
0001
0100
0020
0000
0000
0000
1030
0001
1000
0001
,
0010
0100
1000
0001
0010
0001
1000
0100
0010
0001
1000
0001
0100
0010
0100
0001
,
1000
0001
0100
0010
0100
0001
1000
0100
2000
0000
0000
0000
3001
0010
0100
1000
,
0100
0010
0001
1000
0001
1000
0010
0100
0002
0000
0000
0000
1003
0100
1000
0001
,
1000
0010
0200
0300
0001
0010
0200
0300
,
1000
0100
1000
0000
0001
0100
0001
0000
1000
0000
0010
0000
0100
0000
0000
0000
,
0001
0100
0001
1000
0010
0100
0001
1000
0200
0000
0000
0000
0310
0001
0010
0100
,
1000
0001
0100
0010
0100
0001
1000
0010
0200
0000
0000
0000
0301
1000
0100
0010
,
0001
0010
0100
1000
0100
0010
0001
1000
0002
0000
0000
0000
0103
0010
1000
0001
,
0010
0100
1000
0100
0010
0001
1000
0001
2000
0000
0000
0000
3010
0100
0001
1000
,
0001
0010
0100
1000
0001
0100
0001
1000
0200
0000
0000
0000
0310
0001
1000
0001
,
0100
0010
0100
0001
1000
0100
0010
0100
2000
0000
0000
0000
3001
1000
0010
0100
,
0001
1000
0001
0100
0001
1000
0001
0100
0001
1000
0100
0010
0001
1000
0100
1000
,
0001
0010
0001
0000
0100
0010
0100
0000
0001
0000
1000
0000
0100
0000
0000
0000
,
1000
0010
1000
0001
0100
0001
1000
0010
0200
0000
0000
0000
0310
1000
0001
0010
,
0100
1000
0100
0010
0001
1000
0001
0010
0200
0000
0000
0000
1300
0001
0010
0100
,
1000
0001
0100
0010
0100
0001
1000
0001
0200
0000
0000
0000
0310
1000
0010
0100
,
0001
1000
0001
0010
0100
1000
0100
0010
0002
0000
0000
0000
1003
0010
0100
0001
,
0100
0010
1000
0001
1000
0001
0010
0100
2000
0000
0000
0000
3010
0100
0001
0100
,
0010
1000
0001
0010
0100
1000
0100
0010
0002
0000
0000
0000
0103
0010
1000
0001
,
0010
0100
0010
0100
1000
0010
0100
0010
1000
0001
0010
0100
,
1000
0001
0100
0001
1000
0001
0100
0001
1000
0001
0100
0001
1000
0000
0000
0000
,
1001
0000
0001
0100
0000
0100
0010
0000
,
0220
0330
0202
0303
2002
3003
1000
0100
,
0020
0030
0000
0000
0000
0000
0002
0003
0000
0000
0000
0000
0200
0300
0000
0000
,
0002
0003
0000
0000
0002
0003
0000
0000
1000
0000
0100
0000
1000
0000
0001
0000
,
0200
0300
0000
0000
0001
0000
0010
0000
0000
0000
0000
0000
0022
0000
0033
0000
,
0020
0130
2000
3001
2000
3000
0001
0100
,
0010
0000
0000
0000
0000
0000
0220
0330
0000
0000
0000
0000
0202
0303
0000
0000
,
1001
0000
1001
0000
1000
0100
0010
0001
,
2002
0000
0000
0000
0000
0000
3MM3
0000
0000
0000
0000
0000
0000
0MM0
0000
0000
0000
0000
0000
0000
0MM0
0000
0000
0000
,
0000
0MM0
0000
0000
0000
0000
0000
0000
;
