#TITLE:Axle Grinder;
#SUBTITLE:;
#ARTIST:Pendulum;
#TITLETRANSLIT:;
#SUBTITLETRANSLIT:;
#ARTISTTRANSLIT:;
#CREDIT:;
#BANNER:axlegrinderbn.png;
#BACKGROUND:axlegrinderbg.png;
#LYRICSPATH:;
#CDTITLE:;
#MUSIC:axlegrinder.ogg;
#OFFSET:0.009;
#SAMPLESTART:33.290;
#SAMPLELENGTH:22.200;
#SELECTABLE:YES;
#BPMS:0.000=173.000;
#STOPS:;
#BGCHANGES:;
// cache tags:
#FIRSTBEAT:64.000;
#LASTBEAT:590.500;
#SONGFILENAME:Songs/Pendulum/Axle Grinder/axlegrinder.sm;
#HASMUSIC:1;
#HASBANNER:1;
#MUSICLENGTH:205.300;
// end cache tags

//---------------dance-single - I. Pyles----------------
#NOTES:
     dance-single:
     I. Pyles:
     Beginner:
     1:
     0.023,0.035,0.000,0.000,0.000,33.000,0.000,0.000,0.000,0.000:
0000
0000
0000
0000
,
0000
0000
0000
0000
,
0000
0000
0000
0000
,
0000
0000
0000
0000
,
0000
0000
0000
0000
,
0000
0000
0000
0000
,
0000
0000
0000
0000
,
0000
0000
0000
0000
,
0000
0000
0000
0000
,
0000
0000
0000
0000
,
0000
0000
0000
0000
,
0000
0000
0000
0000
,
0000
0000
0000
0000
,
0000
0000
0000
0000
,
0000
0000
0000
0000
,
0000
0000
0000
0000
,
0010
0000
0000
0000
,
0000
0000
0000
0000
,
0000
0000
0000
0000
,
0000
0000
0000
0000
,
1000
0000
0000
0000
,
0000
0000
0000
0000
,
0000
0000
0000
0000
,
0000
0000
0000
0000
,
0010
0000
0000
0000
,
0000
0000
0000
0000
,
0000
0000
0000
0000
,
0000
0000
0000
0000
,
0001
0000
0000
0000
,
0000
0000
0000
0000
,
0000
0000
0000
0000
,
0000
0000
0000
0000
,
0010
0000
0000
0000
,
0000
0000
0000
0000
,
0000
0000
0000
0000
,
0000
0000
0000
0000
,
0010
0000
0000
0000
,
0000
0000
0000
0000
,
0000
0000
0000
0000
,
0000
0000
0000
0000
,
0001
0000
0000
0000
,
0000
0000
0000
0000
,
0000
0000
0000
0000
,
0000
0000
0000
0000
,
1000
0000
0000
0000
,
0000
0000
0000
0000
,
0000
0000
0000
0000
,
0000
0000
0000
0000
,
0010
0000
0000
0000
,
0000
0000
0000
0000
,
0000
0000
0000
0000
,
0000
0000
0000
0000
,
0100
0000
0000
0000
,
0000
0000
0000
0000
,
0000
0000
0000
0000
,
0000
0000
0000
0000
,
0001
0000
0000
0000
,
0000
0000
0000
0000
,
0000
0000
0000
0000
,
0000
0000
0000
0000
,
0100
0000
0000
0000
,
0000
0000
0000
0000
,
0000
0000
0000
0000
,
0000
0000
0000
0000
,
0010
0000
0000
0000
,
0000
0000
0000
0000
,
0000
0000
0000
0000
,
0000
0000
0000
0000
,
0010
0000
0000
0000
,
0000
0000
0000
0000
,
0000
0000
0000
0000
,
0000
0000
0000
0000
,
0001
0000
0000
0000
,
0000
0000
0000
0000
,
0000
0000
0000
0000
,
0000
0000
0000
0000
,
1000
0000
0000
0000
,
0000
0000
0000
0000
,
0000
0000
0000
0000
,
0000
0000
0000
0000
,
1000
0000
0000
0000
,
0000
0000
0000
0000
,
0000
0000
0000
0000
,
0000
0000
0000
0000
,
0001
0000
0000
0000
,
0000
0000
0000
0000
,
0000
0000
0000
0000
,
0000
0000
0000
0000
,
0100
0000
0000
0000
,
0000
0000
0000
0000
,
0000
0000
0000
0000
,
0000
0000
0000
0000
,
0100
0000
0000
0000
,
0000
0000
0000
0000
,
0000
0000
0000
0000
,
0000
0000
0000
0000
,
1000
0000
0000
0000
,
0000
0000
0000
0000
,
0000
0000
0000
0000
,
0000
0000
0000
0000
,
0010
0000
0000
0000
,
0000
0000
0000
0000
,
0000
0000
0000
0000
,
0000
0000
0000
0000
,
0010
0000
0000
0000
,
0000
0000
0000
0000
,
0000
0000
0000
0000
,
0000
0000
0000
0000
,
1000
0000
0000
0000
,
0000
0000
0000
0000
,
0000
0000
0000
0000
,
0000
0000
0000
0000
,
1000
0000
0000
0000
,
0000
0000
0000
0000
,
0000
0000
0000
0000
,
0000
0000
0000
0000
,
0010
0000
0000
0000
,
0000
0000
0000
0000
,
0000
0000
0000
0000
,
0000
0000
0000
0000
,
1000
0000
0000
0000
,
0000
0000
0000
0000
,
0000
0000
0000
0000
,
0000
0000
0000
0000
,
1000
0000
0000
0000
,
0000
0000
0000
0000
,
0000
0000
0000
0000
,
0000
0000
0000
0000
,
1000
0000
0000
0000
,
0000
0000
0000
0000
,
0000
0000
0000
0000
,
0000
0000
0000
0000
,
0100
0000
0000
0000
,
0000
0000
0000
0000
,
0000
0000
0000
0000
,
0000
0000
0000
0000
,
0100
0000
0000
0000
,
0000
0000
0000
0000
,
0000
0000
0000
0000
,
0000
0000
0000
0000
,
0010
0000
0000
0000
,
0000
0000
0000
0000
,
0000
0000
0000
0000
,
0000
0000
0000
0001
;

//---------------dance-single - I. Pyles----------------
#NOTES:
     dance-single:
     I. Pyles:
     Easy:
     9:
     0.576,0.899,0.151,0.024,0.071,791.000,31.000,5.000,0.000,0.000:
0000
0000
0000
0000
,
0000
0000
0000
0000
,
0000
0000
0000
0000
,
0000
0000
0000
0000
,
0000
0000
0000
0000
,
0000
0000
0000
0000
,
0000
0000
0000
0000
,
0000
0000
0000
0000
,
0000
0000
0000
0000
,
0000
0000
0000
0000
,
0000
0000
0000
0000
,
0000
0000
0000
0000
,
0000
0000
0000
0000
,
0000
0000
0000
0000
,
0000
0000
0000
0000
,
0000
0000
0000
0000
,
1001
0001
0100
0001
0010
0100
0010
0001
,
1000
0001
0100
0001
0010
0100
0010
0001
,
1000
0100
0010
0100
1000
0001
0100
0001
,
1000
0100
0010
0100
1000
0001
0100
0001
,
0010
0100
1000
0001
0200
0000
0000
0000
,
0000
0000
0000
0000
0000
0000
0000
0300
,
0001
0010
0100
1000
0001
1000
0001
0010
0100
1000
0001
1000
,
0001
0000
0000
0000
0010
0000
0000
0000
0100
0000
0000
0000
1000
0000
0000
0000
0001
0000
0000
0000
1000
0000
0000
0000
0001
0000
0000
0000
0010
0000
0000
0000
0001
0000
0000
0000
0100
0000
0000
0000
0000
0000
0010
0000
0000
1000
0000
0000
,
0001
0000
1000
0100
0010
0100
1000
0000
,
0001
0000
0100
0010
0100
0001
0100
0000
,
0010
0000
1000
0001
0010
0001
1000
0000
,
0100
0000
0010
0001
0010
0100
0010
0000
,
0001
0000
1000
0010
0100
0010
1000
0000
,
0002
0003
1000
0100
0010
0100
1000
0000
,
0001
1000
0100
1000
0010
0100
0001
1000
,
0001
0000
0100
0040
0000
0000
0000
0030
,
1000
0000
0001
0010
0100
0010
0001
0000
,
1000
0000
0010
0100
0010
1000
0010
0000
,
0100
0000
0001
1000
0100
1000
0001
0000
,
0010
0000
0100
1000
0100
0010
0001
0100
,
0010
0000
1000
0001
1000
0000
0001
0000
0020
0000
0030
0000
0100
0000
1000
0000
,
0010
0000
1000
0001
1000
0000
0020
0000
0000
0000
0000
0000
0000
0000
0030
0000
,
1000
0000
0000
0000
0001
0000
0000
0000
1000
0100
1000
0100
1000
0000
0001
0000
,
0010
0100
0010
0000
0001
0000
1000
0100
1000
0100
1000
0000
0001
0100
0000
0000
,
0001
0010
0100
1000
0000
0010
0100
0001
,
0000
0010
0100
1000
0010
0100
0001
1000
,
0001
0100
0010
1000
0000
0100
0010
0001
,
0000
0100
0010
1000
0100
0010
0001
1000
,
0001
0010
0100
1000
0000
0010
0100
0001
,
0000
0010
0100
1000
0010
0100
0001
1000
,
0001
0100
0010
1000
0000
0100
0010
0001
,
0000
0100
0010
1000
0100
0010
0001
1000
,
0001
0010
0100
1000
0000
0010
0100
0001
,
0000
0010
0100
1000
0010
0100
0001
1000
,
0001
0100
0010
1000
0000
0100
0010
0001
,
0000
0100
0010
1000
0100
0010
0001
1000
,
0001
0010
0100
1000
0000
0010
0100
0001
,
0000
0010
0100
1000
0010
0100
0001
1000
,
0001
0100
0010
1000
0000
0100
0010
0001
,
0000
0100
0010
1000
0100
0010
0001
1000
,
0001
0100
0010
0100
0001
0010
0001
0010
,
0001
0010
0100
1000
0010
1000
0010
1000
,
0010
1000
0001
0010
0100
1000
0100
1000
,
0100
1000
0010
0100
0001
0100
0001
0100
,
0001
0100
0010
0100
0001
0010
0001
0010
,
0001
0010
0100
1000
0010
1000
0010
1000
,
0010
1000
0001
0010
0100
1000
0100
1000
,
0100
1000
0010
0100
0001
0100
0001
0100
,
0010
0000
1010
0000
0000
1001
0000
0000
,
0000
0000
1001
0000
0000
0011
0000
0000
,
0010
0000
0011
0000
0000
1001
0000
0000
,
0000
0000
1001
0000
0000
0101
0000
0000
,
0100
0000
0101
0000
0000
1001
0000
0000
,
0000
0000
1001
0000
0000
1100
0000
0000
,
0100
0000
1100
0000
0000
1001
0000
0000
,
0000
0000
1001
0000
0000
1010
0000
0000
,
0010
0000
1010
0000
0000
1001
0000
0000
,
0000
0000
1001
0000
0000
0011
0000
0000
,
0010
0000
0011
0000
0000
1001
0000
0000
,
0000
0000
1001
0000
0000
0101
0000
0000
,
0100
0000
0101
0000
0000
1001
0000
0000
,
0000
0000
1001
0000
0000
1100
0000
0000
,
0100
0000
1100
0000
0000
1001
0000
0000
,
0001
0000
1000
0100
1000
0000
0001
0100
0001
0000
1000
0100
1000
0000
0001
0000
,
1000
0000
0001
1000
0000
0001
0010
0000
,
0100
0000
1000
0001
0000
0010
0100
1000
,
0001
0000
1000
0001
0000
1000
0100
0000
,
0010
0000
0001
1000
0000
0100
0010
0001
,
1000
0000
0001
1000
0000
0001
0100
0000
,
0010
0000
1000
0001
0000
0100
0010
1000
,
0001
0000
1000
0001
0000
1000
0010
0000
,
0100
0000
0001
1000
0000
0010
0100
0001
,
1000
0000
0001
1000
0000
0001
0010
0000
,
0100
0000
1000
0001
0000
0010
0100
1000
,
0001
0000
1000
0001
0000
1000
0100
0000
,
0010
0000
0001
1000
0000
0100
0010
0001
,
1000
0000
0001
1000
0000
0001
0100
0000
,
0010
0000
1000
0001
0000
0100
0010
1000
,
0001
0000
1000
0001
0000
1000
0010
0000
,
0100
0000
0000
0000
0001
0000
1000
0000
0000
0000
0010
0000
1000
0001
1000
0000
,
0001
0010
0100
1000
0000
0010
0100
0001
,
0000
0010
0100
1000
0010
0100
0001
1000
,
0001
0100
0010
1000
0000
0100
0010
0001
,
0000
0100
0010
1000
0100
0010
0001
1000
,
0001
0010
0100
1000
0000
0010
0100
0001
,
0000
0010
0100
1000
0010
0100
0001
1000
,
0001
0100
0010
1000
0000
0100
0010
0001
,
0000
0100
0010
1000
0100
0010
0001
1000
,
0001
0010
0100
1000
0000
0010
0100
0001
,
0000
0010
0100
1000
0010
0100
0001
1000
,
0001
0100
0010
1000
0000
0100
0010
0001
,
0000
0100
0010
1000
0100
0010
0001
1000
,
0001
0010
0100
1000
0000
0010
0100
0001
,
0000
0010
0100
1000
0010
0100
0001
1000
,
0001
0100
0010
1000
0000
0100
0010
0001
,
0000
0100
0010
1000
0100
0010
0001
1000
,
0001
0000
1000
0001
0000
1000
0100
0000
,
0010
0000
0001
1000
0000
0100
0010
0001
,
1000
0000
0001
1000
0000
0001
0010
0000
,
0100
0000
1000
0001
0000
0010
0100
1000
,
0001
0000
1000
0001
0000
1000
0010
0000
,
0100
0000
0001
1000
0000
0010
0100
0001
,
1000
0000
0001
1000
0000
0001
0100
0000
,
0010
0000
1000
0001
0000
0100
0010
1000
,
0001
0000
1000
0001
0000
1000
0100
0000
,
0010
0000
0001
1000
0000
0100
0010
0001
,
1000
0000
0001
1000
0000
0001
0010
0000
,
0100
0000
1000
0001
0000
0010
0100
1000
,
0001
0000
1000
0001
0000
1000
0010
0000
,
0100
0000
0001
1000
0000
0010
0100
0001
,
1000
0000
0001
1000
0000
0001
0100
0000
,
0010
0000
0000
0000
1000
0000
0001
0000
0000
0000
0100
0000
0001
1000
0001
0000
,
1000
0100
0010
0001
0000
0100
0010
1000
,
0000
0100
0010
0001
0100
0010
1000
0001
,
1000
0010
0100
0001
0000
0010
0100
1000
,
0000
0010
0100
0001
0010
0100
1000
0001
,
1000
0100
0010
0001
0000
0100
0010
1000
,
0000
0100
0010
0001
0100
0010
1000
0001
,
1000
0010
0100
0001
0000
0010
0100
1000
,
0000
0010
0100
0001
0010
0100
1000
0001
,
1000
0100
0010
0001
0000
0100
0010
1000
,
0000
0100
0010
0001
0100
0010
1000
0001
,
1000
0010
0100
0001
0000
0010
0100
1000
,
0000
0010
0100
0001
0010
0100
1000
0001
,
1000
0100
0010
0001
0000
0100
0010
1000
,
0000
0100
0010
0001
0100
0010
1000
0001
,
1000
0010
0100
0001
0000
0010
0100
1000
,
0000
0000
0010
0000
0100
0001
0100
0000
0010
0000
0010
0000
0200
0000
0000
0000
,
0000
0000
0000
0000
,
0000
0000
0000
0000
,
0000
0000
0000
0000
,
0000
0000
0000
0000
0000
0300
0000
0000
;

//---------------dance-single - I. Pyles----------------
#NOTES:
     dance-single:
     I. Pyles:
     Medium:
     10:
     0.800,0.899,0.477,0.015,0.609,1048.000,98.000,3.000,0.000,0.000:
0000
0000
0000
0000
,
0000
0000
0000
0000
,
0000
0000
0000
0000
,
0000
0000
0000
0000
,
0000
0000
0000
0000
,
0000
0000
0000
0000
,
0000
0000
0000
0000
,
0000
0000
0000
0000
,
0000
0000
0000
0000
,
0000
0000
0000
0000
,
0000
0000
0000
0000
,
0000
0000
0000
0000
,
0000
0000
0000
0000
,
0000
0000
0000
0000
,
0000
0000
0000
0000
,
0000
0000
0000
0000
,
1001
0001
0100
0001
0010
0100
0010
0001
,
1000
0001
0100
0001
0010
0100
0010
0001
,
1000
0100
0010
0100
1000
0001
0100
0001
,
1000
0100
0010
0100
1000
0001
0100
0001
,
0010
0100
1000
0001
0200
0000
0000
0000
,
0000
0000
0000
0000
0000
0000
0000
0300
,
0001
0010
0100
0010
0001
1000
0001
0100
0010
0100
0001
1000
,
0100
0000
0000
0000
0010
0000
0000
0000
0100
0000
0000
0000
1000
0000
0000
0000
0001
0000
0000
0000
0100
0000
0000
0000
0001
0000
0000
0000
0010
0000
0000
0000
0001
0000
0000
0000
0100
0000
0000
0000
0000
0000
0010
0000
0000
1000
0000
0000
,
0001
0000
1000
0000
0010
0000
0100
0001
0100
0001
0100
0000
0010
0000
0100
0001
,
1000
0000
0001
0000
0010
0000
0100
1000
0100
1000
0100
0000
0010
0000
0100
1000
,
0001
0000
1000
0000
0100
0000
0010
0001
0010
0001
0010
0000
0100
0000
0010
0001
,
1000
0000
0001
0000
0100
0000
0010
1000
0010
1000
0010
0000
0100
0000
0010
1000
,
0001
0000
0100
0000
0010
0000
1000
0001
0000
1000
0000
0001
1000
0000
0001
0100
,
0020
0000
0030
0000
1010
0000
0000
1000
0000
0001
0000
1000
0001
0000
0100
0001
,
1000
0000
1000
0000
0010
0000
0000
0100
0000
0001
0000
1000
0001
0000
0010
0000
,
0001
0000
0100
0040
0000
0000
0000
0030
,
1000
0000
0001
0000
0100
0000
0010
1000
0010
1000
0010
0000
0100
0000
0010
1000
,
0001
0000
1000
0000
0100
0000
0010
0001
0010
0001
0010
0000
0100
0000
0010
0001
,
1000
0000
0001
0000
0010
0000
0100
1000
0100
1000
0100
0000
0010
0000
0100
1000
,
0001
0000
1000
0000
0010
0000
0100
0001
0100
0001
0100
0000
0010
0000
0100
0001
,
1000
0000
0010
0000
0100
0000
0001
1000
0000
0001
0000
1000
0001
0000
1000
0001
,
0100
0000
0001
0000
0010
0000
0100
1000
0001
1000
0100
1000
0001
0000
0010
0001
,
1000
0000
0001
0000
0100
0000
0010
1000
0010
1000
0010
0100
0001
0000
1000
0000
,
0001
0010
0001
0010
0100
0000
1000
0001
0000
0001
1000
0000
0010
0100
0000
0000
,
0001
0010
0001
0000
1000
0000
0100
0000
1000
0000
0010
0000
0100
0000
0001
0000
,
1000
0100
1000
0000
0001
0000
0010
0000
0001
0000
0100
0000
0010
0000
1000
0000
,
0001
0100
0001
0000
1000
0000
0010
0000
1000
0000
0100
0000
0010
0000
0001
0000
,
1000
0010
1000
0000
0001
0000
0100
0000
0001
0000
0010
0000
0100
0000
1000
0000
,
0001
0010
0001
0000
1000
0000
0100
0000
1000
0000
0010
0000
0100
0000
0001
0000
,
1000
0100
1000
0000
0001
0000
0010
0000
0001
0000
0100
0000
0010
0000
1000
0000
,
0001
0100
0001
0000
1000
0000
0010
0000
1000
0000
0100
0000
0010
0000
0001
0000
,
1000
0010
1000
0000
0001
0100
0000
0001
0000
0100
0000
0001
1000
0000
0001
0000
,
1000
0100
1000
0000
0001
0000
0010
0000
0001
0000
0100
0000
0010
0000
1000
0000
,
0001
0010
0001
0000
1000
0000
0100
0000
1000
0000
0010
0000
0100
0000
0001
0000
,
1000
0010
1000
0000
0001
0000
0100
0000
0001
0000
0010
0000
0100
0000
1000
0000
,
0001
0100
0001
0000
1000
0000
0010
0000
1000
0000
0100
0000
0010
0000
0001
0000
,
1000
0100
1000
0000
0001
0000
0010
0000
0001
0000
0100
0000
0010
0000
1000
0000
,
0001
0010
0001
0000
1000
0000
0100
0000
1000
0000
0010
0000
0100
0000
0001
0000
,
1000
0010
1000
0000
0001
0000
0100
0000
0001
0000
0010
0000
0100
0000
1000
0000
,
0001
0100
0001
0000
1000
0010
0000
1000
0000
0010
0000
1000
0001
0000
1000
0000
,
0001
0100
0010
0100
0001
0010
0001
0010
,
0001
0010
0100
1000
0010
1000
0010
1000
,
0010
1000
0001
0010
0100
1000
0100
1000
,
0100
1000
0010
0100
0001
0100
0001
0100
,
0001
0100
0010
0100
0001
0010
0001
0010
,
0001
0010
0100
1000
0010
1000
0010
1000
,
0010
1000
0001
0010
0100
1000
0100
1000
,
0100
1000
0010
0100
0001
0100
0001
0100
,
0010
0000
1010
0000
0000
1001
0000
0000
,
0000
0000
1001
0000
0000
0011
0000
0000
,
0010
0000
0011
0000
0000
1001
0000
0000
,
0000
0000
1001
0000
0000
0101
0000
0000
,
0100
0000
0101
0000
0000
1001
0000
0000
,
0000
0000
1001
0000
0000
1100
0000
0000
,
0100
0000
1100
0000
0000
1001
0000
0000
,
0000
0000
1001
0000
0000
1010
0000
0000
,
0010
0000
0000
0000
1010
0000
0010
1000
0001
0000
0100
0010
1000
0000
0001
0000
,
0100
0000
0010
1000
0001
0010
0000
0010
0001
0000
1000
0100
0010
0000
0001
0000
,
0010
0000
0000
0000
0011
0000
0010
0001
1000
0010
0000
0010
1000
0000
0001
0000
,
0100
0000
0010
1000
0001
0000
0100
0000
0010
1000
0001
0010
0100
0010
0001
1000
,
0010
0000
0000
0000
1010
0000
0010
1000
0001
0010
0000
0010
0001
0000
1000
0000
,
0100
0000
0010
0001
1000
0000
0100
0000
0010
0001
0000
0001
0010
0000
0100
0000
,
0010
0000
0000
0000
0011
0000
0010
0001
1000
0010
0000
0010
1000
0000
0001
0000
,
0100
0000
0010
1000
0100
0010
0001
0100
0000
0100
0001
1000
0010
0000
0100
0001
,
1000
0000
0000
0001
1000
0000
1001
0000
0000
0001
0100
0000
0010
1000
0000
0000
,
1010
0000
0000
0010
1000
0000
1010
0000
0000
0000
1001
0000
0000
0001
0000
0000
,
0101
0000
0000
0100
0001
0000
0101
0000
0000
0000
1001
0000
0000
1000
0000
0000
,
1100
0000
0000
0100
1000
0000
1100
0000
0000
0000
1001
0000
0000
0001
0000
0000
,
1001
0000
0000
1000
0001
0000
1001
0000
0000
1000
0010
0000
0100
0001
0000
0000
,
0101
0000
0000
0100
0001
0000
0101
0000
0000
0000
1001
0000
0000
1000
0000
0000
,
1010
0000
0000
0010
1000
0000
1010
0000
0000
0000
1001
0000
0000
0001
0000
0000
,
0011
0000
0000
0010
0001
0000
0011
0000
0000
0000
1001
0000
0000
1000
0000
0000
,
1001
0000
0000
0001
1000
0000
1001
0000
0000
1000
0001
0000
0100
0001
0000
0001
,
1000
0000
0000
0100
1000
0000
1100
0000
0000
0000
1001
0000
0000
0001
0000
0000
,
0011
0000
0000
0010
0001
0000
0011
0000
0000
0000
1001
0000
0000
1000
0000
0000
,
1010
0000
0000
0010
1000
0000
1010
0000
0000
0000
1001
0000
0000
0001
0000
0000
,
1001
0000
0000
1000
0001
0000
1001
0000
0000
0001
1000
0000
0100
1000
0000
1000
,
0001
0000
0000
0010
0001
0000
0011
0000
0000
0000
1001
0000
0000
1000
0000
0000
,
1100
0000
0000
0100
1000
0000
1100
0000
0000
0000
1001
0000
0000
0001
0000
0000
,
1000
0100
1000
0100
0010
0000
0001
0010
0000
0010
0001
0000
1000
0001
0000
0000
,
0001
0010
0001
0000
1000
0000
0100
0000
1000
0000
0010
0000
0100
0000
0001
0000
,
1000
0100
1000
0000
0001
0000
0010
0000
0001
0000
0100
0000
0010
0000
1000
0000
,
0001
0100
0001
0000
1000
0000
0010
0000
1000
0000
0100
0000
0010
0000
0001
0000
,
1000
0010
1000
0000
0001
0000
0100
0000
0001
0000
0010
0000
0100
0000
1000
0000
,
0001
0010
0001
0000
1000
0000
0100
0000
1000
0000
0010
0000
0100
0000
0001
0000
,
1000
0100
1000
0000
0001
0000
0010
0000
0001
0000
0100
0000
0010
0000
1000
0000
,
0001
0100
0001
0000
1000
0000
0010
0000
1000
0000
0100
0000
0010
0000
0001
0000
,
1000
0010
1000
0000
0001
0100
0000
0001
0000
0100
0000
0001
1000
0000
0001
0000
,
1000
0100
1000
0000
0001
0000
0010
0000
0001
0000
0100
0000
0010
0000
1000
0000
,
0001
0010
0001
0000
1000
0000
0100
0000
1000
0000
0010
0000
0100
0000
0001
0000
,
1000
0010
1000
0000
0001
0000
0100
0000
0001
0000
0010
0000
0100
0000
1000
0000
,
0001
0100
0001
0000
1000
0000
0010
0000
1000
0000
0100
0000
0010
0000
0001
0000
,
1000
0100
1000
0000
0001
0000
0010
0000
0001
0000
0100
0000
0010
0000
1000
0000
,
0001
0010
0001
0000
1000
0000
0100
0000
1000
0000
0010
0000
0100
0000
0001
0000
,
1000
0010
1000
0000
0001
0000
0100
0000
0001
0000
0010
0000
0100
0000
1000
0000
,
0001
0100
0001
0000
1000
0010
0000
1000
0000
0010
0000
1000
0001
0000
0010
0001
,
1000
0000
0000
1000
0001
0000
1001
0000
0000
1000
0010
0000
0100
0001
0000
0000
,
0101
0000
0000
0100
0001
0000
0101
0000
0000
0000
1001
0000
0000
1000
0000
0000
,
1010
0000
0000
0010
1000
0000
1010
0000
0000
0000
1001
0000
0000
0001
0000
0000
,
0011
0000
0000
0010
0001
0000
0011
0000
0000
0000
1001
0000
0000
1000
0000
0000
,
1001
0000
0000
0001
1000
0000
1001
0000
0000
0001
0100
0000
0010
1000
0000
0000
,
1010
0000
0000
0010
1000
0000
1010
0000
0000
0000
1001
0000
0000
0001
0000
0000
,
0101
0000
0000
0100
0001
0000
0101
0000
0000
0000
1001
0000
0000
1000
0000
0000
,
1100
0000
0000
0100
1000
0000
1100
0000
0000
0000
1001
0000
0000
0001
0000
0000
,
1001
0000
0000
1000
0001
0000
1001
0000
0000
0001
1000
0000
0010
1000
0000
1000
,
0001
0000
0000
0010
0001
0000
0011
0000
0000
0000
1001
0000
0000
1000
0000
0000
,
1100
0000
0000
0100
1000
0000
1100
0000
0000
0000
1001
0000
0000
0001
0000
0000
,
0101
0000
0000
0100
0001
0000
0101
0000
0000
0000
1001
0000
0000
1000
0000
0000
,
1001
0000
0000
0001
1000
0000
1001
0000
0000
1000
0001
0000
0010
0001
0000
0001
,
1000
0000
0000
0100
1000
0000
1100
0000
0000
0000
1001
0000
0000
0001
0000
0000
,
0011
0000
0000
0010
0001
0000
0011
0000
0000
0000
1001
0000
0000
1000
0000
0000
,
0001
0010
0001
0010
0100
0000
1000
0100
0000
0100
1000
0000
0001
1000
0000
0000
,
1000
0100
1000
0000
0001
0000
0010
0000
0001
0000
0100
0000
0010
0000
1000
0000
,
0001
0010
0001
0000
1000
0000
0100
0000
1000
0000
0010
0000
0100
0000
0001
0000
,
1000
0010
1000
0000
0001
0000
0100
0000
0001
0000
0010
0000
0100
0000
1000
0000
,
0001
0100
0001
0000
1000
0000
0010
0000
1000
0000
0100
0000
0010
0000
0001
0000
,
1000
0100
1000
0000
0001
0000
0010
0000
0001
0000
0100
0000
0010
0000
1000
0000
,
0001
0010
0001
0000
1000
0000
0100
0000
1000
0000
0010
0000
0100
0000
0001
0000
,
1000
0010
1000
0000
0001
0000
0100
0000
0001
0000
0010
0000
0100
0000
1000
0000
,
0001
0100
0001
0000
1000
0010
0000
1000
0000
0010
0000
1000
0001
0000
1000
0000
,
0001
0010
0001
0000
1000
0000
0100
0000
1000
0000
0010
0000
0100
0000
0001
0000
,
1000
0100
1000
0000
0001
0000
0010
0000
0001
0000
0100
0000
0010
0000
1000
0000
,
0001
0100
0001
0000
1000
0000
0010
0000
1000
0000
0100
0000
0010
0000
0001
0000
,
1000
0010
1000
0000
0001
0000
0100
0000
0001
0000
0010
0000
0100
0000
1000
0000
,
0001
0010
0001
0000
1000
0000
0100
0000
1000
0000
0010
0000
0100
0000
0001
0000
,
1000
0100
1000
0000
0001
0000
0010
0000
0001
0000
0100
0000
0010
0000
1000
0000
,
0001
0100
0001
0000
1000
0000
0010
0000
1000
0000
0100
0000
0010
0000
0001
0000
,
1000
0100
1000
0000
0001
0010
0000
0001
0000
0001
0000
1000
0200
0000
0000
0000
,
0000
0000
0000
0000
,
0000
0000
0000
0000
,
0000
0000
0000
0000
,
0000
0000
0000
0000
0000
0300
0000
0000
;

//---------------dance-single - I. Pyles----------------
#NOTES:
     dance-single:
     I. Pyles:
     Hard:
     12:
     0.916,1.000,0.555,0.015,1.000,1199.000,114.000,3.000,0.000,0.000:
0000
0000
0000
0000
,
0000
0000
0000
0000
,
0000
0000
0000
0000
,
0000
0000
0000
0000
,
0000
0000
0000
0000
,
0000
0000
0000
0000
,
0000
0000
0000
0000
,
0000
0000
0000
0000
,
0000
0000
0000
0000
,
0000
0000
0000
0000
,
0000
0000
0000
0000
,
0000
0000
0000
0000
,
0000
0000
0000
0000
,
0000
0000
0000
0000
,
0000
0000
0000
0000
,
0000
0000
0000
0000
,
1001
0001
0100
0001
0010
0100
0010
0001
,
1000
0001
0100
0001
0010
0100
0010
0001
,
1000
0100
0010
0100
1000
0001
0100
0001
,
1000
0100
0010
0100
1000
0001
0100
0001
,
0010
0100
1000
0001
0200
0000
0000
0000
,
0000
0000
0000
0000
0000
0000
0000
0300
,
0001
0010
0100
0010
0001
1000
0001
0100
0010
0100
0001
1000
,
0100
0000
0000
0000
0010
0000
0000
0000
0100
0000
0000
0000
1000
0000
0000
0000
0001
0000
0000
0000
0100
0000
0000
0000
0001
0000
0000
0000
0010
0000
0000
0000
0001
0000
0000
0000
0100
0000
0000
0000
0000
0000
0010
0000
0000
1000
0000
0000
,
0001
0000
0010
0001
1000
0010
1000
0001
0000
0100
0000
0001
1000
0000
0100
1000
,
0001
0000
0100
0001
1000
0100
1000
0001
0000
0010
0000
0001
1000
0000
0010
0100
,
0001
0000
0100
0010
1000
0100
0010
0001
0000
0010
0000
0001
1000
0000
0010
0100
,
0001
0000
0100
0010
1000
0100
0010
0001
0000
0010
0000
0001
1000
0000
0010
1000
,
0001
0000
1000
0100
1000
0000
0001
0100
0000
0001
0000
1000
0100
0000
1000
0001
,
0020
0000
0030
0000
0100
0010
0001
0100
0000
0010
0000
1000
0001
0000
0010
0100
,
1000
0000
0001
0100
0001
0000
1000
0100
0000
1000
0000
0001
0100
0000
0010
1000
,
0001
0000
0100
0040
0000
0000
0000
0030
,
1010
0000
0010
1000
0001
0010
0001
1000
0000
0100
0000
1000
0001
0000
0100
0001
,
1000
0000
0100
1000
0001
0100
0001
1000
0000
0010
0000
1000
0001
0000
0010
0100
,
1000
0000
0100
0010
0001
0100
0010
1000
0000
0010
0000
1000
0001
0000
0010
0100
,
1000
0000
0100
0010
0001
0100
0010
1000
0000
0010
0000
1000
0001
0000
0010
0001
,
1000
0000
0001
0100
0001
0000
1000
0100
0000
1000
0000
0001
0100
0000
0010
1000
,
0001
0000
1000
0100
1000
0000
0001
0100
0000
0100
0001
0000
1000
0000
0001
0000
,
1001
0000
1000
0100
0010
0000
0001
0100
0001
0100
0001
1000
0010
0000
0100
0000
,
0010
1000
0001
0010
0100
0000
0010
0001
0000
0001
0010
0000
0001
1000
0000
0000
,
0001
0100
0010
0100
0001
0000
1000
0010
0000
1000
0000
0010
1000
0000
0001
0100
,
0010
0100
0000
0000
0101
0000
0000
0100
0000
0001
0000
0100
0010
0000
0100
0001
,
1000
0100
0010
0100
1000
0000
0001
0010
0000
0001
0000
0010
0001
0000
1000
0100
,
0010
0100
0000
0000
1100
0000
0000
0100
0000
1000
0000
0100
0010
0000
0100
1000
,
0001
0010
0100
0010
0001
0000
1000
0100
0000
1000
0000
0100
1000
0000
0001
0010
,
0100
0010
0000
0000
0011
0000
0000
0010
0000
0001
0000
0010
0100
0000
0010
0001
,
1000
0010
0100
0010
1000
0000
0001
0100
0000
0001
0000
0100
0001
0000
1000
0010
,
0100
0001
0000
0000
0001
1000
0000
0010
0000
1000
0000
0010
0100
0000
0010
1000
,
0001
0100
0010
0100
0001
0000
1000
0010
0000
1000
0000
0010
1000
0000
0001
0100
,
0010
0100
0000
0000
0101
0000
0000
0100
0000
0001
0000
0100
0010
0000
0100
0001
,
1000
0100
0010
0100
1000
0000
0001
0010
0000
0001
0000
0010
0001
0000
1000
0100
,
0010
0001
0000
0000
0001
1000
0000
0100
0000
1000
0000
0100
0010
0000
0100
1000
,
0001
0010
0100
0010
0001
0000
1000
0100
0000
1000
0000
0100
1000
0000
0001
0010
,
0100
0010
0000
0000
0011
0000
0000
0010
0000
0001
0000
0010
0100
0000
0010
0001
,
1000
0010
0100
0010
1000
0000
0001
0100
0000
0001
0000
0100
0001
0000
1000
0010
,
0100
0001
0000
0000
0001
1000
0000
0010
0000
1000
0000
0010
0100
0000
0010
1000
,
0001
0100
0001
0100
0010
1000
0001
0010
0100
1000
0100
1000
0001
0100
0001
1000
,
0100
1000
0100
1000
0010
0100
0001
0100
0010
1000
0010
1000
0001
0010
0001
1000
,
0010
1000
0010
1000
0100
0010
0100
1000
0001
0100
0001
0100
0001
1000
0100
1000
,
0001
0100
0001
0100
0010
1000
0001
0010
0100
1000
0100
1000
0001
0100
0001
1000
,
0100
1000
0100
1000
0010
0100
0001
0100
0010
1000
0010
1000
0001
0010
0001
1000
,
0010
1000
0010
1000
0100
0010
0100
1000
0001
0100
0001
0100
0001
1000
0100
1000
,
0001
0100
0001
0100
0010
1000
0001
0010
0100
1000
0100
1000
0001
0100
0001
1000
,
0100
1000
0100
1000
0010
0100
0001
0100
0010
1000
0010
1000
0001
0010
0001
1000
,
0010
0000
1010
0000
0000
1001
0000
0000
,
0000
0000
1001
0000
0000
0011
0000
0000
,
0010
0000
0011
0000
0000
1001
0000
0000
,
0000
0000
1001
0000
0000
0101
0000
0000
,
0100
0000
0101
0000
0000
1001
0000
0000
,
0000
0000
1001
0000
0000
1100
0000
0000
,
0100
0000
1100
0000
0000
1001
0000
0000
,
0000
0000
1001
0000
0000
1010
0000
0000
,
0010
0000
0000
0000
1010
0000
0010
1000
0001
0000
0100
0010
1000
0000
0001
0000
,
0100
0000
0010
1000
0001
0010
0000
0010
0001
0000
1000
0100
0010
0000
0001
0000
,
0010
0000
0000
0000
0011
0000
0010
0001
1000
0010
0000
0010
1000
0000
0001
0000
,
0100
0000
0010
1000
0001
0000
0100
0000
0010
1000
0001
0010
0100
0010
0001
1000
,
0010
0000
0000
0000
1010
0000
0010
1000
0001
0010
0000
0010
0001
0000
1000
0000
,
0100
0000
0010
0001
1000
0000
0100
0000
0010
0001
0000
0001
0010
0000
0100
0000
,
0010
0000
0000
0000
0011
0000
0010
0001
1000
0010
0000
0010
1000
0000
0001
0000
,
0100
0000
0010
1000
0100
0010
0001
0100
0000
0100
0001
1000
0010
0000
0100
0001
,
1000
0000
0000
0001
1000
0000
1001
0000
0000
0001
0100
0000
0010
1000
0000
0000
,
1010
0000
0000
0010
1000
0000
1010
0000
0000
0000
1001
0000
0000
0001
0000
0000
,
0101
0000
0000
0100
0001
0000
0101
0000
0000
0000
1001
0000
0000
1000
0000
0000
,
1100
0000
0000
0100
1000
0000
1100
0000
0000
0000
1001
0000
0000
0001
0000
0000
,
1001
0000
0000
1000
0001
0000
1001
0000
0000
1000
0010
0000
0100
0001
0000
0000
,
0101
0000
0000
0100
0001
0000
0101
0000
0000
0000
1001
0000
0000
1000
0000
0000
,
1010
0000
0000
0010
1000
0000
1010
0000
0000
0000
1001
0000
0000
0001
0000
0000
,
0011
0000
0000
0010
0001
0000
0011
0000
0000
0000
1001
0000
0000
1000
0000
0000
,
1001
0000
0000
0001
1000
0000
1001
0000
0000
1000
0001
0000
0100
0001
0000
0001
,
1000
0000
0000
0100
1000
0000
1100
0000
0000
0000
1001
0000
0000
0001
0000
0000
,
0011
0000
0000
0010
0001
0000
0011
0000
0000
0000
1001
0000
0000
1000
0000
0000
,
1010
0000
0000
0010
1000
0000
1010
0000
0000
0000
1001
0000
0000
0001
0000
0000
,
1001
0000
0000
1000
0001
0000
1001
0000
0000
0001
1000
0000
0100
1000
0000
1000
,
0001
0000
0000
0010
0001
0000
0011
0000
0000
0000
1001
0000
0000
1000
0000
0000
,
1100
0000
0000
0100
1000
0000
1100
0000
0000
0000
1001
0000
0000
0001
0000
0000
,
0100
0001
1000
0100
0010
0000
0100
1000
0000
1000
0100
0000
1000
0001
0000
0000
,
0001
0100
0010
0100
0001
0000
1000
0010
0000
1000
0000
0010
1000
0000
0001
0100
,
0010
0100
0000
0000
0101
0000
0000
0100
0000
0001
0000
0100
0010
0000
0100
0001
,
1000
0100
0010
0100
1000
0000
0001
0010
0000
0001
0000
0010
0001
0000
1000
0100
,
0010
0100
0000
0000
1100
0000
0000
0100
0000
1000
0000
0100
0010
0000
0100
1000
,
0001
0010
0100
0010
0001
0000
1000
0100
0000
1000
0000
0100
1000
0000
0001
0010
,
0100
0010
0000
0000
0011
0000
0000
0010
0000
0001
0000
0010
0100
0000
0010
0001
,
1000
0010
0100
0010
1000
0000
0001
0100
0000
0001
0000
0100
0001
0000
1000
0010
,
0100
0001
0000
0000
0001
1000
0000
0010
0000
1000
0000
0010
0100
0000
0010
1000
,
0001
0100
0010
0100
0001
0000
1000
0010
0000
1000
0000
0010
1000
0000
0001
0100
,
0010
0100
0000
0000
0101
0000
0000
0100
0000
0001
0000
0100
0010
0000
0100
0001
,
1000
0100
0010
0100
1000
0000
0001
0010
0000
0001
0000
0010
0001
0000
1000
0100
,
0010
0001
0000
0000
0001
1000
0000
0100
0000
1000
0000
0100
0010
0000
0100
1000
,
0001
0010
0100
0010
0001
0000
1000
0100
0000
1000
0000
0100
1000
0000
0001
0010
,
0100
0010
0000
0000
0011
0000
0000
0010
0000
0001
0000
0010
0100
0000
0010
0001
,
1000
0010
0100
0010
1000
0000
0001
0100
0000
0001
0000
0100
0001
0000
1000
0010
,
0100
0001
0000
0000
0001
1000
0000
0010
0000
1000
0000
0010
0100
0000
0010
1000
,
0001
0000
0000
1000
0001
0000
1001
0000
0000
1000
0010
0000
0100
0001
0000
0000
,
0101
0000
0000
0100
0001
0000
0101
0000
0000
0000
1001
0000
0000
1000
0000
0000
,
1010
0000
0000
0010
1000
0000
1010
0000
0000
0000
1001
0000
0000
0001
0000
0000
,
0011
0000
0000
0010
0001
0000
0011
0000
0000
0000
1001
0000
0000
1000
0000
0000
,
1001
0000
0000
0001
1000
0000
1001
0000
0000
0001
0100
0000
0010
1000
0000
0000
,
1010
0000
0000
0010
1000
0000
1010
0000
0000
0000
1001
0000
0000
0001
0000
0000
,
0101
0000
0000
0100
0001
0000
0101
0000
0000
0000
1001
0000
0000
1000
0000
0000
,
1100
0000
0000
0100
1000
0000
1100
0000
0000
0000
1001
0000
0000
0001
0000
0000
,
1001
0000
0000
1000
0001
0000
1001
0000
0000
0001
1000
0000
0010
1000
0000
1000
,
0001
0000
0000
0010
0001
0000
0011
0000
0000
0000
1001
0000
0000
1000
0000
0000
,
1100
0000
0000
0100
1000
0000
1100
0000
0000
0000
1001
0000
0000
0001
0000
0000
,
0101
0000
0000
0100
0001
0000
0101
0000
0000
0000
1001
0000
0000
1000
0000
0000
,
1001
0000
0000
0001
1000
0000
1001
0000
0000
1000
0001
0000
0010
0001
0000
0001
,
1000
0000
0000
0100
1000
0000
1100
0000
0000
0000
1001
0000
0000
0001
0000
0000
,
0011
0000
0000
0010
0001
0000
0011
0000
0000
0000
1001
0000
0000
1000
0000
0000
,
0010
1000
0001
0010
0100
0000
0010
0001
0000
0001
0010
0000
0001
1000
0000
0000
,
1000
0010
0100
0010
1000
0000
0001
0100
0000
0001
0000
0100
0001
0000
1000
0010
,
0100
0010
0000
0000
1010
0000
0000
0010
0000
1000
0000
0010
0100
0000
0010
1000
,
0001
0010
0100
0010
0001
0000
1000
0100
0000
1000
0000
0100
1000
0000
0001
0010
,
0100
0010
0000
0000
0011
0000
0000
0010
0000
0001
0000
0010
0100
0000
0010
0001
,
1000
0100
0010
0100
1000
0000
0001
0010
0000
0001
0000
0010
0001
0000
1000
0100
,
0010
0100
0000
0000
1100
0000
0000
0100
0000
1000
0000
0100
0010
0000
0100
1000
,
0001
0100
0010
0100
0001
0000
1000
0010
0000
1000
0000
0010
1000
0000
0001
0100
,
0010
1000
0000
0000
1000
0001
0000
0100
0000
0001
0000
0100
0010
0000
0100
0001
,
1000
0010
0100
0010
1000
0000
0001
0100
0000
0001
0000
0100
0001
0000
1000
0010
,
0100
0010
0000
0000
1010
0000
0000
0010
0000
1000
0000
0010
0100
0000
0010
1000
,
0001
0010
0100
0010
0001
0000
1000
0100
0000
1000
0000
0100
1000
0000
0001
0010
,
0100
1000
0000
0000
1000
0001
0000
0010
0000
0001
0000
0010
0100
0000
0010
0001
,
1000
0100
0010
0100
1000
0000
0001
0010
0000
0001
0000
0010
0001
0000
1000
0100
,
0010
0100
0000
0000
1100
0000
0000
0100
0000
1000
0000
0100
0010
0000
0100
1000
,
0001
0100
0010
0100
0001
0000
1000
0010
0000
1000
0000
0010
1000
0000
0001
0100
,
0010
1000
0000
0000
1000
0001
0000
0100
0000
0001
0000
0010
0200
0000
0000
0000
,
0000
0000
0000
0000
,
0000
0000
0000
0000
,
0000
0000
0000
0000
,
0000
0000
0000
0000
0000
0300
0000
0000
;

//---------------dance-single - I. Pyles----------------
#NOTES:
     dance-single:
     I. Pyles:
     Challenge:
     15:
     1.000,1.000,0.107,0.015,1.000,1799.000,22.000,3.000,0.000,0.000:

0000
0000
0000
0000
,
0000
0000
0000
0000
,
0000
0000
0000
0000
,
0000
0000
0000
0000
,
0000
0000
0000
0000
,
0000
0000
0000
0000
,
0000
0000
0000
0000
,
0000
0000
0000
0000
,
0000
0000
0000
0000
,
0000
0000
0000
0000
,
0000
0000
0000
0000
,
0000
0000
0000
0000
,
0000
0000
0000
0000
,
0000
0000
0000
0000
,
0000
0000
0000
0000
,
0000
0000
0000
0000
,
1001
0001
0100
0001
0010
0100
0010
0001
,
1000
0001
0100
0001
0010
0100
0010
0001
,
1000
0100
0010
0100
1000
0001
0100
0001
,
1000
0100
0010
0100
1000
0001
0100
0001
,
0010
0100
1000
0001
0200
0000
0000
0000
,
0000
0000
0000
0000
0000
0000
0000
0300
,
0001
0010
0100
0010
0001
1000
0001
0100
0010
0100
0001
1000
,
0100
0000
0000
0000
0010
0000
0000
0000
0100
0000
0000
0000
1000
0000
0000
0000
0001
0000
0000
0000
0100
0000
0000
0000
0001
0000
0000
0000
0010
0000
0000
0000
0001
0000
0000
0000
0100
0000
0000
0000
0000
0000
0010
0000
0000
1000
0000
0000
,
0001
0000
0100
0010
1000
0001
0010
0100
0010
0001
1000
0100
1000
0001
0010
0100
,
1000
0010
0100
0001
1000
0100
0010
0100
1000
0001
0100
0010
1000
0001
0100
0001
,
1000
0100
0010
0001
1000
0010
0100
0010
1000
0100
1000
0010
0100
0001
1000
0001
,
1000
0010
0100
0001
1000
0100
0010
0100
1000
0010
1000
0100
0010
0001
1000
0001
,
1000
0100
0010
0001
1000
0010
1000
0001
0010
0100
1000
0001
1000
0010
0100
0001
,
0020
0000
0030
0000
0001
0010
0001
1000
0010
0100
0001
1000
0001
0010
0100
1000
,
0001
0100
0010
1000
0001
0010
0001
1000
0010
0100
0001
1000
0001
0010
0100
1000
,
0001
0000
0100
0040
0000
0000
0000
0030
,
1001
0000
0001
0100
0001
1000
0100
0010
0100
1000
0001
0010
0001
1000
0100
0010
,
0001
0100
0010
1000
0001
0010
0100
0010
0001
1000
0010
0100
0001
1000
0010
1000
,
0001
0010
0100
1000
0001
0100
0010
0100
0001
0010
0001
0100
0010
1000
0001
1000
,
0001
0100
0010
1000
0001
0010
0100
0010
0001
0100
0001
0010
0100
1000
0001
1000
,
0001
0010
0100
1000
0001
0100
0001
1000
0100
0010
0001
1000
0001
0100
0010
1000
,
0001
0010
0100
1000
0001
0100
0001
0010
0001
1000
0010
1000
0100
1000
0001
0100
,
0001
1000
0100
0010
0001
1000
0100
1000
0010
0100
0010
0100
0001
1000
0010
1000
,
0100
0010
0100
0010
0001
1000
0100
1000
0001
0100
0010
1000
0100
0010
0000
0000
,
0001
0100
0001
0100
0010
1000
0100
0010
0100
1000
0010
0100
0001
1000
0010
1000
,
0100
0010
0100
1000
0010
0100
0010
1000
0100
1000
0100
0010
0001
1000
0010
1000
,
0001
0010
0001
0010
0100
1000
0010
0100
0010
1000
0100
0010
0001
1000
0100
1000
,
0010
0100
0010
1000
0100
0010
0100
1000
0010
1000
0010
0100
0001
1000
0100
1000
,
0001
0100
0001
0100
0010
1000
0001
0010
0001
0100
0010
0100
0001
1000
0001
0010
,
0001
0100
0010
1000
0010
0100
0001
0010
0001
0100
0010
0100
0001
1000
0010
1000
,
0001
0010
0001
0010
0100
1000
0001
0100
0001
0010
0100
0010
0001
1000
0001
0100
,
0001
0010
0100
1000
0100
0010
0001
0100
0001
0010
0100
0010
0001
1000
0100
1000
,
0001
0100
0001
0100
0010
1000
0100
0010
0100
1000
0010
0100
0001
1000
0010
1000
,
0100
0010
0100
1000
0010
0100
0010
1000
0100
1000
0100
0010
0001
1000
0010
1000
,
0001
0010
0001
0010
0100
1000
0010
0100
0010
1000
0100
0010
0001
1000
0100
1000
,
0010
0100
0010
1000
0100
0010
0100
1000
0010
1000
0010
0100
0001
1000
0100
1000
,
0001
0100
0001
0100
0010
1000
0001
0010
0001
0100
0010
0100
0001
1000
0001
0010
,
0001
0100
0010
1000
0010
0100
0001
0010
0001
0100
0010
0100
0001
1000
0010
1000
,
0001
0010
0001
0010
0100
1000
0001
0100
0001
0010
0100
0010
0001
1000
0001
0100
,
0001
0010
0100
1000
0001
0010
0001
0100
0001
0010
0100
0010
0001
1000
0100
1000
,
0001
0100
0001
0100
0010
1000
0001
0010
0100
1000
0100
1000
0001
0100
0001
1000
,
0100
1000
0100
1000
0010
0100
0001
0100
0010
1000
0010
1000
0001
0010
0001
1000
,
0010
1000
0010
1000
0100
0010
0100
1000
0001
0100
0001
0100
0001
1000
0100
1000
,
0001
0100
0001
0100
0010
1000
0001
0010
0100
1000
0100
1000
0001
0100
0001
1000
,
0100
1000
0100
1000
0010
0100
0001
0100
0010
1000
0010
1000
0001
0010
0001
1000
,
0010
1000
0010
1000
0100
0010
0100
1000
0001
0100
0001
0100
0001
1000
0100
1000
,
0001
0100
0001
0100
0010
1000
0001
0010
0100
1000
0100
1000
0001
0100
0001
1000
,
0100
1000
0100
1000
0010
0100
0001
0100
0010
1000
0010
1000
0001
0010
0001
1000
,
0010
0000
1010
0000
0000
1001
0000
0000
,
0000
0000
1001
0000
0000
0011
0000
0000
,
0010
0000
0011
0000
0000
1001
0000
0000
,
0000
0000
1001
0000
0000
0101
0000
0000
,
0100
0000
0101
0000
0000
1001
0000
0000
,
0000
0000
1001
0000
0000
1100
0000
0000
,
0100
0000
1100
0000
0000
1001
0000
0000
,
0000
0000
1001
0000
0000
1010
0000
0000
,
0010
0000
0000
0000
1010
0000
0010
1000
0001
0000
0100
0010
1000
0000
0001
0000
,
0100
0000
0010
1000
0001
0010
0000
0010
0001
0000
1000
0100
0010
0000
0001
0000
,
0010
0000
0000
0000
0011
0000
0010
0001
1000
0010
0000
0010
1000
0000
0001
0000
,
0100
0000
0010
1000
0001
0000
0100
0000
0010
1000
0001
0010
0100
0010
0001
1000
,
0010
0000
0000
0000
1010
0000
0010
1000
0001
0010
0000
0010
0001
0000
1000
0000
,
0100
0000
0010
0001
1000
0000
0100
0000
0010
0001
0000
0001
0010
0000
0100
0000
,
0010
0000
0000
0000
0011
0000
0010
0001
1000
0010
0000
0010
1000
0000
0001
0000
,
0100
0000
0010
1000
0100
0010
0001
0100
0000
0100
0001
1000
0010
0000
0100
0000
,
0010
1000
0100
0010
0001
1000
0010
1000
0100
0010
0001
0010
0001
0100
0010
1000
,
0001
0010
0100
1000
0010
1000
0001
0010
0100
1000
0010
0100
0010
1000
0100
0010
,
0001
0100
0010
1000
0100
1000
0001
0100
0010
1000
0100
0010
0100
1000
0010
0100
,
0001
0100
0010
1000
0100
1000
0001
0100
0010
1000
0100
0010
0100
1000
0010
0100
,
0010
1000
0100
0010
0001
1000
0010
1000
0100
0010
0001
0010
0001
0100
0010
1000
,
0001
0010
0100
1000
0010
1000
0001
0010
0100
1000
0010
0100
0010
1000
0100
0010
,
0001
0100
0010
1000
0100
1000
0001
0100
0010
1000
0100
0010
0100
1000
0010
0100
,
0001
0100
0010
1000
0100
1000
0001
0100
0010
1000
0100
0010
0100
1000
0010
1000
,
0100
1000
0010
0100
0001
1000
0100
1000
0010
0100
0001
0100
0001
0010
0100
1000
,
0001
0100
0010
1000
0100
1000
0001
0100
0010
1000
0100
0010
0100
1000
0010
0100
,
0001
0010
0100
1000
0010
1000
0001
0010
0100
1000
0010
0100
0010
1000
0100
0010
,
0001
0010
0100
1000
0010
1000
0001
0010
0100
1000
0010
0100
0010
1000
0100
0010
,
0100
1000
0010
0100
0001
1000
0100
1000
0010
0100
0001
0100
0001
0010
0100
1000
,
0001
0100
0010
1000
0100
1000
0001
0100
0010
1000
0100
0010
0100
1000
0010
0100
,
0001
0010
0100
1000
0010
1000
0001
0010
0100
1000
0010
0100
0010
1000
0100
0010
,
0001
0010
0100
1000
0010
1000
0001
0010
0100
1000
0010
0100
0001
1000
0000
0000
,
0001
0010
0001
0010
0100
1000
0010
0100
0010
1000
0100
0010
0001
1000
0100
1000
,
0010
0100
0010
1000
0100
0010
0100
1000
0010
1000
0010
0100
0001
1000
0100
1000
,
0001
0100
0001
0100
0010
1000
0100
0010
0100
1000
0010
0100
0001
1000
0010
1000
,
0100
0010
0100
1000
0010
0100
0010
1000
0100
1000
0100
0010
0001
1000
0010
1000
,
0001
0010
0001
0010
0100
1000
0001
0100
0001
0010
0100
0010
0001
1000
0001
0100
,
0001
0010
0100
1000
0100
0010
0001
0100
0001
0010
0100
0010
0001
1000
0100
1000
,
0001
0100
0001
0100
0010
1000
0001
0010
0001
0100
0010
0100
0001
1000
0001
0010
,
0001
0100
0010
1000
0010
0100
0001
0010
0001
0100
0010
0100
0001
1000
0010
1000
,
0001
0010
0001
0010
0100
1000
0010
0100
0010
1000
0100
0010
0001
1000
0100
1000
,
0010
0100
0010
1000
0100
0010
0100
1000
0010
1000
0010
0100
0001
1000
0100
1000
,
0001
0100
0001
0100
0010
1000
0100
0010
0100
1000
0010
0100
0001
1000
0010
1000
,
0100
0010
0100
1000
0010
0100
0010
1000
0100
1000
0100
0010
0001
1000
0010
1000
,
0001
0010
0001
0010
0100
1000
0001
0100
0001
0010
0100
0010
0001
1000
0001
0100
,
0001
0010
0100
1000
0100
0010
0001
0100
0001
0010
0100
0010
0001
1000
0100
1000
,
0001
0100
0001
0100
0010
1000
0001
0010
0001
0100
0010
0100
0001
1000
0001
0010
,
0001
0100
0010
1000
0001
0100
0001
0010
0001
0100
0010
0100
0001
1000
0010
1000
,
0100
1000
0010
0100
0001
1000
0100
1000
0010
0100
0001
0100
0001
0010
0100
1000
,
0001
0100
0010
1000
0100
1000
0001
0100
0010
1000
0100
0010
0100
1000
0010
0100
,
0001
0010
0100
1000
0010
1000
0001
0010
0100
1000
0010
0100
0010
1000
0100
0010
,
0001
0010
0100
1000
0010
1000
0001
0010
0100
1000
0010
0100
0010
1000
0100
0010
,
0100
1000
0010
0100
0001
1000
0100
1000
0010
0100
0001
0100
0001
0010
0100
1000
,
0001
0100
0010
1000
0100
1000
0001
0100
0010
1000
0100
0010
0100
1000
0010
0100
,
0001
0010
0100
1000
0010
1000
0001
0010
0100
1000
0010
0100
0010
1000
0100
0010
,
0001
0010
0100
1000
0010
1000
0001
0010
0100
1000
0010
0100
0010
1000
0100
1000
,
0010
1000
0100
0010
0001
1000
0010
1000
0100
0010
0001
0010
0001
0100
0010
1000
,
0001
0010
0100
1000
0010
1000
0001
0010
0100
1000
0010
0100
0010
1000
0100
0010
,
0001
0100
0010
1000
0100
1000
0001
0100
0010
1000
0100
0010
0100
1000
0010
0100
,
0001
0100
0010
1000
0100
1000
0001
0100
0010
1000
0100
0010
0100
1000
0010
0100
,
0010
1000
0100
0010
0001
1000
0010
1000
0100
0010
0001
0010
0001
0100
0010
1000
,
0001
0010
0100
1000
0010
1000
0001
0010
0100
1000
0010
0100
0010
1000
0100
0010
,
0001
0100
0010
1000
0100
1000
0001
0100
0010
1000
0100
0010
0100
1000
0010
0100
,
0001
0100
0010
1000
0100
1000
0001
0100
0010
1000
0100
0010
0001
1000
0000
0000
,
0001
0100
0001
0100
0010
1000
0100
0010
0100
1000
0010
0100
0001
1000
0010
1000
,
0100
0010
0100
1000
0010
0100
0010
1000
0100
1000
0100
0010
0001
1000
0010
1000
,
0001
0010
0001
0010
0100
1000
0010
0100
0010
1000
0100
0010
0001
1000
0100
1000
,
0010
0100
0010
1000
0100
0010
0100
1000
0010
1000
0010
0100
0001
1000
0100
1000
,
0001
0100
0001
0100
0010
1000
0001
0010
0001
0100
0010
0100
0001
1000
0001
0010
,
0001
0100
0010
1000
0010
0100
0001
0010
0001
0100
0010
0100
0001
1000
0010
1000
,
0001
0010
0001
0010
0100
1000
0001
0100
0001
0010
0100
0010
0001
1000
0001
0100
,
0001
0010
0100
1000
0100
0010
0001
0100
0001
0010
0100
0010
0001
1000
0100
1000
,
0001
0100
0001
0100
0010
1000
0100
0010
0100
1000
0010
0100
0001
1000
0010
1000
,
0100
0010
0100
1000
0010
0100
0010
1000
0100
1000
0100
0010
0001
1000
0010
1000
,
0001
0010
0001
0010
0100
1000
0010
0100
0010
1000
0100
0010
0001
1000
0100
1000
,
0010
0100
0010
1000
0100
0010
0100
1000
0010
1000
0010
0100
0001
1000
0100
1000
,
0001
0100
0001
0100
0010
1000
0001
0010
0001
0100
0010
0100
0001
1000
0001
0010
,
0001
0100
0010
1000
0010
0100
0001
0010
0001
0100
0010
0100
0001
1000
0010
1000
,
0001
0010
0001
0010
0100
1000
0001
0100
0001
0010
0100
0010
0001
1000
0001
0100
,
0001
0010
0100
1000
0001
0010
0001
0100
0001
0010
0100
1000
0020
0000
0000
0000
,
0000
0000
0000
0000
,
0000
0000
0000
0000
,
0000
0000
0000
0000
,
0000
0000
0000
0000
0000
0030
0000
0000
;
