#TITLE:TESTIFY;
#SUBTITLE:;
#ARTIST:I\;
#TITLETRANSLIT:;
#SUBTITLETRANSLIT:;
#ARTISTTRANSLIT:;
#CREDIT:Owem;
#BANNER:../banner.png;
#BACKGROUND:../bg.png;
#LYRICSPATH:;
#CDTITLE:../cdtitleowem.png;
#MUSIC:I_Gor - TESTIFY.ogg;
#OFFSET:-0.958;
#SAMPLESTART:115.472;
#SAMPLELENGTH:29.999;
#SELECTABLE:YES;
#DISPLAYBPM:175.000;
#BPMS:0.000=93.333,16.000=175.000,318.000=700.000,326.000=175.000;
#STOPS:;
#BGCHANGES:;
// cache tags:
#FIRSTBEAT:16.000;
#LASTBEAT:966.000;
#SONGFILENAME:Songs/Owem's Simfiles 08 - 1.2/TESTIFY - [Owem] v1.0.1/TESTIFY.sm;
#HASMUSIC:1;
#HASBANNER:1;
#MUSICLENGTH:347.376;
// end cache tags

//---------------dance-single - 14+ (Owem)----------------
#NOTES:
     dance-single:
     14+ (Owem):
     Challenge:
     14:
     1.000,1.000,0.291,0.771,1.000,2414.000,101.000,268.000,509.000,0.000:
0000
0000
0000
0000
,
0000
0000
0000
0000
,
0000
0000
0000
0000
,
0000
0000
0000
0000
,
2MM2
0000
0000
0MM0
0000
0000
0MM0
0000
3003
0000
0000
0000
MMMM
0000
0000
0000
0000
0000
0000
0000
0000
0000
0000
0000
0000
0000
0000
0000
0000
0000
0000
0000
0000
0000
0000
0000
0M00
0000
0000
0000
0000
0000
00M0
0000
0000
0000
0000
0000
,
000M
000M
0000
0000
,
2M1M
0000
30M0
0000
0000
0000
0000
0000
0000
0000
0000
0000
0000
0000
022M
0330
,
M220
0330
0000
M2M2
0303
0000
0000
0000
,
2MM2
3003
0000
00M0
0000
0000
0000
0000
,
0000
0M00
0000
0000
,
22MM
00MM
33MM
0000
0000
0000
0000
0000
0000
0000
0000
0000
0000
0000
M022
0033
,
0M22
0033
0000
2MM2
3003
0000
0000
0000
,
2M2M
3030
0010
0000
0100
0000
0001
4000
,
3010
0000
0000
0000
0000
0000
0000
0000
0000
0100
0000
0000
0000
0000
0000
0000
0000
0000
0001
0000
0000
0000
0000
0000
0100
0000
0000
0000
0000
0000
0010
0000
0000
0000
0000
0000
1000
0000
0000
0001
0000
0000
0100
0000
0001
0000
0100
0000
,
0020
0000
0030
1000
0000
0000
0001
0000
0010
0100
0000
1000
0010
0000
M22M
0330
,
M22M
0000
0330
0100
0000
0000
M2M2
0000
0303
0001
0000
0000
1000
0000
0010
0000
,
0100
0000
0001
0000
0100
0000
0010
0000
1000
0000
0001
0000
1000
0000
0000
0100
0000
0000
0010
0000
0000
0001
0000
0000
0100
0000
0000
0000
0000
0000
0010
0000
0000
0000
0000
0000
1000
0000
0000
0000
0000
0000
0001
0000
0000
0000
0000
0000
,
1000
0000
0000
0100
0000
0000
0010
0000
0000
0001
0000
0000
0100
0000
0000
0000
,
M22M
M00M
0330
0010
0000
0000
1000
0000
0001
0100
0000
0000
0010
0000
1000
0001
,
0000
0000
1000
0100
0010
0000
0001
1000
0020
0000
0000
0000
0030
0000
0100
0000
,
M1M4
0000
1000
4003
,
0100
0000
3400
0000
,
0340
0000
0001
0034
,
1000
0000
0403
0000
,
031M
1000
0000
0001
1000
0200
0300
0010
,
0001
1000
0000
0010
0100
0002
0003
1000
,
0100
0000
0010
0001
1000
0000
0001
0000
0100
0000
0010
0000
0000
0000
1000
0000
,
0010
0000
0100
0000
0001
0000
0000
0100
0000
0010
0000
0000
1000
0000
0000
0001
0000
0000
0000
0000
0000
1000
0000
0000
,
1M1M
0010
0000
0100
0001
2000
3000
1010
,
1010
0000
0010
0100
0000
0000
0110
0000
0100
0000
0002
0000
0003
0000
1000
0000
,
1100
0100
0000
0010
0002
0003
1000
1010
,
0110
0100
0001
1000
0200
0000
0310
0001
,
0101
0100
0000
0010
1010
1000
0000
1001
,
1001
0000
0000
0000
0001
0000
0011
0000
0010
0000
0100
0000
1000
0001
0100
0000
,
0010
0000
1000
0000
0001
0000
0010
0100
0000
1000
0000
0000
0001
0000
0101
0000
,
0010
1000
0000
0002
0000
0003
0010
0000
0110
0000
0100
0000
1000
0000
0001
0000
,
0100
0010
0100
0001
1000
0100
0010
0001
,
1000
0001
0100
0010
1000
0001
0010
0100
,
1000
0001
0100
0010
1000
0001
0100
0001
0010
0100
1000
0001
0010
0001
0100
0010
,
1000
0000
000M
0000
00M0
0000
0M00
M000
000M
0000
0M00
0000
00M0
0000
M000
0M00
,
0001
1000
0010
0100
0001
1000
0100
1000
0010
0100
0001
1000
0100
1000
0001
0100
,
0001
0010
0100
1000
0001
1000
0100
0010
0001
1000
0010
0100
0002
0000
0000
0000
,
1003
0100
0010
0001
1000
0100
1000
0010
0100
0001
1000
0040
1030
0001
0100
0001
,
0100
0010
1000
0100
1000
0001
0010
0100
1000
0001
0100
0010
1000
0000
0001
0000
,
0200
0000
0000
0000
0310
1000
0001
0100
0010
1000
0001
0010
0001
1000
0100
0010
,
0001
1000
0020
0000
0230
0000
0301
0000
1000
0100
0010
0001
0200
0000
0000
0000
,
0310
1000
0001
0100
0001
0010
0100
1000
0001
0010
0001
1000
0100
1000
0010
0100
,
0002
0000
0000
2003
3020
4030
3020
2030
3040
4030
3040
2030
,
3100
0010
0001
1000
0100
1000
0001
0100
0010
1000
0001
1000
0100
0010
0100
1000
,
0001
0010
0001
1000
0100
0010
0100
1000
0001
0010
0001
0100
0010
1000
0001
0100
,
0001
1000
0010
1000
0001
0100
0010
1000
0100
1000
0001
0010
0001
1000
0100
0010
,
0100
1000
0001
0010
0001
1000
0001
0100
0010
1000
0010
0100
0002
0000
0000
0000
,
1003
0100
1000
0010
0100
0001
1000
0100
1000
0001
0010
0001
0100
0010
1000
0001
,
0100
0001
1000
0010
0100
0001
1000
0100
1000
0001
0010
0001
0100
0010
1000
0001
,
0100
0010
0100
0010
1000
0001
1000
0100
0010
0001
1000
0010
1000
0001
0100
0010
,
2000
0000
0000
0000
0000
0000
0000
0000
0000
0000
0000
0000
0000
0000
0000
0000
0000
0000
0000
0000
0000
0000
0000
0000
3020
0000
0000
0000
0000
0000
0000
0000
0000
0000
0000
0000
0000
0000
0000
0000
0000
0000
0000
0000
0000
0000
0000
0000
M43M
0000
0000
0000
0000
0000
0000
0000
0000
0000
0000
0000
M0MM
0000
0000
0000
0000
0000
0000
0000
0000
0000
0000
0000
M0MM
0000
0000
0000
0000
0000
0000
0000
0000
0000
0000
0300
M4MM
0000
0000
0000
0000
0000
0000
0000
0000
0000
0000
0000
M0MM
0000
0000
0000
0000
0000
0000
0000
0000
0000
0000
0000
M0MM
0000
0000
0000
0000
0000
0000
0000
0000
0000
0000
0300
M4MM
0000
0000
0000
0000
0000
0000
0000
0000
0000
0000
0000
M0MM
0000
0000
0000
0000
0000
0000
0000
0000
0000
0000
0000
M0MM
0000
0000
0000
0000
0000
0000
0000
0000
0000
0000
0300
M4MM
0000
0000
0000
0000
0000
0000
0000
0000
0000
0000
0000
M0MM
0000
0000
0000
0000
0000
0000
0000
0000
0000
0000
0000
M0M0
0000
0000
0000
0000
0000
0000
0000
0000
0000
0000
0000
,
03M1
1000
0200
0310
0001
1000
0100
1000
0010
0100
0002
2003
3100
1000
0010
0100
,
0001
1000
0200
1300
0001
0010
0001
1000
0100
0010
0001
1000
0020
0000
0230
0000
,
0301
1000
0200
1300
0010
0100
0001
1000
0100
1000
0002
0103
0004
1003
0010
0100
,
0001
0010
0200
1300
0004
0013
0100
1000
0004
0013
0100
1000
0020
0000
0000
0030
,
0100
0001
2000
3001
0010
0100
1000
0001
1000
0010
0200
0302
1003
0100
1000
0001
,
0010
0001
2000
3001
0100
0010
1000
0001
0100
0010
1000
0001
0200
0000
0300
0020
,
0000
0030
2000
0000
3001
0010
0100
1000
0001
1000
0010
0100
0001
1000
0100
1000
,
0010
0000
0000
0000
0000
0000
0000
0000
0000
0000
0000
0000
0200
0000
0000
0300
,
0110
0000
0000
0000
0000
0000
2010
0000
0000
0000
0000
0000
0000
0000
0000
0000
0000
0000
3001
0000
0000
0100
0000
0000
0010
0000
0000
0000
0000
0000
0000
0000
0000
0000
0000
0000
0100
0000
0000
0000
0001
0000
0000
0000
1000
0000
0000
0000
,
1010
0000
0000
0000
0000
0000
0120
0000
0000
0000
0000
0000
0000
0000
0000
0000
0000
0000
0130
0000
0000
0001
0000
0000
1000
0000
0000
0000
0000
0000
0000
0000
0000
0000
0000
0000
0100
0000
0000
0000
0010
0000
0000
0000
0001
0000
0000
0000
,
0101
0000
0000
0110
0000
0000
0000
0000
0000
0110
0000
0000
0102
0000
0000
0000
0000
0000
1003
0000
0010
0000
1000
0000
,
1001
0000
0000
0000
0000
0000
0002
0000
0000
0000
0000
0000
0000
0000
0000
0203
0000
0000
0000
0000
0000
0000
0000
0000
0320
0000
0000
0000
0000
0000
0000
0000
0000
0000
0000
0000
1030
0000
0000
0000
0001
0000
0000
0000
1000
0000
0000
0000
,
1100
0000
0000
0000
0000
0000
0120
0000
0000
0000
0000
0000
0000
0000
0000
0030
0000
0000
0011
0000
0000
0000
0000
0000
1001
0000
0000
0000
0000
0000
2000
0000
0000
0000
0000
0000
3100
0000
0000
0000
0010
0000
0000
0000
0001
0000
0000
0000
,
1001
0000
0000
0000
0000
0000
2000
0000
0000
0010
0000
0000
3000
0000
0000
0010
0000
0000
0100
0000
0000
0001
0000
0000
2000
0000
0000
0000
0000
0000
0000
0000
0000
0000
0000
0000
3100
0000
0000
0000
0010
0000
0000
0000
0001
0000
0000
0000
,
1001
0000
1000
0040
0000
0000
0130
0001
2000
0000
0000
0000
3200
0000
0000
0000
,
0310
0000
0000
0000
0000
0000
0000
0000
0000
0000
0000
0000
0000
0000
0000
0000
0000
0000
0000
0000
0000
0000
0000
0000
0001
0000
0000
0000
0000
0000
0000
0000
0000
0000
0000
0000
0000
0000
0000
0000
0000
0000
0000
0000
0000
0000
0000
0000
1000
0000
0000
0000
0000
0000
0000
0000
0000
0000
0100
0000
0000
0000
0000
0000
0000
0000
0000
0010
0000
0000
0000
0000
0000
0000
0000
0000
0000
0001
0000
0000
0000
0000
0000
0000
0000
0000
1000
0000
0000
0000
0000
0000
0000
0000
0000
0000
0001
0000
0000
0000
0000
0000
0000
0000
0000
0000
0100
0000
0000
0000
0000
0000
0000
0000
0000
0010
0000
0000
0000
0000
0000
0000
0000
0000
0000
1000
0000
0000
0000
0000
0000
0000
0000
0000
0001
0000
0000
0000
0000
0000
0000
0000
0000
0000
0100
0000
0000
0000
0000
0000
0000
0000
0000
0000
0001
0000
0000
0000
0000
0000
0000
0000
0000
1000
0000
0000
0000
0000
0000
0000
0000
0000
0000
0100
0000
0000
0000
0000
0000
0000
0000
0000
0010
0000
0000
0000
0000
0000
0000
0000
0000
0000
,
0001
0000
0201
0000
0000
0000
0310
1000
0001
0000
1000
0010
0000
0100
0001
1000
,
0100
0000
0120
0000
0000
0000
0031
0000
0201
0000
0000
0000
0310
1000
0001
1000
,
0100
0000
0120
0000
0000
0000
0031
0000
0201
0000
0000
0000
0310
1000
0001
0100
,
0001
0000
1001
0000
0000
1001
0000
0000
2001
0000
0000
0000
3010
0100
0001
0100
,
0010
0000
0000
1000
0001
0100
0010
1000
0001
0100
0001
1000
0010
0000
0000
0200
0000
0000
0301
0000
0010
0000
0100
0000
,
1000
0000
0000
0000
0000
0000
0020
0000
0000
0000
0000
0000
0130
0000
0000
0000
0001
0000
0000
0000
1000
0000
0000
0000
0200
0000
0000
0000
0000
0000
0000
0000
0000
0000
0000
0000
0310
0000
0000
0001
0000
0000
1000
0000
0000
0001
0000
0000
,
0010
0000
0000
0100
1000
0001
1000
0010
0100
0001
1000
0100
0020
0000
0000
0031
0000
0000
0400
0000
0000
0000
0000
0000
,
0310
4000
0000
3002
0203
0000
0000
0000
,
0000
0000
0000
0000
,
0000
0000
0000
0000
0000
0000
0000
0000
0310
1000
0001
0100
0001
0010
0100
1000
,
0001
0010
0001
0100
0010
1000
0001
0100
0010
1000
0100
1000
0001
0010
0001
1000
,
0100
0010
0001
1000
0100
1000
0001
1000
0010
0100
0001
0100
0010
1000
0001
1000
,
0100
0010
0100
1000
0001
0010
0001
1000
0100
1000
0001
1000
0010
0100
0001
0100
,
0010
1000
0001
1000
0100
0010
0200
1300
0001
0100
0001
1000
0010
0100
0001
1000
,
0100
1000
0001
0010
0001
0100
0010
1000
0001
0100
0001
1000
0100
0010
0001
1000
,
0100
1000
0010
0100
0001
1000
0001
1000
0100
0010
0001
1000
0100
1000
0001
0100
,
0010
1000
0001
1000
0100
1000
0010
0100
0001
1000
0010
0100
0010
0100
0010
0100
,
0020
0000
1030
0001
1000
0001
1000
0001
0010
0100
1000
0001
0010
0001
0100
0010
,
1000
0001
0100
0001
1000
0100
0010
0100
1000
0001
0010
0001
0100
0010
1000
0001
,
0100
0001
1000
0010
1000
0001
0100
0010
0100
0001
1000
0100
0010
0100
1000
0001
,
0010
0001
1000
0100
1000
0001
0100
0001
1000
0010
0100
0001
1000
0100
0010
0001
,
0100
0001
0010
0100
1000
0001
0020
0031
0100
0010
1000
0001
0100
0001
1000
0010
,
1000
0001
0100
0001
1000
0100
1000
0001
0010
0100
1000
0100
0010
0001
1000
0100
,
1000
0001
0100
0010
1000
0001
0100
0001
0010
0100
1000
0001
0010
0001
1000
0100
,
0010
0001
1000
0100
1000
0010
0100
0001
1000
0010
1000
0010
1000
0010
1000
0010
,
0200
0000
0301
1000
0001
1000
0001
1000
0100
0010
0001
1000
0100
1000
0001
0010
,
0001
0100
0010
1000
0002
0103
0001
1000
0010
1000
0001
0100
0010
0100
0001
1000
,
0100
0010
0200
1300
0002
0013
0004
1003
0100
0010
0001
1000
0100
1000
0001
0100
,
0001
0010
0100
1000
0002
0013
0001
1000
0100
0010
0100
1000
0001
0010
0001
1000
,
0100
1000
0002
0103
0020
1030
0004
0103
0001
1000
0100
1000
0010
0100
0001
1000
,
0100
0010
0001
1000
0200
0310
0001
1000
0100
1000
0001
0100
0010
1000
0001
0100
,
0001
0010
0200
1300
0002
1003
0400
0310
0100
1000
0001
1000
0010
0100
0001
0100
,
0010
1000
0001
0100
0002
1003
0100
0010
0004
0000
0000
0000
0000
0000
0000
0000
,
1003
0000
0010
0100
0000
0001
1000
0100
0020
0000
0032
1003
0000
0010
0100
0001
,
2000
0000
0000
0000
3010
0100
0001
1000
0100
0000
0010
0001
0100
0010
1000
0010
,
0100
0000
0101
0000
0101
0000
0002
0000
1003
0000
0100
0010
0001
1000
0001
0100
,
0010
0000
1000
0001
2000
3100
0010
0001
0100
0000
0010
1000
0010
0100
0001
1000
,
0001
0000
0101
0000
0101
0000
0100
0010
1000
0000
0001
1000
0100
0010
0001
1000
,
0010
0000
0100
0001
0200
0310
1000
0001
1000
0000
0100
0010
0001
1000
0010
1000
,
0100
0000
0110
0000
0011
0000
0001
0100
0010
0000
1000
0001
1000
0100
0010
0001
,
0100
0000
0010
1000
0020
0130
0001
1000
0M04
0000
0000
0000
0000
0000
0M00
0000
,
00M0
0000
M000
0000
00M0
0000
0000
0000
0000
0000
0M00
0000
00M0
0000
M000
00M0
,
0M00
0000
0M00
00M0
M000
0000
00M0
0000
0M00
0000
0000
0000
0000
0000
00M0
0M00
,
M000
00M0
0M00
0000
0000
M000
0M00
00M0
,
0M00
0000
0000
0000
0000
0000
0000
0000
0000
0000
0000
0000
0000
0000
0000
0000
0000
0000
0000
0000
0000
0000
0000
0000
M000
0000
0000
0000
0000
0000
0000
0000
0000
0000
0000
0000
00M0
0000
0000
0000
0000
0000
0000
0000
0000
0000
0000
0000
0M00
0000
0000
0000
0000
0000
0000
0000
0000
0000
0000
0000
0000
0000
0000
0000
0000
0000
0000
0000
0000
0000
0000
0000
00M0
0000
0000
0000
0000
0000
0000
0000
0000
0000
0000
0000
0000
0000
0000
0000
0000
0000
0000
0000
0000
0000
0000
0000
M000
0000
0000
0000
0000
0000
0000
0000
0000
0000
0000
0000
0000
0000
0000
0000
0000
0000
0000
0000
0000
0000
0000
0000
0000
0000
0000
0000
0000
0000
0000
0000
0000
0000
0000
0000
0000
0000
0000
0000
0000
0000
0000
0000
0000
0000
0000
0000
0000
0000
0000
0000
0000
0000
0000
0000
0000
0000
0000
0000
0000
0000
0000
0000
0000
0000
0000
0000
0000
0000
0000
0000
MMM0
MMM0
MMM0
MMM0
MMM0
MMM0
MMM0
MMM0
MMM0
MMM0
MMM0
MMM0
MMM0
MMM0
MMM0
MMM0
MMM0
MMM0
MMM0
MMM0
MMM0
MMM0
MMM0
MMM0
,
MMM0
MMM0
MMM0
MMM0
MMM0
MMM0
MMM0
MMM0
MMM0
MMM0
MMM0
MMM0
MMM0
MMM0
MMM0
MMM0
MMM0
MMM0
MMM0
MMM0
MMM0
MMM0
MMM0
MMM0
MMM0
MMM0
MMM0
MMM0
MMM0
MMM0
MMM0
MMM0
MMM0
MMM0
MMM0
MMM0
MMM0
MMM0
MMM0
MMM0
MMM0
MMM0
MMM0
MMM0
MMM0
MMM0
MMM0
MMM0
MMM0
MMM0
MMM0
MMM0
MMM0
MMM0
MMM0
MMM0
MMM0
MMM0
MMM0
MMM0
MMM0
MMM0
MMM0
MMM0
MMM0
MMM0
MMM0
MMM0
MMM0
MMM0
MMM0
MMM0
0MM0
0MM0
0MM0
0MM0
0MM0
0MM0
0MM0
0MM0
0MM0
0MM0
0MM0
0MM0
0MM0
0MM0
0MM0
0MM0
0MM0
0MM0
0MM0
0MM0
0MM0
0MM0
0MM0
0MM0
10M3
0000
0000
0000
0000
0000
0000
0000
0000
0000
0000
0000
0100
0000
0000
0000
0000
0000
0000
0000
0000
0000
0000
0000
1000
0000
0000
0000
0000
0000
0000
0000
0000
0000
0000
0000
0001
0000
0000
0000
0000
0000
0000
0000
0000
0000
0000
0000
0100
0000
0000
0000
0000
0000
0000
0000
0000
0000
0000
0000
0010
0000
0000
0000
0000
0000
0000
0000
0000
0000
0000
0000
1000
0000
0000
0000
0000
0000
0000
0000
0000
0000
0000
0000
0001
0000
0000
0000
0000
0000
0000
0000
0000
0000
0000
0000
,
0100
0001
0010
0100
1000
0001
0100
0010
2000
0000
0000
0000
3010
0000
0100
0001
,
2000
0000
0000
0000
3020
0000
0000
0000
0130
0001
0100
0010
1000
0001
1000
0001
,
0010
0100
1000
0001
0010
0001
1000
0001
0200
0000
0000
0000
0310
0000
1000
0100
,
2000
0000
0010
0000
3020
0000
0000
0000
0230
0000
0000
0000
0301
0000
1000
0100
,
0010
0000
0001
0000
0200
0000
0310
0000
1010
0000
1000
0000
0001
0000
0010
0100
,
2000
0000
3010
0000
0100
0000
0001
0000
2001
0000
0000
0000
3100
0000
0010
0001
,
0100
0000
0010
0000
1000
0000
0001
0000
0021
0000
0000
0000
0130
0000
1000
0001
,
2000
0000
0010
0000
3010
0000
0100
0000
0001
1000
0010
0100
0001
1000
0100
1000
,
0001
1000
0100
0010
0100
1000
0001
0010
0002
0000
0000
0000
0103
0000
0010
1000
,
0020
0000
0230
0000
0302
0000
1003
0000
0100
0010
0001
1000
0001
0010
0100
1000
,
0001
1000
0010
0100
0001
0100
0010
1000
0200
0000
0000
0000
0310
0000
0001
1000
,
0002
0000
0203
0000
0320
0000
0030
0000
2M1M
0000
0000
0000
3010
0000
0100
0001
,
1000
0000
0100
0000
0010
0000
0001
0000
0201
0000
0310
0000
1000
0000
0001
0010
,
0002
0000
0103
0000
0010
0000
1000
0000
10M2
0000
0000
0000
0103
0000
0010
1000
,
0100
0000
0010
0000
0001
0000
0100
0000
0120
0000
0000
0000
1030
0000
0010
0100
,
0002
0000
1003
0000
0100
0000
0010
0000
M011
0000
0002
0000
0203
0000
0310
1000
,
0010
0000
0100
0000
0210
0000
0310
0000
1010
0000
1000
0000
0001
0000
0010
0100
,
2000
0000
3010
0000
0100
0000
0001
0000
2001
0000
0000
0000
3100
0000
0010
0001
,
0100
0000
0010
0000
1000
0000
0001
0000
0021
0000
0000
0000
0130
0000
1000
0001
,
2000
0000
0010
0000
3010
0000
0100
0000
M102
0000
2003
0000
3020
0000
0130
0001
,
1000
0000
0100
0000
0020
0000
0032
0003
0201
0000
0000
0000
0310
0000
1000
0001
,
2000
0000
3200
0000
0320
0000
0001
0000
0032
0000
0203
0000
0310
0000
1000
0001
,
1000
0000
0010
0000
0100
0000
0010
0000
2010
0000
0000
0000
3001
0000
0010
0100
,
2000
0000
3020
0000
0230
0000
0301
0000
2MM1
0000
0000
0000
3010
0000
0100
0001
,
1000
0000
0100
0000
0010
0000
0001
0000
0201
0000
0310
0000
1000
0000
0001
0010
,
0002
0000
0103
0000
0010
0000
1000
0000
10M2
0000
0000
0000
0103
0000
0010
1000
,
0100
0000
0010
0000
0001
0000
0100
0000
0120
0000
0000
0000
1030
0000
0010
0100
,
0002
0000
1003
0000
0100
0000
0010
0000
M012
0000
0203
0000
0320
0000
1030
0001
,
1000
0000
0010
0000
0200
0000
0302
0003
2001
0000
0000
0000
3100
0000
0010
0001
,
0200
0000
0320
0000
2030
0000
3001
0000
0201
0000
0000
0000
0310
0000
1000
0001
,
1000
0100
1000
0010
0210
0000
0000
0000
,
0302
0000
0000
0003
1MM1
0000
0000
0000
,
0000
0000
0000
1000
0010
0000
0100
0001
,
0000
1000
0000
0001
0010
0000
0100
1000
,
0000
0010
0100
0001
1000
0000
0100
0010
,
0000
0001
0100
0010
1000
0000
0001
1000
,
0000
0100
0010
0001
1000
0000
0010
0100
,
0000
0001
1000
0001
1000
0000
0100
0010
,
0000
0000
0001
0000
0100
0000
0010
0000
1000
0000
0000
0000
0002
0003
2000
3000
,
0000
0000
0200
0300
0010
0000
0002
0003
1000
0000
0000
0000
0020
0030
2000
3000
,
0000
0000
0000
0000
0002
0000
0003
0000
0100
0000
0000
0000
0002
0000
0003
0000
2000
0000
3000
0000
0000
0000
0000
0000
0400
0300
0000
0000
0040
0030
0000
0000
,
0000
0000
0000
0000
0000
0000
0000
0000
0000
0000
0000
0000
0004
0000
0000
0003
0000
0000
0000
0000
0000
0000
0000
0000
2000
0000
0000
3000
0000
0000
0000
0000
0000
0000
0000
0000
0020
0000
0000
0030
0000
0000
0000
0000
0000
0000
0000
0000
0400
0000
0000
0300
0000
0000
0000
0000
0000
0000
0000
0000
0000
0000
0000
0000
0000
0000
0000
0000
0000
0000
0000
0000
0040
0000
0030
0000
0000
0000
0000
0000
0000
0000
0000
0000
4000
0000
3000
0000
0000
0000
0000
0000
0000
0000
0000
0000
,
0000
0000
0000
0000
0000
0000
0004
0003
0000
0000
0000
0000
0020
0030
0000
0000
0000
0000
0200
0300
0000
0000
0000
0000
4000
3000
0000
0000
0000
0000
0000
0000
0000
0000
0000
0000
0040
0030
0000
0000
0000
0000
0400
0300
0000
0000
0000
0000
,
0000
0000
0000
0000
0000
0000
0000
0000
0000
0000
0000
0000
0000
0000
0000
0000
0000
0000
0000
0000
0000
0000
0000
0000
0004
0000
0000
0000
0003
0000
0000
0000
0000
0000
0000
0000
0000
0000
0000
0000
0000
0000
0000
0000
0000
0000
0000
0000
2000
0000
0000
0000
3000
0000
0000
0000
0000
0000
0000
0000
0000
0000
0000
0000
0000
0000
0000
0000
0000
0000
0000
0000
0002
0000
0000
0000
0003
0000
0000
0000
0000
0000
0000
0000
0000
0000
0000
0000
0000
0000
0000
0000
0000
0000
0000
0000
0040
0000
0000
0000
0030
0000
0000
0000
0000
0000
0000
0000
0000
0000
0000
0000
0000
0000
0000
0000
0000
0000
0000
0000
0000
0000
0000
0000
0000
0000
0000
0000
0000
0000
0000
0000
0000
0000
0000
0000
0000
0000
0000
0000
0000
0000
0000
0000
0400
0000
0000
0300
0000
0000
0000
0000
0000
0000
0000
0000
0000
0000
0000
0000
0000
0000
0000
0000
0000
0000
0000
0000
4000
0000
0000
3000
0000
0000
0000
0000
0000
0000
0000
0000
0000
0000
0000
0000
0000
0000
0000
0000
0000
0000
0000
0000
,
0000
0000
0000
0000
0000
0000
0000
0000
0000
0000
0000
0000
0000
0000
0000
0000
0000
0000
0000
0000
0000
0000
0000
0000
0400
0000
0000
0300
0000
0000
0000
0000
0000
0000
0000
0000
0000
0000
0000
0000
0000
0000
0000
0000
0000
0000
0000
0000
0020
0000
0000
0030
0000
0000
0000
0000
0000
0000
0000
0000
0000
0000
0000
0000
0000
0000
0000
0000
0000
0000
0000
0000
0002
0000
0000
0003
0000
0000
0000
0000
0000
0000
0000
0000
0000
0000
0000
0000
0000
0000
0000
0000
0000
0000
0000
0000
4000
0000
3000
0000
0000
0000
0000
0000
0000
0000
0000
0000
0000
0000
0000
0000
0000
0000
0000
0000
0000
0000
0000
0000
0000
0000
0000
0000
0000
0000
0000
0000
0000
0000
0000
0000
0000
0000
0000
0000
0000
0000
0000
0000
0000
0000
0000
0000
0020
0000
0000
0000
0000
0000
0000
0000
0000
0000
0000
0000
0000
0000
0000
0000
0000
0000
0000
0000
0000
0000
0000
0000
0230
0000
0000
0000
0000
0000
0000
0000
0000
0000
0000
0000
0000
0000
0000
0000
0000
0000
0000
0000
0000
0000
0000
0000
,
0300
0000
0002
0003
2000
0000
0000
0000
0000
0000
0000
0000
0000
0000
0000
0000
,
0000
0000
3000
0000
,
0000
0000
0000
0000
0000
0000
0000
0000
M0M1
0100
0010
1000
0001
1000
0100
0M10
,
0001
1000
0100
1000
0010
0100
0001
100M
0100
1000
0001
0100
0001
0010
0100
1M00
,
0001
0010
0001
0100
0010
1000
0001
0100
0010
1000
0001
0100
0001
0010
0100
1000
,
0001
1000
0010
0100
0001
1000
0100
1000
0001
1000
0100
0010
0100
1000
0001
0010
,
0001
0100
0010
1000
0001
0100
0010
0100
0001
1000
0010
1000
0001
0100
0001
0010
,
0100
1000
0001
0010
0001
1000
0100
0010
0001
1000
0100
1000
0001
0100
0010
1000
,
0001
0100
0001
0010
0200
0000
0000
0000
2300
0000
0000
0000
3001
0100
0010
1000
,
0001
0100
0001
0010
0100
1000
0001
1000
0020
0000
0000
0000
0000
0000
0000
0000
,
0130
0001
2000
0000
3100
0010
0000
0001
1000
0010
0100
0001
0100
0010
1000
0001
,
0100
0001
1000
0100
0010
0001
1000
0010
1000
0100
1000
0010
0100
0001
1000
0010
,
0100
0001
1000
0100
0010
0001
1000
0010
0100
0010
1000
0001
0100
0001
1000
0001
,
0010
0100
1000
0001
1000
0010
0100
0001
0100
0001
1000
0010
1000
0001
1000
0100
,
0010
0100
1000
0010
0100
0001
1000
0010
1000
0100
0010
0001
1000
0010
1000
0001
,
0100
0001
1000
0100
1000
0010
0100
0001
0100
0001
1000
0001
0010
0100
1000
0010
,
1000
0001
1000
0010
0100
0001
0100
0010
1000
0100
1000
0001
0100
0001
1000
0100
,
0010
0100
1000
0001
0010
0001
1000
0010
0400
0000
0000
0000
0000
0000
0000
0000
,
0000
0000
0000
0000
0310
1000
0001
1000
0100
0010
0001
1000
0010
0100
0001
1000
,
0100
0010
0100
0010
0001
1000
0010
0100
0001
1000
0001
0010
0100
1000
0001
0100
,
0010
1000
0010
1000
0001
0010
0100
1000
0001
1000
0100
1000
0001
0100
0001
0010
,
0100
1000
0100
1000
0010
0100
0001
1000
0100
1000
0001
0010
0001
1000
0100
0010
,
0001
0100
0001
0100
0010
1000
0001
0010
0001
1000
0100
0010
0100
1000
0001
0100
,
0010
1000
0010
1000
0001
0010
0100
1000
0001
0010
0001
0100
0010
1000
0001
0100
,
0010
0100
0001
1000
0100
0010
0100
1000
0001
0010
0001
1000
0100
1000
0001
0010
,
0001
1000
0100
0010
0001
1000
0001
0100
0020
0000
0230
0000
0302
0000
0000
0000
,
0000
0000
0000
0000
4003
0000
0000
0000
3100
0010
0001
1000
0100
1000
0001
0100
,
0010
1000
0001
0100
0001
1000
0100
0010
0100
1000
0001
0010
0001
1000
0100
1000
,
0001
1000
0010
0100
0001
1000
0100
0010
0100
1000
0001
1000
0100
0010
0001
1000
,
0010
0100
0001
1000
0100
1000
0001
0100
0010
1000
0010
0100
0001
1000
0100
1000
,
0001
0010
0001
1000
0100
0010
0001
1000
0100
1000
0001
0100
0010
1000
0001
0100
,
0001
0010
0100
1000
0001
0010
0001
1000
0100
0010
0001
1000
0100
1000
0001
0100
,
0001
0010
0100
1000
0001
0010
0001
1000
0100
0010
0001
1000
0001
0100
0010
1000
,
0001
0010
0001
0100
0010
1000
0001
0100
0010
0100
0001
1000
0100
1000
0001
0010
,
0100
1000
0001
1000
0100
0010
0001
1000
0100
1000
0001
0100
0010
1000
0001
0100
,
0001
0010
0100
1000
0001
0010
0001
1000
0100
0010
0001
1000
0100
1000
0001
0100
,
0001
0010
0100
1000
0001
0010
0001
1000
0100
0010
0001
1000
0100
1000
0010
0100
,
0001
1000
0001
0010
0100
1000
0001
0010
0001
1000
0100
0010
0001
1000
0100
1000
,
0001
0100
0001
0010
0100
1000
0001
1000
0010
0100
0001
1000
0010
1000
0001
0100
,
0001
1000
0001
0010
0100
1000
0001
0010
0001
1000
0100
0010
0001
1000
0100
1000
,
0020
0000
0200
0030
0301
1000
0001
0010
0100
1000
0001
1000
0100
0010
0100
1000
,
0001
0010
0001
1000
0100
1000
0001
0100
0020
0000
0000
0000
0230
0000
0000
0002
,
0300
0000
2000
0003
0000
0200
3000
0000
0310
0001
1000
0001
0200
0010
0000
0000
,
0310
1000
0001
1000
0200
0010
0000
0000
0310
0001
1000
0010
0200
0001
0000
0000
,
0301
1000
0010
1000
0200
0010
0000
0000
0310
0001
1000
0100
2000
0010
0000
0000
,
3010
0100
0001
0010
0002
1000
0000
0000
1003
0100
1000
0010
0200
0010
0000
0000
,
0310
1000
0001
1000
0100
0010
0001
1000
0010
0100
0001
1000
0002
0000
0203
0000
,
0310
1000
0001
1000
0200
0000
0320
0000
0031
0010
0001
1000
0020
0000
0230
0000
,
0301
1000
0100
1000
0020
0000
0230
0000
0301
0010
0001
1000
0200
0000
0320
0000
,
0031
0010
0100
1000
0002
0000
0203
0000
0310
1000
0001
1000
0200
0000
0320
0000
,
0031
1000
0100
1000
0010
0100
0001
1000
0010
1000
0001
0010
0100
1000
0010
0000
,
0100
0001
1000
0100
1000
0010
0100
0000
0001
0010
0001
1000
0100
0010
0001
0000
,
1000
0100
1000
0010
0100
0001
1000
0000
0100
0010
0001
0010
0100
1000
0010
0000
,
0100
0001
0100
0010
1000
0001
0010
0000
0100
1000
0001
1000
0010
0100
0001
0000
,
1000
0100
1000
0010
0100
0001
1000
0001
0010
0100
1000
0001
0100
0000
MMMM
0000
,
0010
1000
0001
1000
0100
0000
MMMM
0000
0010
0001
1000
0001
0100
0000
M0MM
0000
,
0100
0010
1000
0001
1000
0000
0MMM
0000
0010
0100
0001
1000
0100
0000
MMM0
0000
,
0010
0001
1000
0001
0100
0000
MMMM
0000
0020
0000
0000
0000
0000
0000
0000
0000
,
0000
0000
0000
0000
0030
0000
0000
0000
0100
0000
0001
1000
0000
0010
0100
0010
,
2000
0000
3010
0100
0000
0001
1000
0001
2000
0000
3100
0010
0000
0001
1000
0010
,
0200
0000
0301
1000
0000
0100
0010
0001
2000
0000
3001
0010
0000
0100
1000
0010
,
0200
0000
0301
1000
0000
0100
0010
0001
0020
0000
0130
1000
0000
0010
0100
0001
,
0200
0000
0310
1000
0000
0001
1000
0100
2000
0000
3100
0010
0000
0001
1000
0100
,
0020
0000
0031
1000
0000
0010
0100
0001
2000
0000
3100
0010
0000
0001
1000
0010
,
2000
0000
3010
0100
0000
0001
1000
0001
0020
0000
0130
1000
0000
0010
0100
0001
,
2000
0000
3100
0010
0000
0001
0100
0010
2000
0000
3001
1000
0000
0010
0100
0001
,
0020
0000
0130
1000
0000
0100
0010
0001
2000
0000
3001
0010
0000
0100
1000
0010
,
0200
0000
0301
1000
0000
0100
0010
0001
2000
0000
3100
0010
0000
0001
0100
0010
,
2000
0000
3010
0100
0000
0001
1000
0010
2000
0000
3001
0010
0000
0100
1000
0010
,
0200
0000
0301
1000
0000
0100
0010
0001
0020
0000
0130
1000
0000
0010
1000
0001
,
0020
0000
0030
0100
0000
1000
0010
0100
0020
0000
0130
0001
0000
1000
0010
0100
,
0020
0000
0130
0001
0000
1000
0100
0010
0002
0000
0103
0010
0000
1000
0001
1000
,
0200
0000
0310
0001
0000
1000
0010
0100
0002
0000
1003
0010
0000
0100
0001
1000
,
0200
0000
0310
0001
0000
1000
0010
0100
0002
0000
0M00
00M0
0003
M000
0000
00M0
,
0M00
0000
000M
0M00
0000
M000
0000
00M0
0000
0000
0000
0000
0000
0000
0000
0000
,
0000
0000
0000
0000
,
0000
0000
0000
0000
,
0000
0000
0000
0000
,
0000
0000
000M
0000
;
