#TITLE:Mario Bros Vs Bowletta;
#SUBTITLE:Final Battle 1;
#ARTIST:Mario and Luigi Superstar Saga;
#TITLETRANSLIT:;
#SUBTITLETRANSLIT:;
#ARTISTTRANSLIT:;
#CREDIT:;
#BANNER:Mario Bros Vs Bowletta Banner.PNG;
#BACKGROUND:Mario Bros Vs Bowletta BG.PNG;
#LYRICSPATH:;
#CDTITLE:CDTitle.PNG;
#MUSIC:Mario Bros Vs Bowletta.ogg;
#OFFSET:0.800;
#SAMPLESTART:98.800;
#SAMPLELENGTH:19.900;
#SELECTABLE:YES;
#BPMS:0.000=244.601,180.000=122.300,212.000=244.601,372.000=122.300,404.000=244.600;
#STOPS:;
#BGCHANGES:;
// cache tags:
#FIRSTBEAT:4.000;
#LASTBEAT:485.000;
#SONGFILENAME:Songs/toune/Mario Bros Vs Bowletta/Mario Bros Vs Bowletta.sm;
#HASMUSIC:1;
#HASBANNER:1;
#MUSICLENGTH:135.915;
// end cache tags

//---------------dance-single - Novice----------------
#NOTES:
     dance-single:
     Novice:
     Beginner:
     1:
     0.117,0.219,0.059,0.118,0.000,87.000,8.000,16.000,0.000,0.000:
0000
0000
0000
0000
,
0000
0000
0000
0000
,
0000
0000
0000
0000
,
0010
0000
0000
0000
,
0000
0000
0000
0000
,
0010
0000
0000
0000
,
1000
0000
0000
0000
,
0010
0000
0000
0000
,
0001
0000
0000
0000
,
0100
0000
0000
0000
,
1000
0000
0000
0000
,
0100
0000
0000
0000
,
0001
0000
0000
0000
,
0100
0000
0000
0000
,
1000
0000
0000
0000
,
0100
0000
0000
0000
,
0001
0000
0000
0000
,
2000
0000
0000
3000
,
0002
0000
0000
0003
,
0020
0000
0000
0030
,
0200
0000
0000
0300
,
0010
0000
0000
0000
,
0000
0000
0000
0000
,
0010
0000
0000
0000
,
0000
0000
0000
0000
,
0100
0000
0000
0000
,
0000
0000
0000
0000
,
0100
0000
0000
0000
,
0000
0000
0000
0000
,
1000
0000
0000
0000
,
0000
0000
0000
0000
,
1000
0000
0000
0000
,
0000
0000
0000
0000
,
0001
0000
0000
0000
,
0000
0000
0000
0000
,
0001
0000
0000
0000
,
0000
0000
0000
0000
,
1001
0000
0000
0000
,
0000
0000
0000
0000
,
0110
0000
0000
0000
,
0000
0000
0000
0000
,
1001
0000
0000
0000
,
0000
0000
0000
0000
,
0110
0000
0000
0000
,
0000
0000
0000
0000
,
1000
0000
0100
0000
,
2000
0000
0000
0000
,
0000
0000
3000
0000
,
0000
0000
0000
0000
,
0001
0000
0100
0000
,
0002
0000
0000
0000
,
0003
0000
0000
0000
,
0000
0000
0000
0000
,
0010
0000
0000
0000
,
1000
0000
0000
0000
,
0010
0000
0000
0000
,
0001
0000
0000
0000
,
0100
0000
0000
0000
,
1000
0000
0000
0000
,
0100
0000
0000
0000
,
0001
0000
0000
0000
,
0100
0000
0000
0000
,
1000
0000
0000
0000
,
0100
0000
0000
0000
,
0001
0000
0000
0000
,
2000
0000
0000
3000
,
0002
0000
0000
0003
,
0020
0000
0000
0030
,
0200
0000
0000
0300
,
0010
0000
0000
0000
,
0000
0000
0000
0000
,
0010
0000
0000
0000
,
0000
0000
0000
0000
,
0100
0000
0000
0000
,
0000
0000
0000
0000
,
0100
0000
0000
0000
,
0000
0000
0000
0000
,
1000
0000
0000
0000
,
0000
0000
0000
0000
,
1000
0000
0000
0000
,
0000
0000
0000
0000
,
0001
0000
0000
0000
,
0000
0000
0000
0000
,
0001
0000
0000
0000
,
0000
0000
0000
0000
,
1001
0000
0000
0000
,
0000
0000
0000
0000
,
0110
0000
0000
0000
,
0000
0000
0000
0000
,
1001
0000
0000
0000
,
0000
0000
0000
0000
,
0110
0000
0000
0000
,
0000
0000
0000
0000
,
1000
0000
0100
0000
,
2000
0000
0000
0000
,
0000
0000
3000
0000
,
0000
0000
0000
0000
,
0001
0000
0100
0000
,
0002
0000
0000
0000
,
0003
0000
0000
0000
,
0000
0000
0000
0000
,
0010
0000
0000
0000
,
1000
0000
0000
0000
,
0010
0000
0000
0000
,
0001
0000
0000
0000
,
0100
0000
0000
0000
,
1000
0000
0000
0000
,
0100
0000
0000
0000
,
0001
0000
0000
0000
,
0100
0000
0000
0000
,
1000
0000
0000
0000
,
0100
0000
0000
0000
,
0001
0000
0000
0000
,
2000
0000
0000
3000
,
0002
0000
0000
0003
,
0020
0000
0000
0030
,
0200
0000
0000
0300
,
0010
0000
0000
0000
,
0000
0000
0000
0000
,
0010
0000
0000
0000
;

//---------------dance-single - Easy----------------
#NOTES:
     dance-single:
     Easy:
     Easy:
     6:
     0.451,0.801,0.456,0.559,0.000,291.000,62.000,76.000,104.000,0.000:
0000
0000
0000
0000
,
0001
0000
0001
0000
,
0001
0000
1000
0100
,
1000
0000
1000
0000
,
1000
0000
0001
0100
,
0010
0000
0020
0030
,
2000
3000
0200
0300
,
0002
0003
0200
0300
,
0020
0000
0030
0000
,
1001
0000
MMMM
0000
,
0110
0000
MMMM
0000
,
1001
0000
MMMM
0000
,
0110
0000
MMMM
0000
,
1001
0000
0200
0300
,
0002
0003
0020
0030
,
2000
3000
0020
0030
,
0200
0000
0300
0000
,
1001
0000
MMMM
0000
,
0110
0000
MMMM
0000
,
1001
0000
MMMM
0000
,
0110
0000
MMMM
0000
,
1001
0000
0001
0000
,
0001
0000
1000
0100
,
1000
0000
1000
0000
,
1000
0000
0001
0100
,
0010
0000
0010
0000
,
0010
0000
0010
1000
,
0100
0000
0100
0000
,
0100
0000
0100
0001
,
1000
0000
1000
0000
,
1000
0000
0001
0010
,
0001
0000
0001
0000
,
0001
0000
1000
0010
,
0100
0000
0100
0000
,
0100
0000
0100
0001
,
0010
0000
0010
0000
,
0010
0000
0010
1000
,
0001
0000
0000
0001
2000
0000
3000
0000
,
2002
0000
3003
0MM0
0001
0000
1000
0000
,
0001
0000
0000
1000
0002
0000
0003
0000
,
0001
1000
0001
1000
,
0001
0000
0000
1000
0002
0000
0003
0000
,
2002
0000
3003
0MM0
1000
0000
0001
0000
,
1000
0000
0000
0001
2000
0000
3000
0000
,
1000
0001
1000
0001
,
1000
0000
0200
0300
0002
0003
0020
0030
,
2000
3000
0200
0300
0002
0000
0000
0003
,
1001
0000
0110
0000
1001
0000
0110
1001
,
0110
0000
1001
0000
0100
0010
0100
0010
,
0100
0000
0200
0300
2000
3000
0020
0030
,
0002
0003
0200
0300
2000
0000
0000
3000
,
1001
0000
0110
0000
1001
0000
0110
1001
,
0110
0000
1001
0000
1000
0001
1000
0001
,
1000
0000
0020
0030
,
2000
3000
0200
0300
,
0002
0003
0200
0300
,
0020
0000
0030
0000
,
1001
0000
MMMM
0000
,
0110
0000
MMMM
0000
,
1001
0000
MMMM
0000
,
0110
0000
MMMM
0000
,
1001
0000
0200
0300
,
0002
0003
0020
0030
,
2000
3000
0020
0030
,
0200
0000
0300
0000
,
1001
0000
MMMM
0000
,
0110
0000
MMMM
0000
,
1001
0000
MMMM
0000
,
0110
0000
MMMM
0000
,
1001
0000
0001
0000
,
0001
0000
1000
0100
,
1000
0000
1000
0000
,
1000
0000
0001
0100
,
0010
0000
0010
0000
,
0010
0000
0010
1000
,
0100
0000
0100
0000
,
0100
0000
0100
0001
,
1000
0000
1000
0000
,
1000
0000
0001
0010
,
0001
0000
0001
0000
,
0001
0000
1000
0010
,
0100
0000
0100
0000
,
0100
0000
0100
0001
,
0010
0000
0010
0000
,
0010
0000
0010
1000
,
0001
0000
0000
0001
2000
0000
3000
0000
,
2002
0000
3003
0MM0
0001
0000
1000
0000
,
0001
0000
0000
1000
0002
0000
0003
0000
,
0001
1000
0001
1000
,
0001
0000
0000
1000
0002
0000
0003
0000
,
2002
0000
3003
0MM0
1000
0000
0001
0000
,
1000
0000
0000
0001
2000
0000
3000
0000
,
1000
0001
1000
0001
,
1000
0000
0200
0300
0002
0003
0020
0030
,
2000
3000
0200
0300
0002
0000
0000
0003
,
1001
0000
0110
0000
1001
0000
0110
1001
,
0110
0000
1001
0000
0100
0010
0100
0010
,
0100
0000
0200
0300
2000
3000
0020
0030
,
0002
0003
0200
0300
2000
0000
0000
3000
,
1001
0000
0110
0000
1001
0000
0110
1001
,
0110
0000
1001
0000
1000
0001
1000
0001
,
1000
0000
0020
0030
,
2000
3000
0200
0300
,
0002
0003
0200
0300
,
0020
0000
0030
0000
,
1001
0000
MMMM
0000
,
0110
0000
MMMM
0000
,
1001
0000
MMMM
0000
,
0110
0000
MMMM
0000
,
1001
0000
0200
0300
,
0002
0003
0020
0030
,
2000
3000
0020
0030
,
0200
0000
0300
0000
,
1001
0000
MMMM
0000
,
0110
0000
MMMM
0000
,
1001
0000
MMMM
0000
,
0110
0000
MMMM
0000
,
1001
0000
0001
0000
,
0001
0000
1000
0100
,
1000
0000
1000
0000
,
1000
0000
0001
0100
,
0010
0000
0000
0000
;

//---------------dance-single - Medium----------------
#NOTES:
     dance-single:
     Medium:
     Medium:
     9:
     0.600,0.801,1.000,0.441,0.037,375.000,136.000,60.000,74.000,0.000:
0000
0000
0000
0000
,
1000
0000
0001
0000
,
0100
0000
1000
0100
,
0010
0000
0001
0000
,
0010
0000
0001
0010
,
0001
0000
0000
0000
2000
0000
3000
M000
,
0002
0000
0003
000M
2000
0000
3000
M000
,
0002
0000
0003
000M
2000
0000
3000
M000
,
0002
0000
0000
0000
0000
0000
0003
MMMM
,
1001
0000
0110
0000
,
1001
0000
0110
1001
,
0110
0000
1001
0000
,
0110
0000
1001
0110
,
1001
0000
0000
0000
0200
0000
0300
0M00
,
0020
0000
0030
00M0
0200
0000
0300
0M00
,
0020
0000
0030
00M0
0200
0000
0300
0M00
,
0020
0000
0000
0000
0000
0000
0030
MMMM
,
1100
0000
0011
0000
,
1100
0000
1100
0110
,
0011
0000
0101
0000
,
1010
0000
0101
1001
,
1010
0000
0000
0001
1000
0000
0000
1000
,
0001
0000
0010
0100
,
1001
0000
0000
0100
1000
0000
0000
0010
,
0001
0000
0001
1000
,
0110
0000
0000
1000
0001
0000
0000
0001
,
1000
0000
0100
0010
,
1001
0000
0000
0010
0001
0000
0000
0100
,
1000
0000
1000
0001
,
0011
0000
0000
0100
0010
0000
0000
0010
,
0100
0000
0001
1000
,
0110
0000
0000
1000
0010
0000
0000
0001
,
0100
0000
0100
0010
,
1100
0000
0000
0010
0100
0000
0000
0100
,
0010
0000
1000
0001
,
0110
0000
0000
0001
0100
0000
0000
1000
,
0010
0000
0010
0100
,
1001
0000
0000
0001
1000
0000
0000
0000
,
1001
0000
0110
1001
,
0110
0000
0000
1000
0001
0000
0000
0000
,
0110
0000
0000
0000
1000
0000
0000
0000
0110
0000
0000
0000
1000
0100
1000
0000
,
0110
0000
0000
0100
0010
0000
0000
0000
,
0110
0000
1001
0110
,
1001
0000
0000
0010
0100
0000
0000
0000
,
1001
0000
0000
0000
0010
0000
0000
0000
1001
0000
0000
0000
0010
1000
0010
0000
,
1001
0000
2000
0000
3200
M000
2300
0M00
,
3200
M000
2300
0M00
3200
M000
0000
0300
,
1001
0000
0110
0000
1001
0000
0110
1001
,
0110
0000
0000
0000
0000
0000
0000
0000
0000
1000
0000
0000
0100
0000
0000
0000
0000
0000
0000
0000
0000
0000
0000
0000
0100
0000
0000
0000
0000
0000
0010
0000
0000
0000
0000
0000
0100
0000
0000
0000
0000
0000
0010
0000
0000
0001
1000
0000
,
0100
0000
0002
0000
0023
000M
0032
00M0
,
0023
000M
0032
00M0
0023
000M
0000
0030
,
1001
0000
0110
0000
1001
0000
0110
1001
,
0110
0000
0010
0000
0010
0000
0010
0100
,
0010
0000
0000
0000
2000
0000
3000
M000
,
0002
0000
0003
000M
2000
0000
3000
M000
,
0002
0000
0003
000M
2000
0000
3000
M000
,
0002
0000
0000
0000
0000
0000
0003
MMMM
,
1001
0000
0110
0000
,
1001
0000
0110
1001
,
0110
0000
1001
0000
,
0110
0000
1001
0110
,
1001
0000
0000
0000
0200
0000
0300
0M00
,
0020
0000
0030
00M0
0200
0000
0300
0M00
,
0020
0000
0030
00M0
0200
0000
0300
0M00
,
0020
0000
0000
0000
0000
0000
0030
MMMM
,
1100
0000
0011
0000
,
1100
0000
1100
0110
,
0011
0000
0101
0000
,
1010
0000
0101
1001
,
1010
0000
0000
0001
1000
0000
0000
1000
,
0001
0000
0010
0100
,
1001
0000
0000
0100
1000
0000
0000
0010
,
0001
0000
0001
1000
,
0110
0000
0000
1000
0001
0000
0000
0001
,
1000
0000
0100
0010
,
1001
0000
0000
0010
0001
0000
0000
0100
,
1000
0000
1000
0001
,
0011
0000
0000
0100
0010
0000
0000
0010
,
0100
0000
0001
1000
,
0110
0000
0000
1000
0010
0000
0000
0001
,
0100
0000
0100
0010
,
1100
0000
0000
0010
0100
0000
0000
0100
,
0010
0000
1000
0001
,
0110
0000
0000
0001
0100
0000
0000
1000
,
0010
0000
0010
0100
,
1001
0000
0000
0001
1000
0000
0000
0000
,
1001
0000
0110
1001
,
0110
0000
0000
1000
0001
0000
0000
0000
,
0110
0000
0000
0000
1000
0000
0000
0000
0110
0000
0000
0000
1000
0100
1000
0000
,
0110
0000
0000
0100
0010
0000
0000
0000
,
0110
0000
1001
0110
,
1001
0000
0000
0010
0100
0000
0000
0000
,
1001
0000
0000
0000
0010
0000
0000
0000
1001
0000
0000
0000
0010
1000
0010
0000
,
1001
0000
2000
0000
3200
M000
2300
0M00
,
3200
M000
2300
0M00
3200
M000
0000
0300
,
1001
0000
0110
0000
1001
0000
0110
1001
,
0110
0000
0000
0000
0000
0000
0000
0000
0000
1000
0000
0000
0100
0000
0000
0000
0000
0000
0000
0000
0000
0000
0000
0000
0100
0000
0000
0000
0000
0000
0010
0000
0000
0000
0000
0000
0100
0000
0000
0000
0000
0000
0010
0000
0000
0001
1000
0000
,
0100
0000
0002
0000
0023
000M
0032
00M0
,
0023
000M
0032
00M0
0023
000M
0000
0030
,
1001
0000
0110
0000
1001
0000
0110
1001
,
0110
0000
0010
0000
0010
0000
0010
0100
,
0010
0000
0000
0000
2000
0000
3000
M000
,
0002
0000
0003
000M
2000
0000
3000
M000
,
0002
0000
0003
000M
2000
0000
3000
M000
,
0002
0000
0000
0000
0000
0000
0003
MMMM
,
1001
0000
0110
0000
,
1001
0000
0110
1001
,
0110
0000
1001
0000
,
0110
0000
1001
0110
,
1001
0000
0000
0000
0200
0000
0300
0M00
,
0020
0000
0030
00M0
0200
0000
0300
0M00
,
0020
0000
0030
00M0
0200
0000
0300
0M00
,
0020
0000
0000
0000
0000
0000
0030
MMMM
,
1100
0000
0011
0000
,
1100
0000
1100
0110
,
0011
0000
0101
0000
,
1010
0000
0101
1001
,
1010
0000
0000
0001
1000
0000
0000
1000
,
0001
0000
0010
0100
,
1001
0000
0000
0100
1000
0000
0000
0010
,
0001
0000
0001
1000
,
0110
0000
0000
0000
;

//---------------dance-single - Hard----------------
#NOTES:
     dance-single:
     Hard:
     Hard:
     10:
     0.804,0.890,0.265,0.589,0.110,649.000,36.000,80.000,8.000,50.000:
0000
0000
0000
0000
,
0220
0330
2002
3003
,
0220
0330
1001
0010
,
1001
0000
2200
3300
,
0022
0033
1010
0101
,
1010
0000
2200
0000
,
0020
0030
0002
0003
,
0020
0030
0002
0003
,
0020
0000
0000
3330
,
1000
0001
0100
0000
0001
1000
0100
0000
,
1000
0001
0100
0000
1000
0100
0010
0100
,
0001
1000
0100
0000
1000
0001
0100
0000
,
1000
0001
0100
0000
0001
1000
0100
0010
,
1000
0100
1000
0000
0022
0000
0000
0000
,
0200
0300
2000
3000
,
0200
0300
2000
3000
,
0200
0000
0000
0333
,
0001
1000
0010
0000
1000
0001
0010
0000
,
0001
1000
0010
0000
0001
0010
0100
0010
,
1000
0001
0010
0000
0001
1000
0010
0000
,
0001
1000
0010
0000
1000
0001
0010
0100
,
0001
0000
1000
0100
1000
0000
0001
0010
,
0001
0000
1000
0010
0100
1000
0100
0010
,
0001
0000
0001
0100
0001
0000
1000
0010
,
1000
0000
0001
0010
0100
1000
0100
0010
,
0001
0000
1000
0001
0100
0000
0001
1000
,
0100
0000
0010
0100
1000
0010
0100
0001
,
0100
0000
0001
1000
0100
0000
1000
0001
,
0100
0000
0100
0010
1000
0100
0010
0001
,
1000
0000
1000
0100
1000
0000
0001
0010
,
0001
0000
1000
0010
0100
1000
0100
0010
,
0001
0000
0001
0100
0001
0000
1000
0010
,
1000
0000
0001
0010
0100
1000
0100
0010
,
0001
0000
1000
0001
0100
0000
0001
1000
,
0100
0000
0010
0100
1000
0010
0100
0001
,
0100
0000
0001
1000
0100
0000
1000
0001
,
0100
0000
0100
0010
1000
0100
0010
0001
,
1000
0000
1000
0001
1000
0000
0000
0000
,
1001
0000
0010
0100
1000
0100
0010
0100
,
0001
0000
0010
0100
0010
0000
0000
0000
,
1001
0000
0000
0000
0100
0000
0010
0000
0100
0000
0010
0000
0100
0000
1000
0010
,
1000
0000
0001
1000
0001
0000
0000
0000
,
1001
0000
0100
0010
0001
0010
0100
0010
,
1000
0000
0100
0010
0100
0000
0000
0000
,
1001
0000
0000
0000
0010
0000
0100
0000
0010
0000
0100
0000
0010
0000
0001
0100
,
0010
2020
0200
0302
,
0203
0302
0203
3330
,
1000
0000
0000
0001
1000
0000
MMMM
0000
0110
0000
0000
0000
1100
0000
0110
0000
,
0011
0000
0000
1000
0001
0000
0000
0000
0001
0000
0100
0000
1000
0000
0010
0001
,
1000
0220
2000
3002
,
2003
3002
2003
3330
,
1000
0100
1000
0000
0001
0100
0001
0000
1000
0100
1000
0000
0001
1000
0100
0010
,
0001
0010
0001
0000
1000
0010
1000
0000
1000
0010
1000
0000
0001
0100
0010
0001
,
1000
0000
2200
0000
,
0020
0030
0002
0003
,
0020
0030
0002
0003
,
0020
0000
0000
3330
,
1000
0001
0100
0000
0001
1000
0100
0000
,
1000
0001
0100
0000
1000
0100
0010
0100
,
0001
1000
0100
0000
1000
0001
0100
0000
,
1000
0001
0100
0000
0001
1000
0100
0010
,
1000
0100
1000
0000
0022
0000
0000
0000
,
0200
0300
2000
3000
,
0200
0300
2000
3000
,
0200
0000
0000
0333
,
0001
1000
0010
0000
1000
0001
0010
0000
,
0001
1000
0010
0000
0001
0010
0100
0010
,
1000
0001
0010
0000
0001
1000
0010
0000
,
0001
1000
0010
0000
1000
0001
0010
0100
,
0001
0000
1000
0100
1000
0000
0001
0010
,
0001
0000
1000
0010
0100
1000
0100
0010
,
0001
0000
0001
0100
0001
0000
1000
0010
,
1000
0000
0001
0010
0100
1000
0100
0010
,
0001
0000
1000
0001
0100
0000
0001
1000
,
0100
0000
0010
0100
1000
0010
0100
0001
,
0100
0000
0001
1000
0100
0000
1000
0001
,
0100
0000
0100
0010
1000
0100
0010
0001
,
1000
0000
1000
0100
1000
0000
0001
0010
,
0001
0000
1000
0010
0100
1000
0100
0010
,
0001
0000
0001
0100
0001
0000
1000
0010
,
1000
0000
0001
0010
0100
1000
0100
0010
,
0001
0000
1000
0001
0100
0000
0001
1000
,
0100
0000
0010
0100
1000
0010
0100
0001
,
0100
0000
0001
1000
0100
0000
1000
0001
,
0100
0000
0100
0010
1000
0100
0010
0001
,
1000
0000
1000
0001
1000
0000
0000
0000
,
1001
0000
0010
0100
1000
0100
0010
0100
,
0001
0000
0010
0100
0010
0000
0000
0000
,
1001
0000
0000
0000
0100
0000
0010
0000
0100
0000
0010
0000
0100
0000
1000
0010
,
1000
0000
0001
1000
0001
0000
0000
0000
,
1001
0000
0100
0010
0001
0010
0100
0010
,
1000
0000
0100
0010
0100
0000
0000
0000
,
1001
0000
0000
0000
0010
0000
0100
0000
0010
0000
0100
0000
0010
0000
0001
0100
,
0010
2020
0200
0302
,
0203
0302
0203
3330
,
1000
0000
0000
0001
1000
0000
MMMM
0000
0110
0000
0000
0000
1100
0000
0110
0000
,
0011
0000
0000
1000
0001
0000
0000
0000
0001
0000
0100
0000
1000
0000
0010
0001
,
1000
0220
2000
3002
,
2003
3002
2003
3330
,
1000
0100
1000
0000
0001
0100
0001
0000
1000
0100
1000
0000
0001
1000
0100
0010
,
0001
0010
0001
0000
1000
0010
1000
0000
1000
0010
1000
0000
0001
0100
0010
0001
,
1000
0000
2200
0000
,
0020
0030
0002
0003
,
0020
0030
0002
0003
,
0020
0000
0000
3330
,
1000
0001
0100
0000
0001
1000
0100
0000
,
1000
0001
0100
0000
1000
0100
0010
0100
,
0001
1000
0100
0000
1000
0001
0100
0000
,
1000
0001
0100
0000
0001
1000
0100
0010
,
1000
0100
1000
0000
0022
0000
0000
0000
,
0200
0300
2000
3000
,
0200
0300
2000
3000
,
0200
0000
0000
0333
,
0001
1000
0010
0000
1000
0001
0010
0000
,
0001
1000
0010
0000
0001
0010
0100
0010
,
1000
0001
0010
0000
0001
1000
0010
0000
,
0001
1000
0010
0000
1000
0001
0010
0100
,
0001
0000
1000
0100
1000
0000
0001
0010
,
0001
0000
1000
0010
0100
1000
0100
0010
,
0001
0000
0001
0100
0001
0000
1000
0010
,
1000
0000
0001
0010
0100
1000
0100
0010
,
0001
0000
0000
0000
;

//---------------dance-single - Expert----------------
#NOTES:
     dance-single:
     Expert:
     Challenge:
     13:
     1.000,1.000,0.346,1.000,0.331,883.000,47.000,158.000,80.000,12.000:
0000
0000
0000
0000
,
1010
MMMM
1001
0000
,
0101
0000
0000
0000
1010
MMMM
0110
MMMM
,
1001
MMMM
1100
MMMM
,
1001
0000
MMMM
0000
0110
MMMM
1001
MMMM
,
0110
0000
1000
0100
1000
0000
1000
0100
,
1000
0000
1000
0100
1000
0100
0001
0100
,
0001
0000
0001
0100
0001
0000
0001
0100
,
0001
0000
0001
0100
0001
0010
1000
0010
,
1000
0000
1000
0010
1000
0000
1000
0010
,
1000
0000
1000
0010
1000
0010
0001
0010
,
0001
0000
0001
0010
0001
0000
0001
0010
,
0001
0000
0001
0010
0001
0100
0010
0100
,
0010
0000
1000
0001
0100
0000
0010
0100
,
0010
0000
1000
0001
0100
0010
0100
0010
,
0100
0000
0001
1000
0100
0000
0100
0010
,
0100
0000
0001
1000
0100
0010
0100
0010
,
0100
0000
1000
0100
0010
0000
0001
0010
,
0100
0000
1000
0100
0010
0001
0010
0100
,
0001
0000
0002
2003
3200
0300
2000
3020
,
0230
0300
1000
0010
0100
0001
0010
0100
,
1000
0010
0100
0001
1000
0100
0010
1000
,
0100
0001
0100
0010
0100
0001
0010
0100
,
1000
0100
0001
0010
1000
0010
0100
0010
,
0001
0100
1000
0100
1000
0010
0001
0010
,
1000
0001
1000
0100
0010
0001
0100
0010
,
1000
0100
0010
0001
0100
0010
0001
1000
,
0100
0010
1000
0100
0010
0100
0001
0100
,
0010
1000
0010
0100
0001
1000
0001
0010
,
0010
0100
0010
1000
0001
0010
0100
0001
,
0010
1000
0010
0100
0010
1000
0100
0010
,
0001
0010
1000
0100
0001
0100
0010
0100
,
1000
0010
0001
0010
0001
0100
1000
0100
,
0001
1000
0001
0010
0100
1000
0010
0100
,
0001
0010
0100
1000
0010
0100
1000
0001
,
0010
0100
0001
0010
0100
0010
1000
0010
,
0100
0001
0100
0010
1000
0001
1000
0100
,
0220
0000
0330
1000
0202
0303
MMMM
0000
,
1001
0000
1100
0100
,
0011
0000
0000
0110
2002
3003
MMMM
0000
,
2002
0000
3003
0000
1000
0000
0100
0000
1000
0000
0100
0000
0010
0000
0100
0010
,
0100
0000
0000
1000
0202
0303
MMMM
0000
,
1001
0000
1100
0100
,
0011
0000
0000
0110
2002
3003
MMMM
0000
,
2002
0000
3003
0000
0001
0000
0100
0000
1000
0000
0100
0000
0010
0000
0100
0010
,
0100
0000
0000
0000
1000
0001
0100
0000
0001
0010
0100
0000
1000
0100
0001
0100
,
0001
0000
0000
0100
0000
0000
0010
0000
0000
0000
0000
0000
1000
0000
0000
0010
0000
0000
0100
0000
0000
0000
0000
0000
0001
0000
0000
0010
0000
0000
0100
0000
0000
0000
0000
0000
1000
0000
0000
0100
0000
0000
1000
0000
0000
0100
0001
0000
,
1000
0100
1000
0000
0010
0100
0010
0000
1000
0010
1000
0000
0001
0100
0010
1000
,
0100
0000
0000
1000
0000
0000
0001
0000
0000
0000
0000
0000
0001
0000
0000
1000
0000
0000
0100
0000
0000
0000
0000
0000
0010
0000
0000
0100
0000
0000
0010
0000
0000
0100
0000
0000
1000
0000
0000
0100
0000
0000
0010
0000
0000
1000
0001
0000
,
0100
1000
0001
0000
2000
0200
3320
0030
0002
2000
3023
0030
0200
2000
3302
2003
,
3020
0000
0000
0200
0000
0000
0332
0000
0000
0003
0000
0000
0200
0000
0000
2000
0000
0000
3302
0000
0000
0003
0000
0000
0020
0000
0000
2000
0000
0000
3032
0000
0000
0003
0000
0000
2000
0000
0000
3200
0000
0000
2300
0000
0000
3002
0010
0000
,
0203
0301
2000
3000
0020
0032
0203
0300
2000
3200
2300
3000
2000
3200
0320
0032
,
0203
0320
0032
0003
2000
3020
2030
3000
0002
0203
0302
0003
2000
3020
0032
0023
,
2030
3000
0200
0000
2300
0000
3100
0000
1000
0000
0000
0000
1000
0000
0100
0000
,
1000
0000
1000
0100
1000
0100
0001
0100
,
0001
0000
0001
0100
0001
0000
0001
0100
,
0001
0000
0001
0100
0001
0010
1000
0010
,
1000
0000
1000
0010
1000
0000
1000
0010
,
1000
0000
1000
0010
1000
0010
0001
0010
,
0001
0000
0001
0010
0001
0000
0001
0010
,
0001
0000
0001
0010
0001
0100
0010
0100
,
0010
0000
1000
0001
0100
0000
0010
0100
,
0010
0000
1000
0001
0100
0010
0100
0010
,
0100
0000
0001
1000
0100
0000
0100
0010
,
0100
0000
0001
1000
0100
0010
0100
0010
,
0100
0000
1000
0100
0010
0000
0001
0010
,
0100
0000
1000
0100
0010
0001
0010
0100
,
0001
0000
0002
2003
3200
0300
2000
3020
,
0230
0300
1000
0010
0100
0001
0010
0100
,
1000
0010
0100
0001
1000
0100
0010
1000
,
0100
0001
0100
0010
0100
0001
0010
0100
,
1000
0100
0001
0010
1000
0010
0100
0010
,
0001
0100
1000
0100
1000
0010
0001
0010
,
1000
0001
1000
0100
0010
0001
0100
0010
,
1000
0100
0010
0001
0100
0010
0001
1000
,
0100
0010
1000
0100
0010
0100
0001
0100
,
0010
1000
0010
0100
0001
1000
0001
0010
,
0010
0100
0010
1000
0001
0010
0100
0001
,
0010
1000
0010
0100
0010
1000
0100
0010
,
0001
0010
1000
0100
0001
0100
0010
0100
,
1000
0010
0001
0010
0001
0100
1000
0100
,
0001
1000
0001
0010
0100
1000
0010
0100
,
0001
0010
0100
1000
0010
0100
1000
0001
,
0010
0100
0001
0010
0100
0010
1000
0010
,
0100
0001
0100
0010
1000
0001
1000
0100
,
0220
0000
0330
1000
0202
0303
MMMM
0000
,
1001
0000
1100
0100
,
0011
0000
0000
0110
2002
3003
MMMM
0000
,
2002
0000
3003
0000
1000
0000
0100
0000
1000
0000
0100
0000
0010
0000
0100
0010
,
0100
0000
0000
1000
0202
0303
MMMM
0000
,
1001
0000
1100
0100
,
0011
0000
0000
0110
2002
3003
MMMM
0000
,
2002
0000
3003
0000
0001
0000
0100
0000
1000
0000
0100
0000
0010
0000
0100
0010
,
0100
0000
0000
0000
1000
0001
0100
0000
0001
0010
0100
0000
1000
0100
0001
0100
,
0001
0000
0000
0100
0000
0000
0010
0000
0000
0000
0000
0000
1000
0000
0000
0010
0000
0000
0100
0000
0000
0000
0000
0000
0001
0000
0000
0010
0000
0000
0100
0000
0000
0000
0000
0000
1000
0000
0000
0100
0000
0000
1000
0000
0000
0100
0001
0000
,
1000
0100
1000
0000
0010
0100
0010
0000
1000
0010
1000
0000
0001
0100
0010
1000
,
0100
0000
0000
1000
0000
0000
0001
0000
0000
0000
0000
0000
0001
0000
0000
1000
0000
0000
0100
0000
0000
0000
0000
0000
0010
0000
0000
0100
0000
0000
0010
0000
0000
0100
0000
0000
1000
0000
0000
0100
0000
0000
0010
0000
0000
1000
0001
0000
,
0100
1000
0001
0000
2000
0200
3320
0030
0002
2000
3023
0030
0200
2000
3302
2003
,
3020
0000
0000
0200
0000
0000
0332
0000
0000
0003
0000
0000
0200
0000
0000
2000
0000
0000
3302
0000
0000
0003
0000
0000
0020
0000
0000
2000
0000
0000
3032
0000
0000
0003
0000
0000
2000
0000
0000
3200
0000
0000
2300
0000
0000
3002
0010
0000
,
0203
0301
2000
3000
0020
0032
0203
0300
2000
3200
2300
3000
2000
3200
0320
0032
,
0203
0320
0032
0003
2000
3020
2030
3000
0002
0203
0302
0003
2000
3020
0032
0023
,
2030
3000
0200
0000
2300
0000
3100
0000
1000
0000
0000
0000
1000
0000
0100
0000
,
1000
0000
1000
0100
1000
0100
0001
0100
,
0001
0000
0001
0100
0001
0000
0001
0100
,
0001
0000
0001
0100
0001
0010
1000
0010
,
1000
0000
1000
0010
1000
0000
1000
0010
,
1000
0000
1000
0010
1000
0010
0001
0010
,
0001
0000
0001
0010
0001
0000
0001
0010
,
0001
0000
0001
0010
0001
0100
0010
0100
,
0010
0000
1000
0001
0100
0000
0010
0100
,
0010
0000
1000
0001
0100
0010
0100
0010
,
0100
0000
0001
1000
0100
0000
0100
0010
,
0100
0000
0001
1000
0100
0010
0100
0010
,
0100
0000
1000
0100
0010
0000
0001
0010
,
0100
0000
1000
0100
0010
0001
0010
0100
,
0001
0000
0002
2003
3200
0300
2000
3020
,
0230
0300
1000
0010
0100
0001
0010
0100
,
1000
0100
1000
0000
1000
0100
1000
0000
,
1000
0100
1000
0000
1001
MMMM
0110
MMMM
,
1001
0020
0032
0003
0002
0023
0032
0003
,
0002
0023
0032
0003
1001
MMMM
0110
MMMM
,
2002
3003
0000
0000
;
