#TITLE:Penny;
#SUBTITLE:Days of Ruin (2008);
#ARTIST:Yoshita Hirano;
#TITLETRANSLIT:;
#SUBTITLETRANSLIT:;
#ARTISTTRANSLIT:;
#CREDIT:;
#BANNER:Penny.jpg;
#BACKGROUND:Penny-bg.jpg;
#LYRICSPATH:;
#CDTITLE:kil4.png;
#MUSIC:Penny.mp3;
#OFFSET:-0.090;
#SAMPLESTART:7.550;
#SAMPLELENGTH:16.860;
#SELECTABLE:YES;
#BPMS:0.000=127.880,16.000=128.020,48.000=128.000,54.000=129.920,55.500=128.060,56.000=127.780,59.250=128.340,63.500=131.960,64.000=128.000;
#STOPS:12.000=0.005
,56.000=0.005
,56.500=0.005
,60.000=0.005
,143.750=0.005
,160.000=0.005
;
#BGCHANGES:;
// cache tags:
#FIRSTBEAT:0.000;
#LASTBEAT:192.063;
#SONGFILENAME:Songs/VGMP 3/Penny (Kil)/Penny.sm;
#HASMUSIC:1;
#HASBANNER:1;
#MUSICLENGTH:160.699;
// end cache tags

//---------------dance-single - ----------------
#NOTES:
     dance-single:
     :
     Medium:
     10:
     0.768,0.732,0.398,0.000,1.000,800.000,64.000,0.000,0.000,0.000:

0001
0100
0010
0100
1000
0100
0001
0010
0001
1000
0100
1000
0001
0100
0010
0100
1000
0100
0001
0010
0001
1000
0100
1000
,
0001
0100
0010
0100
1000
0100
0001
0010
0001
1000
0100
1000
0001
0100
0010
0100
1000
0100
0001
0010
0001
0100
1000
0100
,
0001
0010
0100
0001
1000
0100
0010
1000
0100
1000
0010
0100
0001
0010
0100
0001
1000
0100
0010
1000
0100
1001
0010
0001
,
0100
0000
0000
0000
0000
0000
0000
0000
1000
0000
0000
0000
0000
1000
0000
0000
0010
0000
0000
0000
0000
0000
0000
0000
1000
0000
0000
0000
0000
1000
0000
0000
0010
0000
0000
0000
0000
0000
0000
0000
0001
0000
0000
0000
0000
0000
0000
0000
1000
0000
0000
0000
0000
0000
0000
0000
0001
0000
0000
0000
0000
0001
0000
0000
,
1010
0100
0010
1000
0001
0100
1000
0010
1000
0001
0100
1000
0010
0001
0010
1000
,
0010
0100
1000
0001
0001
1000
0010
1000
0100
0001
1000
0010
0100
1000
0100
0001
,
0010
0100
1000
0010
0001
0100
1000
0010
1000
0001
0100
1000
0010
0001
0010
1000
,
0010
0100
1000
0001
0001
1000
0010
1000
0100
0001
1000
0010
0100
1000
0100
0001
,
1010
0100
0010
1000
0011
0100
1000
0010
1000
0001
0100
1000
0110
0001
0010
1000
,
0010
0100
1000
0100
0011
1000
0010
1000
0100
0001
1000
0100
1010
0001
0100
0001
,
0010
0100
1000
0100
0011
0100
1000
0010
1000
0001
0100
1000
0110
0001
0010
1000
,
0010
0100
1000
0100
0001
1000
0010
1000
0100
0001
1000
0100
1010
0100
1000
0010
,
1100
0010
0100
0001
1010
0100
1000
0100
1010
0001
0010
0100
1001
0010
0100
0010
,
1001
0000
0000
0000
0010
0000
0000
0000
1000
0000
0000
0000
0001
0000
0000
0000
1010
0000
0000
0000
0100
0000
0000
0000
0010
0000
0000
0000
1000
0000
0000
0000
0110
0000
0000
0000
0000
0000
0000
0000
0010
0000
0100
0000
0010
0000
0000
1000
0000
0000
0000
0000
0001
0000
0000
0000
1010
0000
0000
0000
0100
0000
0000
0000
,
1000
0010
0010
1000
0100
0001
0001
1000
0100
0010
0010
1000
0100
0001
0001
0100
,
1010
0001
1010
0100
1001
0100
1010
0100
0011
0100
1000
0001
1010
0100
1000
0001
,
1100
0010
0100
0001
1010
0100
1000
0100
1010
0001
0010
0100
1001
0010
0100
0010
,
1001
0000
0000
0000
0010
0000
0000
0000
1000
0000
0000
0000
0001
0000
0000
0000
1010
0000
0000
0000
0100
0000
0000
0000
0010
0000
0000
0000
1000
0000
0000
0000
0110
0000
0000
0000
0000
0000
0000
0000
0010
0000
0100
0000
0010
0000
0000
1000
0000
0000
0000
0000
0001
0000
0000
0000
0010
0000
0000
0000
0100
0000
0000
0000
,
1000
0010
0010
1000
0100
0001
0001
1000
0100
0010
0010
1000
0100
0001
0001
0100
,
1000
1000
0010
0001
0010
0100
1000
0010
0100
0010
0001
1000
0100
0010
0001
0100
,
1010
0001
0010
0100
0010
1000
0010
0100
0010
0001
0010
0100
0010
1000
0010
0001
,
0100
0010
0100
0001
0100
0010
0100
1000
0100
0010
0100
0001
0100
0010
0100
1000
,
0010
0001
0010
0100
0010
1000
0010
0100
0010
1000
0010
0100
0010
0001
0010
1000
,
0100
0001
0100
0010
0100
1000
0100
0010
0100
0001
0100
0010
0100
1000
0100
0010
,
0100
0010
0100
1000
0100
0010
0001
0010
0100
1000
0100
0010
0001
0010
0100
1000
0100
0010
0001
0010
0100
1000
0100
0010
,
0001
0010
0001
0100
1000
0100
0001
0010
0001
1000
0100
1000
0001
0010
0001
0100
1000
0100
0010
0001
0010
1000
0100
1000
,
0001
0010
0100
1000
0100
0010
0001
0010
0100
1000
0100
0010
0001
0010
0100
1000
0100
0010
0001
0010
0100
1000
0100
0010
,
0001
0010
0001
0100
1000
0100
0001
0010
0001
1000
0100
1000
0001
0010
0001
0100
1000
0100
0010
0001
0010
1000
0100
1000
,
0010
0000
0100
0000
0001
0000
1000
0000
0000
1000
0000
0000
0100
0010
0100
0010
,
0100
0000
0000
0000
0000
0000
0000
0000
0001
0000
0000
0000
1000
0000
0000
0000
0000
0000
1000
0000
0000
0000
0000
0000
0100
0010
0100
0000
0010
0000
0100
0000
,
0010
0000
0100
0000
0001
0000
1000
0000
0000
1000
0010
0000
0100
0010
0100
0010
,
1000
0001
1000
0001
0010
1000
0001
1000
0110
1000
0001
1000
0001
1000
0001
1000
,
0011
0100
0010
1000
0001
0100
1000
0010
1000
0001
0100
1000
0010
0001
0010
1000
,
0010
0100
1000
0001
0001
1000
0010
1000
0100
0001
1000
0010
0100
1000
0100
0001
,
0010
0100
1000
0010
0001
0100
1000
0010
1000
0001
0100
1000
0010
0001
0010
1000
,
0010
0100
1000
0001
0001
1000
0010
1000
0100
0001
1000
0010
0100
1000
0100
0001
,
1010
0100
0010
1000
0011
0100
1000
0010
1000
0001
0100
1000
0011
0001
0010
1000
,
0010
0100
1000
0100
0011
1000
0010
1000
0100
0001
1000
0100
0011
0001
0100
0001
,
0010
0100
1000
0100
0011
0100
1000
0010
1000
0001
0100
1000
0011
0001
0010
1000
,
0010
0100
1000
0100
0001
1000
0010
1000
0100
0001
1000
0100
1010
0100
1000
0010
,
1100
0010
0100
0001
1010
0100
1000
0100
1010
0001
0010
0100
1001
0010
0100
0010
,
1001
0000
0000
0000
0010
0000
0000
0000
1000
0000
0000
0000
0001
0000
0000
0000
1010
0000
0000
0000
0100
0000
0000
0000
0010
0000
0000
0000
1000
0000
0000
0000
0110
0000
0000
0000
0000
0000
0000
0000
0010
0000
0100
0000
0010
0000
0000
1000
0000
0000
0000
0000
0001
0000
0000
0000
0010
0000
0000
0000
0100
0000
0000
0000
,
1000
0010
0010
1000
0100
0001
0001
1000
0100
0010
0010
1000
0100
0001
0001
0100
,
1010
0001
1010
0100
1001
0100
1010
0100
0011
0100
1000
0001
1010
0100
1000
0001
,
1100
0010
0100
0001
1010
0100
1000
0100
1010
0001
0010
0100
1001
0010
0100
0010
,
1001
0000
0000
0000
0010
0000
0000
0000
1000
0000
0000
0000
0001
0000
0000
0000
1010
0000
0000
0000
0100
0000
0000
0000
0010
0000
0000
0000
1000
0000
0000
0000
0110
0000
0000
0000
0000
0000
0000
0000
0010
0000
0100
0000
0010
0000
0000
1000
0000
0000
0000
0000
0001
0000
0000
0000
1010
0000
0000
0000
0100
0000
0000
0000
,
1000
0010
0010
1000
0100
0001
0001
1000
0100
0010
0010
1000
0100
0001
0001
0100
,
1000
1000
0010
0001
0010
0100
1000
0010
0100
0010
0001
1000
0100
0010
0001
0100
,
1001
0000
0000
0000
;

//---------------dance-single - ----------------
#NOTES:
     dance-single:
     :
     Hard:
     11:
     0.805,0.747,1.000,0.317,1.000,672.000,182.000,51.000,0.000,0.000:


0001
0100
0010
0100
1000
0100
0001
0010
0001
1000
0100
1000
0001
0100
0010
0100
1000
0100
0001
0010
0001
1000
0100
1000
,
0001
0100
0010
0100
1000
0100
0001
0010
0001
1000
0100
1000
0001
0100
0010
0100
1000
0100
0001
0010
0001
0100
1000
0100
,
0001
0010
0100
0001
1000
0100
0010
1000
0100
1000
0010
0100
0001
0010
0100
0001
1000
0100
0010
1000
0100
1001
0010
0001
,
0100
0000
0000
0000
0000
0000
0000
0000
1000
0000
0000
0000
0000
1000
0000
0000
0010
0000
0000
0000
0000
0000
0000
0000
1000
0000
0000
0000
0000
1000
0000
0000
0010
0000
0000
0000
0000
0000
0000
0000
0001
0000
0000
0000
0000
0000
0000
0000
1000
0000
0000
0000
0000
0000
0000
0000
0001
0000
0000
0000
0000
0001
0000
0000
,
1100
0100
0010
1000
0001
0100
1000
0000
1010
0000
0000
1000
1001
0000
0010
0000
,
1001
0000
0010
0000
1100
0010
0100
0000
1010
0000
0000
0100
1001
0000
0100
0000
,
1100
0100
0010
1000
0001
0100
1000
0000
1100
0000
0000
1000
1001
0000
0010
0000
,
1001
0000
0010
0000
1100
0010
1000
0000
1100
0000
0000
1000
1001
0000
0100
0000
,
1100
0100
0010
1100
1001
0100
1000
0000
1010
0000
0000
0100
1001
0001
0010
0000
,
1001
0000
0100
1000
0011
0100
0000
0000
1010
0000
0000
0100
1001
0001
0010
0000
,
1100
0100
0010
1100
1001
0100
1000
0000
1010
0000
0000
0100
1001
0001
0010
0000
,
1001
0000
0100
0000
1010
0100
0000
0001
1100
0000
0010
0000
1001
1010
0100
1000
,
0011
1100
0001
0011
1100
0010
1001
0100
0011
0001
1010
0100
0011
1100
1000
0100
,
0011
0000
0000
0000
1100
0000
0000
0000
1000
0000
0000
0000
0010
0000
0000
0000
0011
0000
0000
0000
1100
0000
0000
0000
1010
0000
0000
0000
0100
0000
0000
0000
1001
0000
0000
0000
0000
0000
0000
0000
0010
0000
0100
0000
0010
0000
0000
1000
0000
0000
0100
0000
1000
0000
0000
0000
0001
0000
0000
0000
0100
0000
0000
0000
,
1000
0011
0011
1000
0100
1001
1001
0100
1000
0011
0011
1000
0100
1001
1001
0100
,
0010
1001
1010
0100
1000
0100
0010
1100
0011
0001
1100
0010
1100
1000
0010
0011
,
1100
0010
1000
0100
1001
0010
1100
0010
0001
0001
0010
0100
1001
1010
0100
1000
,
0001
0000
0000
0000
0010
0000
0000
0000
0100
0000
0000
0000
0001
0000
0000
0000
1000
0000
0000
0000
0100
0000
0000
0000
0011
0000
0000
0000
0001
0000
0000
0000
1100
0000
0000
0000
0000
0000
0000
0010
0000
0000
0100
0000
0000
0010
0000
0100
0000
0000
1000
0000
0001
0000
0000
0000
0100
0000
0000
0000
0010
0000
0000
0000
,
1000
0011
0011
1000
0100
1001
1001
0100
1000
0011
0011
1000
0100
1001
1001
0100
,
0010
0010
1001
0001
0100
0010
1100
1000
0110
1010
1001
0010
1100
0100
1010
1001
,
0200
0000
0000
0300
0000
0000
0000
0000
0020
0000
0000
0030
0000
0000
0000
0000
,
0002
0000
0000
0003
0000
0000
0000
0000
2000
0000
0020
3000
0002
0030
0200
0003
,
2000
0300
0000
3000
0000
0000
0000
0000
2000
0000
0200
3000
0002
0300
0000
0003
,
2000
0000
0200
3000
0020
0300
0000
0030
0002
0000
0020
0003
0200
0030
2000
0300
,
0001
0000
0010
3000
0100
0000
1000
0000
0100
0000
0010
0000
0001
0000
0010
0000
0100
0000
1000
0000
0100
0000
0010
0000
0001
0000
0010
0000
0100
0000
1000
0000
0100
0000
0010
0000
0001
0000
0010
0000
0100
0000
1000
0000
0100
0000
0010
0000
,
0001
0010
0001
0100
1000
0100
0001
0010
0001
1000
0100
1000
0001
0010
0001
0100
1000
0100
0010
0001
0010
1000
0100
1000
,
0001
0010
0100
1000
0100
0010
0001
0010
0100
1000
0100
0010
0001
0010
0100
1000
0100
0010
0001
0010
0100
1000
0100
0010
,
0001
0010
0001
0100
1000
0100
0001
0010
0001
1000
0100
1000
0001
0010
0001
0100
1000
0100
0010
0001
0010
1000
0100
1000
,
0010
0000
0000
0000
0000
0000
0000
0000
0000
0000
0000
0000
0000
0000
0000
0000
0011
0000
0000
0000
0000
0000
0000
0000
2000
3000
0000
0000
0000
0000
0000
0000
0000
0000
0000
0000
2000
3000
0000
0000
0010
0000
0000
0000
0000
0000
0000
0000
2001
3000
0000
0000
2000
3000
0000
0000
0200
0300
0000
0000
2000
3000
0000
0000
,
2000
3000
0000
0000
0000
0000
0000
0000
0000
0000
0000
0000
0000
0000
0000
0000
0021
0030
0000
0000
0000
0000
0000
0000
2000
3000
0000
0000
0000
0000
0000
0000
0000
0000
0000
0000
2000
3000
0000
0000
0000
0000
0000
0000
0000
0000
0000
0000
0021
0030
0200
0300
2000
3000
0000
0000
2000
3000
0000
0000
0200
0300
0000
0000
,
2010
3000
0000
0000
0000
0000
0000
0000
0000
0000
0000
0000
0000
0000
0000
0000
0011
0000
0000
0000
0000
0000
0000
0000
2000
3000
0000
0000
0000
0000
0000
0000
0000
0000
0000
0000
2000
3000
0000
0000
0010
0000
0000
0000
0000
0000
0000
0000
2001
3000
0000
0000
2000
3000
0000
0000
0200
0300
0000
0000
2000
3000
0000
0000
,
2000
3000
0000
0000
0100
0000
0000
0000
0010
0000
0000
0000
0100
0000
0000
0000
0002
0003
0000
0000
0000
0000
0000
0000
2100
3000
0000
0000
0011
0000
0000
0000
0001
0000
0000
0000
2000
3000
0000
0000
0010
0000
0000
0000
0001
0000
0000
0000
2100
3000
0000
0000
0020
0030
0200
0300
0020
0030
0000
0000
0200
0300
0000
0000
,
1001
0100
0010
1000
0001
0100
1000
0000
1010
0000
0000
1000
1001
0000
0010
0000
,
1001
0000
0010
0000
1100
0010
0100
0000
1010
0000
0000
0100
1001
0000
0100
0000
,
1100
0100
0010
1000
0001
0100
1000
0000
1100
0000
0000
1000
1001
0000
0010
0000
,
1001
0000
0010
0000
1100
0010
1000
0000
1100
0000
0000
1000
1001
0000
0100
0000
,
1100
0100
0010
1100
1001
0100
1000
0000
1001
0000
0000
0100
1001
0001
0010
0000
,
1001
0000
0100
1000
0011
0100
0000
0000
1010
0000
0000
0100
1001
0001
0010
0000
,
1100
0100
0010
1100
1001
0100
1000
0000
1001
0000
0000
0100
1001
0001
0010
0000
,
1001
0000
0100
1000
0011
0100
0000
0001
1100
0000
0010
0000
0011
0001
0100
0010
,
1100
1000
0010
1000
0011
0010
0100
0011
1100
0001
1100
1000
0011
0010
1100
0010
,
0011
0000
0000
0000
0100
0000
0000
0000
1000
0000
0000
0000
0011
0000
0000
0000
1100
0000
0000
0000
0100
0000
0000
0000
0011
0000
0000
0000
0100
0000
0000
0000
1010
0000
0000
0000
0000
0000
0000
0000
0010
0000
0100
0000
0010
0000
0000
1000
0000
0000
0100
0000
1000
0000
0000
0000
0001
0000
0000
0000
0100
0000
0000
0000
,
1000
0011
0011
1000
0100
1001
1001
0100
1000
0011
0011
1000
0100
1001
1001
0100
,
0010
1001
1010
0100
1001
0100
0010
1100
0011
0010
0100
0011
1100
1000
0101
1000
,
0110
0001
1000
0100
0011
0010
0100
0010
1100
0001
0010
0100
0011
1001
0100
1000
,
0011
0000
0000
0000
0010
0000
0000
0000
0100
0000
0000
0000
0001
0000
0000
0000
1100
0000
0000
0000
0100
0000
0000
0000
0011
0000
0000
0000
1100
0000
0000
0000
0010
0000
0000
0000
0000
0000
0000
0010
0000
0000
0100
0000
0000
0010
0000
0100
0000
0000
1000
0000
0001
0000
0000
0000
0100
0000
0000
0000
0010
0000
0000
0000
,
1100
0001
0011
1100
0010
0001
0001
1100
1000
0011
0010
1100
0011
0001
1100
0010
,
0001
0001
1000
0010
1100
0001
0010
1100
1010
0001
1100
1000
0101
0011
1100
0010
,
2002
3003
0000
0000
0000
0000
0000
0000
0000
0000
0000
0000
0000
0000
0000
0000
0000
0000
0000
0000
0000
0000
0000
0000
0000
0000
0000
0000
0000
0000
0000
0000
0000
0000
0000
0000
0000
0000
0000
0000
0000
0000
0000
0000
0000
0000
0000
0000
0000
0000
0000
0000
0000
0000
0000
0000
0000
0000
0000
0000
0000
0000
0000
0000
;
