#TITLE:Treble, Bass, and Attitude;
#SUBTITLE:;
#ARTIST:The Acolyte;
#TITLETRANSLIT:;
#SUBTITLETRANSLIT:;
#ARTISTTRANSLIT:;
#CREDIT:;
#BANNER:TBaA-bn.png;
#BACKGROUND:TBaA-bg.png;
#LYRICSPATH:;
#CDTITLE:blank.png;
#MUSIC:10 - The Acolyte - Treble, Bass, and Attitude.mp3;
#OFFSET:-0.300;
#SAMPLESTART:33.790;
#SAMPLELENGTH:15.000;
#SELECTABLE:YES;
#BPMS:0.000=172.020;
#STOPS:;
#BGCHANGES:;
// cache tags:
#FIRSTBEAT:0.000;
#LASTBEAT:260.500;
#SONGFILENAME:Songs/toune/Treble, Bass, and Attitude/TBaA.sm;
#HASMUSIC:1;
#HASBANNER:1;
#MUSICLENGTH:100.022;
// end cache tags

//---------------dance-single - Attitude----------------
#NOTES:
     dance-single:
     Attitude:
     Hard:
     8:
     0.601,0.584,0.330,0.550,0.080,333.000,33.000,55.000,0.000,0.000:





0000
0000
0000
0000
,
0000
0000
0000
0000
,
0000
0000
0000
0000
,
0000
0000
0000
0000
,
0001
0000
0011
0000
0000
1001
0000
0010
,
1000
0000
1010
0000
0000
1001
0000
0001
,
0100
0000
0101
0000
0000
0110
0000
1000
,
0100
0000
1100
0000
0000
0110
0000
0001
,
2000
0000
0010
3020
0000
0130
0000
1000
,
0002
0000
0010
0023
0000
0130
0000
1000
,
0002
0000
0100
0100
0000
0013
0000
0100
,
2000
0000
0010
0010
0000
3001
0000
0100
,
0010
1000
0100
0020
0000
0031
0000
1000
,
0010
0001
0010
0200
0000
0310
0000
0001
,
1000
0100
0010
0002
0000
1003
0000
0010
,
0100
0001
0100
2000
0000
3100
0000
0001
,
1001
0000
0010
1010
0000
1001
0000
0001
,
0011
0000
0010
1001
0000
0100
0000
0010
,
1010
0000
0100
0101
0000
1100
0000
0001
,
1100
0000
0010
0101
0000
1001
0000
0010
,
0110
1000
0100
0010
0000
0001
1000
0010
,
0100
0001
1000
0100
0000
0001
0100
1000
,
0010
0100
0001
1000
0000
0001
0010
0100
,
1000
0001
1000
0001
0000
0110
1001
0000
,
0200
0000
0001
0002
0300
0013
0000
0100
,
2000
0000
0010
0020
3000
0130
0000
1000
,
0002
0000
0100
0200
0003
0310
0000
1000
,
0020
0000
1000
2000
0030
3001
0000
1000
,
0020
0000
0100
0200
0030
0301
0000
0010
,
0002
0000
1000
2000
0003
3100
0000
0001
,
2000
0000
0001
0002
3000
0013
0000
0001
,
0200
0000
0010
0020
0300
0031
0000
0010
,
2001
0000
0010
3020
0000
0130
0000
0100
,
2001
0000
0100
3200
0000
0310
0000
1000
,
0120
0000
0001
0032
0000
1003
0000
1000
,
0120
0000
1000
2030
0000
3001
0000
0001
,
0200
0000
0301
0020
0000
0031
0000
1000
,
0200
0000
1300
0020
0000
1030
0000
1001
,
0020
0000
0031
0200
0000
0301
0000
1001
,
0020
0000
1030
0200
0000
1300
0000
1000
,
1001
0000
0000
0000
0010
0000
0000
0100
0000
0000
0001
0000
0000
0000
1000
0000
,
0010
0000
0000
1000
0000
0000
0000
0100
0000
0000
0010
0000
0000
0000
0000
0000
,
0101
0000
0000
0000
0010
0000
0000
0100
0000
0000
1000
0000
0000
0000
0000
0000
,
1000
0000
0010
0000
0000
0000
0000
0100
0000
0000
0001
0000
0000
0000
0000
0000
,
0110
0000
0101
0000
1000
0100
0001
0100
,
1000
0000
0000
1000
0010
0000
0000
0010
0100
0000
0001
0000
1000
0000
0000
0000
,
0001
0000
0000
0000
1000
0000
0000
0100
0010
0000
0001
0000
0100
0000
0000
0000
,
1000
0000
0000
1000
0100
0000
0000
0000
0001
0000
0000
0001
0200
0000
0000
0000
,
0310
1000
0010
0000
0100
0001
0100
1000
,
0100
0000
0001
0000
0010
0000
0100
0000
1000
0000
0010
0000
0100
0000
0000
0100
,
0001
0010
0100
1000
0001
0010
0100
1000
,
0010
0100
1000
0100
0001
0010
1000
0010
,
0001
0001
0010
0000
0010
0010
0100
0000
,
0100
0100
1000
0000
1000
1000
0010
0000
,
0001
0000
0001
0000
0010
0000
0010
0000
0100
0000
0100
0000
1000
0000
0001
1000
,
0001
0000
0000
0001
0100
0000
0000
0100
0010
0000
0000
0010
1000
0000
0000
1000
,
0002
0000
0100
0203
0000
0310
0000
0001
,
2000
0000
0100
3200
0000
0310
0000
0001
,
2000
0000
0010
0010
0000
3100
0000
0010
,
0002
0000
0100
0100
0000
1003
0000
0010
,
0100
0001
0010
0200
0000
1300
0000
0001
,
0100
1000
0100
0020
0000
0130
0000
1000
,
0001
0010
0100
2000
0000
3001
0000
0100
,
0010
1000
0010
0002
0000
0013
0000
0220
,
0000
0000
0000
0000
0000
0000
0000
0330
;

//---------------dance-double - Attitude----------------
#NOTES:
     dance-double:
     Attitude:
     Hard:
     9:
     0.623,0.586,0.370,0.550,0.080,344.000,37.000,55.000,0.000,0.000:

00000000
00000000
00000000
00000000
,
00000000
00000000
00000000
00000000
,
00000000
00000000
00000000
00000000
,
00000000
00000000
00000000
00000000
,
10000000
00000000
10100000
00000000
00000000
10010000
00000000
00010000
,
00011000
00000000
00001010
00000000
00000000
00001001
00000000
00000001
,
00000011
00000000
00001001
00000000
00000000
00011000
00000000
00010000
,
00110000
00000000
10010000
00000000
00000000
10100000
00000000
00010000
,
02000000
00000000
00010000
03020000
00000000
00130000
00000000
01000000
,
20000000
00000000
00010000
30020000
00000000
00130000
00000000
01000000
,
20000000
00000000
00100000
00100000
00000000
30010000
00000000
00100000
,
00200000
00000000
10000000
10000000
00000000
01300000
00000000
00010000
,
10000000
01000000
00100000
00002000
00000000
00003010
00000000
00010000
,
00001000
00000100
00000010
00000002
00000000
00001003
00000000
00000010
,
00001000
00000001
00000010
00000200
00000000
00010300
00000000
00001000
,
00010000
00000100
00001000
00200000
00000000
00310000
00000000
00100000
,
00110000
00000000
01000000
01010000
00000000
10010000
00000000
01000000
,
11000000
00000000
00010000
00011000
00000000
00101000
00000000
00010000
,
00010100
00000000
00000010
00001010
00000000
00001001
00000000
00000010
,
00001100
00000000
00000010
00000101
00000000
00001001
00000000
00000010
,
00000110
00000001
00000100
00000010
00001000
00000100
00010000
00001000
,
00100000
00010000
01000000
00100000
10000000
01000000
00100000
00010000
,
00001000
00001000
00000100
00000100
00010000
00010000
00001000
00001000
,
00010000
00000000
00000000
00011000
00000000
00000000
00110000
00000000
00000000
00000000
01100000
00000000
10010000
00000000
00000000
00000000
,
20000000
00000000
00100000
00200000
30000000
01300000
00000000
00001000
,
00020000
00000000
00000010
00000020
00030000
00000130
00000000
00000001
,
00000020
00000000
00001000
00002000
00000030
00013000
00000000
00001000
,
00020000
00000000
00100000
00200000
00030000
10300000
00000000
00100000
,
02000000
00000000
00010000
00020000
03000000
00130000
00000000
00010000
,
00002000
00000000
00000001
00000002
00003000
00000013
00000000
00000100
,
00000002
00000000
00001000
00002000
00000003
00003100
00000000
00001000
,
00200000
00000000
01000000
02000000
00300000
03010000
00000000
00100000
,
02100000
00000000
00010000
03020000
00000000
00130000
00000000
00010000
,
00012000
00000000
00100000
00203000
00000000
00301000
00000000
00000010
,
00000210
00000000
00000001
00000302
00000000
00001003
00000000
00001000
,
00201000
00000000
00010000
00320000
00000000
01030000
00000000
00010000
,
02000000
00000000
03010000
00200000
00000000
00310000
00000000
10000000
,
02000000
00000000
13000000
00200000
00000000
00310000
00000000
00001000
,
00000020
00000000
00001030
00000200
00000000
00001300
00000000
00000001
,
00000020
00000000
00000031
00000200
00000000
00000301
00000000
00000001
,
00001001
00000000
00000000
00000000
00011000
00000000
00000000
00100000
00000000
00000000
00001000
00000000
00000000
00000000
01000000
00000000
,
00010000
00000000
00000000
01000000
00000000
00000000
00000000
00100000
00000000
00000000
00010000
00000000
00000000
00000000
00000000
00000000
,
00101000
00000000
00000000
00000000
00010000
00000000
00000000
00100000
00000000
00000000
01000000
00000000
00000000
00000000
00000000
00000000
,
10000000
00000000
00010000
00000000
00000000
00000000
00000000
00001000
00000000
00000000
00000001
00000000
00000000
00000000
00000000
00000000
,
00000011
00000000
00001100
00000000
00001000
00010000
01000000
10000000
,
01000000
00010000
00001000
00000010
00000001
00000010
00001000
00000010
,
00000100
00010000
00100000
00010000
00001000
00000100
00001000
00010000
,
01000000
00000000
10000000
00000000
01000000
00000000
00100000
00010000
00002000
00000000
00000000
00000000
00000000
00000000
00000000
00000000
,
00003100
00010000
00000100
00000000
00001000
00000010
00001000
00010000
,
00001000
00000010
00000100
00000000
00000001
00001000
00000010
00000000
,
00001000
00010000
00100000
10000000
00100000
00010000
00001000
00000100
,
00000001
00000100
00001000
00010000
00100000
10000000
01000000
00010000
,
00001000
00000100
00001000
00001000
00000010
00000010
00010000
00010000
,
00001000
00001000
00100000
00100000
00010000
00010000
10000000
00100000
,
10000000
00000000
10000000
00000000
01000000
00000000
01000000
00000000
00100000
00000000
00100000
00000000
00010000
00000000
00001000
00010000
,
00001000
00000000
00000000
00001000
00000010
00000000
00000000
00000010
00000100
00000000
00000000
00000100
00000001
00000000
00000000
00000001
,
00000020
00000000
00000001
00000032
00000000
00000103
00000000
00000010
,
00000002
00000000
00001000
00002003
00000000
00003100
00000000
00000010
,
00000002
00000000
00000100
00000100
00000000
00001003
00000000
00000100
,
00000200
00000000
00000000
00000000
00000001
00000000
00000001
00000000
00000000
00000000
00000310
00000000
00000000
00000000
00000001
00001000
,
00000001
00000000
00000010
00000000
00000100
00000000
00020000
00000000
00000000
00000000
01030000
00000000
00000000
00000000
00010000
00001000
,
00010000
00000000
00100000
00000000
01000000
00000000
20000000
00000000
00000000
00000000
30010000
00000000
00000000
00000000
00010000
01000000
,
00010000
00000000
10000000
00000000
01000000
00000000
00200000
00000000
00000000
00000000
00301000
00000000
00000000
00000000
00001000
00010000
,
00001000
00100000
00010000
00000200
00000000
00002300
00000000
00020000
,
00000000
00000000
00000000
00000000
,
00000000
00033000
00000000
00000000
00000000
00000000
00000000
00000000
;

//---------------dance-single - Bass----------------
#NOTES:
     dance-single:
     Bass:
     Medium:
     6:
     0.496,0.519,0.220,0.150,0.015,310.000,22.000,15.000,0.000,0.000:























0000
0000
0000
0000
,
0000
0000
0000
0000
,
0000
0000
0000
0000
,
0000
0000
0000
0000
,
0001
1000
0000
0010
0000
0100
0000
0002
,
0000
1003
0000
0100
0000
0010
0000
2000
,
0000
3001
0000
1000
1000
0010
0000
0200
,
0000
0301
0000
1000
0000
0020
0000
0031
,
2000
0000
0000
0100
0000
0100
0000
0000
,
3020
0000
0000
0001
0000
0001
0000
0000
,
0230
0000
0000
1000
0000
1000
0000
0000
,
0302
0000
0000
0010
0000
0010
0000
0000
,
0103
1000
0100
0000
0001
0010
0001
0000
,
1000
0010
0100
0000
0001
1000
0100
0000
,
0001
0010
0001
0000
0010
1000
0010
0000
,
1000
0100
0001
0000
0100
0001
0010
0000
,
0001
0100
0010
0000
0100
0010
1000
0000
,
1000
0001
0010
0000
1000
0001
0100
0000
,
0010
1000
0100
0000
0010
0100
0001
0000
,
0001
1000
0010
0000
1000
0100
0010
0000
,
0001
0010
0100
1000
0000
1000
0010
0000
,
0010
0100
0001
0010
0000
0010
0001
0000
,
0001
1000
0010
0100
0000
0100
1000
0000
,
1000
0100
0001
0010
0000
0010
0100
0000
,
0001
1000
0000
0001
0000
0010
0000
0100
,
0000
0010
0000
0001
0000
1000
0000
0010
,
0000
0100
0000
0100
0000
0100
0000
0100
,
0000
0010
0000
0010
0000
0010
0000
0010
,
1000
0100
0000
0010
0000
0001
0000
0100
,
0000
0010
0000
1000
0000
0010
0000
0001
,
0000
0100
0000
0010
0000
0100
0000
0010
,
0001
0000
1000
0100
0010
0000
0100
0010
,
0001
1000
0000
0010
0000
0100
0000
0001
,
0000
1000
0000
0001
0000
0010
1000
0100
,
0000
1000
0000
0010
0000
0100
0000
1000
,
0000
0000
0010
0000
0000
0000
0001
0000
0000
0000
0010
0000
0000
0000
1000
0100
,
0000
0010
0000
0001
0000
0100
0000
0001
,
0000
1000
0000
0100
0000
0010
0100
0001
,
0000
0100
0000
0010
0000
0001
0000
0010
,
2000
0000
0000
0002
3000
0000
0020
0003
0000
0200
0030
0000
0020
0300
0000
0000
,
0031
0101
0010
1010
,
1000
1100
0100
0110
,
0010
1001
0100
1001
,
0010
1100
0010
0101
,
0001
0010
0100
0000
0010
0100
1000
0000
,
0100
1000
0010
0000
1000
0010
0100
0000
,
0001
1000
0100
0001
0100
1000
0001
0010
,
1000
0010
0001
1000
0010
0100
0001
0000
,
1000
0100
1000
0000
0010
0100
0001
0000
,
0001
1000
0001
0000
0010
0100
1000
0000
,
0100
0010
0100
0000
1000
0100
1000
0000
,
0010
1000
0010
0000
1000
0010
0001
0000
,
0010
1000
0001
0000
1000
0100
1000
0000
,
0001
0100
0001
0000
0010
0001
0010
0000
,
1000
0010
1000
0000
0100
0010
0100
0000
,
0001
1000
0001
0010
0100
1000
0001
0000
,
1001
0000
0011
0000
1000
0010
0100
0000
,
0101
0000
1010
0000
0001
0010
0100
0010
,
0001
0000
1100
0000
0010
0001
0100
0000
,
1001
0000
0110
0000
0010
0100
0001
0000
,
1001
0000
1100
0000
0001
0100
0010
0000
,
1010
0000
0101
0000
1000
0100
0010
0100
,
1000
0000
0011
0000
0100
1000
0010
0001
,
0010
0000
0001
1000
0000
1001
0000
0220
,
0000
0000
0000
0000
0000
0000
0000
0330
;

//---------------dance-single - Treble----------------
#NOTES:
     dance-single:
     Treble:
     Easy:
     5:
     0.373,0.551,0.060,0.450,0.000,210.000,6.000,45.000,0.000,0.000:















0000
0000
0000
0000
,
0000
0000
0000
0000
,
0000
0000
0000
0000
,
0000
0000
0000
0000
,
0001
0000
0001
0000
0000
1000
0000
0000
,
0010
0000
0010
0000
0000
0100
0000
0000
,
1000
0000
1000
0000
0000
0001
0000
0000
,
0100
0000
0100
0000
0000
0010
0000
0000
,
0002
0000
0000
0000
,
2003
0000
0000
0000
,
3020
0000
0000
0000
,
0230
0000
0000
0000
0000
0000
0000
0001
,
0302
0000
0000
0000
0000
0000
0000
0010
,
0023
0000
0000
0000
0000
0000
0000
0100
,
0230
0000
0000
0000
0000
0000
0000
1000
,
2300
0000
0000
0000
0000
0000
0000
0010
,
3020
0000
0000
0100
0000
0001
0000
0100
,
0230
0000
0000
1000
0000
0010
0000
0001
,
0302
0000
0000
1000
0000
0010
0000
1000
,
2003
0000
0000
0100
0000
0001
0000
0001
,
3002
0023
0230
2300
,
3020
0230
2300
3200
,
0320
0000
0130
0000
,
2002
0000
0000
3003
,
0010
0100
0010
0100
,
0010
0100
0010
0100
,
0001
1000
0001
1000
,
0010
0100
0010
0100
,
0001
0010
1000
0010
,
0001
0010
1000
0010
,
0001
0001
1000
1000
,
0010
0010
0100
0100
,
0001
0100
1000
0100
,
0001
0100
1000
0100
,
0001
0001
1000
1000
,
0100
0100
0010
0010
,
0001
0010
0100
1000
,
0001
0010
0100
1000
,
0010
0010
0100
0100
,
0001
0001
1000
1000
,
0220
0330
2002
3003
,
0002
2003
3020
0230
,
0301
0011
1000
1010
,
0100
0100
0010
0010
,
0001
1000
0010
0100
,
0001
1000
0100
0010
,
0100
0100
0010
0010
,
0001
0001
1000
1000
,
0020
0100
1000
0100
,
0001
0100
1000
0130
,
0002
0100
0010
1000
,
0100
0010
1000
0013
,
2000
0001
0010
0001
,
0100
0010
0100
3001
,
0200
0010
1000
0001
,
0010
0001
1000
0310
,
2000
0000
0000
0100
0000
0001
0000
0100
,
3200
0000
0000
0010
0000
1000
0000
0010
,
0320
0000
0000
0001
0000
0100
0000
0001
,
0032
0000
0000
1000
0000
0010
0000
0100
,
0203
0000
0000
0010
0000
1000
0000
0010
,
0320
0000
0000
0001
0000
0100
0000
1000
,
2030
0000
0000
0001
0000
0100
0000
0001
,
3002
0000
0000
0010
0000
1003
0000
0220
,
0000
0000
0000
0000
0000
0000
0000
0330
;

//---------------dance-double - Bass----------------
#NOTES:
     dance-double:
     Bass:
     Medium:
     7:
     0.456,0.551,0.210,0.120,0.010,286.000,21.000,12.000,0.000,0.000:

00000000
00000000
00000000
00000000
,
00000000
00000000
00000000
00000000
,
00000000
00000000
00000000
00000000
,
00000000
00000000
00000000
00000000
,
00100000
10000000
00000000
00010000
00000000
00001000
00000000
00000010
,
00000000
00000001
00000000
00001000
00000000
00000100
00000000
00010000
,
00000000
00100000
00000000
01000000
00000000
00010000
00000000
00001000
,
00000000
01000000
00000000
10000000
00000000
00100000
00000000
01000000
,
02000000
00000000
00000000
10000000
00000000
00100000
00000000
00010000
,
03020000
00000000
00000000
00100000
00000000
00001000
00000000
00000100
,
00030200
00000000
00000000
00001000
00000000
00000010
00000000
00001000
,
00002300
00000000
00000000
00010000
00000000
00000100
00000000
00000001
,
00003001
00000000
00000001
00000100
00000000
00000100
00000000
00000100
,
00010000
00000000
00010000
00100000
00000000
00100000
00000000
00100000
,
10000000
00000000
10000000
00010000
00000000
00010000
00000000
00010000
,
00000010
00000000
00000010
00000100
00000000
00000100
00000000
00000100
,
00001000
00000000
00001000
00000001
00000000
00000001
00000000
00000001
,
00000100
00000000
00000100
00010000
00000000
00010000
00000000
00010000
,
00001000
00000000
00001000
00100000
00000000
00100000
00000000
00100000
,
10000000
00000000
10000000
01000000
00000000
01000000
00000000
01000000
,
00001000
00000000
00000000
00000000
00001000
00000000
00000100
00000000
00000000
00000010
00000100
00000000
00000000
00000000
00000100
00000000
,
00000001
00000000
00000000
00000000
00000001
00000000
00000010
00000000
00000000
00001000
00000010
00000000
00000000
00000000
00000010
00000000
,
00002000
00023000
00230000
02300000
,
23000000
00020000
00000000
00000000
00000000
00000000
30030000
00000000
,
00001001
00000100
00000000
00001000
00000000
00010000
00000000
00100000
,
00000000
10000000
00000000
00100000
00000000
00010000
00000000
00001000
,
00000000
00000100
00000000
00000001
00000000
00000100
00000000
00001000
,
00000000
00010000
00000000
00100000
00000000
01000000
00000000
10000000
,
01000000
00100000
00000000
01000000
00000000
00010000
00000000
00001000
,
00000000
00000010
00000000
00000100
00000000
00001000
00000000
00100000
,
00000000
00010000
00000000
00000100
00000000
00001000
00000000
00000001
,
00000010
00000000
00001000
00010000
00001000
00000000
00001000
00100000
,
00010000
01000000
00000000
00010000
00000000
00000100
00000000
00001000
,
00000000
00100000
00000000
00010000
00000000
10000000
00000000
00010000
,
00000000
00100000
00000000
00001000
00000000
00000010
00000000
00010000
,
00000000
00000100
00000000
00001000
00000000
00000100
00000000
00000010
,
00000100
00001000
00000000
00000001
00000000
00000100
00000000
00000010
,
00000000
00010000
00000000
00000100
00000000
00001000
00000000
00010000
,
00000000
00100000
00000000
10000000
00000000
00100000
00000000
01000000
,
00010000
00011000
00010100
00001010
,
00001001
00000100
00010000
00001000
,
10010000
10100000
10010000
11000000
,
00010000
00011000
00000100
00000110
,
00000001
00000010
00001000
00000100
,
00010000
00100000
00010000
10000000
,
00100000
01000000
00010000
00000010
,
00001000
00000010
00000001
00001000
,
00000010
00000001
00000010
00000100
,
00000001
00000010
00000001
00000000
00000010
00000100
00000010
00000000
,
00000100
00001000
00000100
00000000
00001000
00010000
00001000
00000000
,
00010000
00100000
00010000
00000000
00100000
01000000
00100000
00000000
,
01000000
10000000
01000000
00000000
10000000
00010000
10000000
00000000
,
10000000
00100000
00010000
00000000
00001000
00000100
00000001
00000000
,
00000001
00000010
00001000
00000000
00010000
01000000
10000000
00000000
,
10000000
00100000
00010000
00001000
00000100
00000001
00000010
00001000
,
00010000
01000000
10000000
00100000
00010000
00001000
00000100
00000001
,
00001000
00000000
00001100
00000000
00000001
00000100
00000001
00000000
,
00000010
00000000
00001010
00000000
00001000
00100000
00001000
00000000
,
00010000
00000000
10010000
00000000
00100000
10000000
00100000
00000000
,
10000000
00000000
11000000
00000000
10000000
01000000
00100000
00010000
,
01100000
00000000
00101000
00000000
00010000
00000100
00001000
00000000
,
00001000
00000000
00011000
00000000
00010000
00100000
10000000
00000000
,
10000000
10100000
00010000
00110000
,
10000000
00000000
01010000
00100000
00000000
00010000
00002000
00020000
,
00000000
00000000
00000000
00000000
00000000
00000000
00000000
00033000
;

//---------------dance-double - Treble----------------
#NOTES:
     dance-double:
     Treble:
     Easy:
     5:
     0.370,0.551,0.090,0.330,0.010,217.000,9.000,33.000,0.000,0.000:

00000000
00000000
00000000
00000000
,
00000000
00000000
00000000
00000000
,
00000000
00000000
00000000
00000000
,
00000000
00000000
00000000
00000000
,
00000001
00000000
00000001
00000000
00000000
00000010
00000000
00000000
,
00001000
00000000
00001000
00000000
00000000
01000000
00000000
00000000
,
00100000
00000000
00100000
00000000
00000000
10000000
00000000
00000000
,
00010000
00000000
00010000
00000000
00000000
00000100
00000000
00000000
,
00000002
00000000
00000000
00000000
,
00000023
00000000
00000000
00000000
,
00000230
00000000
00000000
00000000
,
00002300
00000000
00000000
00000000
00000000
00000000
00000000
00010000
,
00023000
00000000
00000000
00000000
00000000
00000000
00000000
00100000
,
00230000
00000000
00000000
00000000
00000000
00000000
00000000
01000000
,
02300000
00000000
00000000
00000000
00000000
00000000
00000000
10000000
,
23000000
00000000
00000000
00000000
00000000
00000000
00000000
00010000
,
30020000
00000000
00000000
00100000
00000000
01000000
00000000
10000000
,
20030000
00000000
00000000
00100000
00000000
00010000
00000000
01000000
,
32000000
00000000
00000000
00010000
00000000
10000000
00000000
00100000
,
03200000
00000000
00000000
00010000
00000000
01000000
00000000
00000000
,
00302000
00003020
00000230
00000302
,
00000023
00000230
00002300
00023000
,
00230000
01000000
00010000
02300000
,
03020000
00000000
00000000
00001000
00000000
00000000
00001000
00000000
00000000
00001000
00000000
00000000
00031000
00000000
00000000
00000000
,
00000001
00000010
00000100
00001000
,
00000100
00001000
00000010
00000001
,
00000100
00001000
00010000
00100000
,
10000000
01000000
10000000
00100000
,
00010000
01000000
00001000
00010000
,
00000100
00001000
00000001
00000010
,
00000100
00001000
00000010
00001000
,
00010000
00100000
00000100
00001000
,
00100000
10000000
00010000
00100000
,
00001000
00000010
00000100
00001000
,
00010000
00000010
00000001
00000010
,
00001000
00010000
00100000
10000000
,
00100000
00010000
01000000
00100000
,
00001000
00010000
00100000
01000000
,
10000000
10000000
01000000
01000000
,
00100000
00100000
00010000
00010000
,
00001100
00000010
00001100
00000001
,
00000010
00000100
00001000
00010000
,
01100000
10000000
01100000
00010000
,
10000000
01000000
00100000
00010000
,
00001100
00010000
00001100
00000010
,
00000001
00000010
00000100
00001000
,
00110000
01000000
00110000
00001000
,
00010000
00100000
01000000
10000000
,
00100000
00010000
00001000
00000100
,
00000001
00000010
00001000
00010000
,
01000000
10000000
00100000
00010000
,
00001000
00000100
00000001
00000010
,
00001000
00010000
01000000
10000000
,
00100000
00010000
00001000
00000100
,
00000001
00000010
00001000
00010000
,
01000000
10000000
00100000
00010000
,
00002000
00000000
00000000
00010000
00000000
00000010
00003000
00000100
,
00020000
00000000
00000000
00001000
00000000
00100000
00030000
00001000
,
00000200
00000000
00000000
00000001
00000000
00000010
00000300
00001000
,
00200000
00000000
00000000
10000000
00000000
00010000
00300000
00001000
,
00000020
00000000
00000000
00001000
00000000
00010000
00000030
00100000
,
02000000
00000000
00000000
00010000
00000000
00001000
03000000
00000010
,
00000002
00000000
00000000
00000100
00000000
00001000
00000003
00010000
,
20000000
00000000
00000000
01000000
00000000
00010000
30000000
00022000
,
00000000
00000000
00000000
00000000
00000000
00000000
00000000
00033000
;

//---------------dance-single - Acolight----------------
#NOTES:
     dance-single:
     Acolight:
     Beginner:
     2:
     0.206,0.448,0.370,0.000,0.000,107.000,37.000,0.000,0.000,0.000:











0000
0000
0000
0000
,
0000
0000
0000
0000
,
0000
0000
0000
0000
,
0000
0000
0000
0000
,
0001
0000
0000
0000
,
1000
0000
0000
0000
,
0001
0000
1000
0000
,
0001
0000
0000
0000
,
0110
0000
0000
0000
,
0110
0000
0000
0000
,
0110
0000
0000
0000
,
0110
0000
0000
0000
,
1001
1001
0000
0000
,
1001
1001
0000
0000
,
0110
0110
0000
0000
,
0110
0110
0000
0000
,
0001
0001
0000
0000
,
0010
0010
0000
0000
,
0100
0100
0000
0000
,
1000
1000
0000
0000
,
0010
0000
0010
0000
,
0010
0000
0010
0000
,
0100
0100
0100
0100
,
0100
0100
0100
0100
,
0100
0000
0000
0000
,
0001
0000
0000
0000
,
0010
0000
0000
0000
,
1000
0000
0000
0000
,
0010
0000
0000
0000
,
0001
0000
0000
0000
,
0100
0000
0000
0000
,
1000
0000
0000
0000
,
0100
0000
0000
0000
,
0001
0000
0000
0000
,
1000
0000
0000
0000
,
0100
0000
0000
0000
,
0010
0000
0000
0000
,
0001
0000
0000
0000
,
1000
0000
0000
0000
,
0010
0000
0010
0000
,
0110
0000
0000
0000
,
1001
0000
0000
0000
,
0110
0000
0000
0000
,
1001
0000
0000
0000
,
0010
0010
0010
0000
,
0100
0100
0100
0000
,
0010
0010
0010
0000
,
0100
0100
0100
0000
,
1001
0000
1001
0000
,
0110
0000
0110
0000
,
1001
0000
0110
0000
,
0110
0000
1001
0000
,
1001
1001
1001
0000
,
0110
0110
0110
0000
,
1001
1001
1001
0000
,
0110
0110
0110
0000
,
0001
0000
1000
0000
,
0010
0000
0100
0000
,
0001
0000
1000
0000
,
0100
0000
0010
0000
,
0001
0000
0010
0000
,
0100
0000
1000
0000
,
0010
0000
0100
0000
,
0001
0000
1000
0000
,
0110
0000
0000
0000
;

//---------------dance-single - Acolyte----------------
#NOTES:
     dance-single:
     Acolyte:
     Challenge:
     11:
     1.000,1.000,0.980,0.160,1.000,700.000,98.000,16.000,0.000,22.000:



1000
0100
0011
0100
1000
0110
0001
0100
,
1000
0100
0011
0100
1000
0110
0001
0100
,
1000
0100
0011
0100
1000
0110
0001
0100
,
1000
0100
0011
0100
1000
0110
0001
0100
,
1000
0100
0011
0110
1000
0100
0011
0110
,
1000
0100
0011
0110
1000
0100
0011
0100
,
1010
0100
0011
0100
1001
0010
1100
0001
,
1000
0100
0010
0001
1000
0100
0010
0001
1000
0100
0010
0001
1000
0100
0010
0001
,
1020
0000
1001
0100
0000
1001
0000
0001
,
0230
0000
0001
1010
0000
0011
0000
1000
,
0302
0000
1010
0100
0000
1100
0000
0010
,
2003
0000
0010
0101
0000
0011
0000
0010
,
3001
0010
0100
0000
1000
0000
0010
0000
0100
0010
0001
0000
0010
0000
1000
0000
,
0001
1000
0100
0000
0010
0000
0001
0000
1000
0010
0100
0000
1000
0000
0001
0000
,
0010
0100
1000
0000
0010
0000
0001
0000
0100
0010
1000
0000
0001
0000
0010
0000
,
1000
0100
0010
0000
0100
0010
0001
0000
0010
0001
1000
0000
0001
1000
0100
0000
,
1010
0100
0001
0000
1000
0000
0100
0000
0110
0000
1010
0000
0101
0000
0011
0000
,
0001
0100
0010
0000
1010
0000
0101
0000
0011
0000
1001
0000
1100
0000
0110
0000
,
0001
1000
0010
0000
0110
0000
1100
0000
1010
0000
0101
0000
0011
0000
1001
0000
,
0010
0100
0001
0000
1000
0000
1100
0000
0001
0000
0101
0000
0110
0000
1001
0000
,
0010
1000
0010
1000
0010
0000
0100
0001
0100
0000
0001
0010
0001
0010
0100
1000
,
0010
0100
0001
0100
0001
0010
0100
1000
0001
0000
1010
0000
1001
0000
0101
0000
,
0001
0010
0100
1000
0001
0010
0100
1000
0001
0010
0100
1000
0001
0010
0100
1000
,
0001
1000
0001
1000
0001
1000
0001
1000
0001
1000
0001
1000
0001
0000
0000
0000
0000
0000
0000
0000
0000
0000
0000
0000
0000
0000
0000
0000
0000
0000
0000
0000
,
1010
0101
1000
0011
0100
1010
0010
1001
,
0100
0101
0001
1100
1000
0110
0010
0011
,
0100
1001
0001
1001
1000
0110
0001
0110
,
0010
0011
0100
1100
0001
0011
1001
1100
,
0110
1010
0100
0101
0001
1001
1000
0110
,
0010
0011
0100
1100
0001
0110
1000
0101
,
0100
1010
0010
0101
0001
1100
1000
0110
,
0001
0010
1100
0101
0110
0000
1100
0110
,
0101
1000
0010
0100
0001
1000
0100
0010
0001
0100
0010
1000
0100
0010
0001
0100
,
0010
1000
0100
0010
0001
1000
0010
0100
0001
0010
0100
1000
0010
0100
0001
0010
,
0100
0001
1000
0010
0100
0001
0010
0100
0010
0001
1000
0010
0100
0001
1000
0100
,
0010
0001
1000
0010
0100
0001
1000
0001
1000
0010
0100
0010
0100
0001
0010
0100
,
1000
0010
0100
0001
0010
0100
1000
0010
0100
1000
0010
0100
0001
0010
0100
1000
,
0010
0100
0001
1000
0001
0010
0100
0010
0001
1000
0010
0100
1000
0100
0010
1000
,
0100
0010
0100
1000
0001
0100
0010
0100
0001
1000
0100
0010
0100
0001
1000
0100
,
0011
0000
0000
0111
0000
0000
1111
0000
0000
1110
0000
0000
1100
0000
0000
1000
,
0002
0010
0100
0000
0010
0100
2000
0000
,
3203
0010
0001
0000
0020
0001
1000
0000
,
0332
0100
0010
0000
2000
0010
0100
0000
,
3023
0001
1000
0000
0200
1000
0001
0000
,
1330
0100
0001
0100
1000
0010
0100
0001
,
0010
0100
1000
0010
0100
0001
1000
0010
,
0100
0001
0100
0000
0010
0000
1000
0000
0001
0010
0001
0000
0010
0000
0100
0000
,
1000
0010
0100
0001
0010
0100
1000
0010
0100
0001
1000
0001
0010
0100
1000
0010
,
0100
0000
0001
0010
0001
0100
0001
1000
0001
0000
1000
0010
1000
0001
1000
0100
,
1000
0000
0010
0100
0010
1000
0100
0001
0010
0000
0100
0001
1000
0010
0100
0001
,
0010
0000
0100
0001
0100
0000
0010
1000
0010
0000
0100
0001
0010
0100
1000
0010
,
0100
0000
0001
1000
0100
0000
0010
1000
0001
0100
0010
1000
0001
0010
0100
0010
,
1000
0000
0001
0100
0001
0000
1000
0010
1000
0000
0100
0010
1000
0000
0100
0001
,
0010
0000
0100
0001
0010
0000
1000
0001
0010
0000
0100
0010
1000
0000
0001
0100
,
0010
0010
0010
0010
0010
0010
0010
0010
,
0010
1000
0001
1000
0001
1000
0001
1000
0001
1000
0001
1000
0001
1000
0001
1000
,
0011
0100
0010
1000
0001
1000
0010
0100
0001
1000
0100
0010
0001
1000
0010
0100
,
0001
0010
0001
0100
0010
0100
1000
0100
0001
0010
1000
0010
0001
0100
1000
0100
,
0001
0010
0100
1000
0010
0100
0001
0010
0100
1000
0010
0100
0001
1000
0010
0100
,
0010
1000
0001
0010
0100
0010
0001
1000
0001
1000
0010
0001
0010
1000
0100
0001
,
0100
0001
1000
0001
0010
0100
0010
0001
1000
0010
0100
1000
0100
0001
1000
0001
,
0010
0100
1000
0010
0100
0001
0010
0100
1000
0010
0100
0001
1000
0100
0001
0100
,
1000
0010
0001
0010
1000
0100
0001
0100
1000
0010
0100
0001
0010
0100
1000
0010
,
0100
0001
1000
0001
0010
0100
0010
0001
1000
0001
0110
0000
1001
0000
2222
0000
,
0000
0000
0000
0000
,
3333
0000
0000
0000
;
