#TITLE:Numa Numa Japanese Remix;
#SUBTITLE:;
#ARTIST:Maeken Trance Project;
#TITLETRANSLIT:;
#SUBTITLETRANSLIT:;
#ARTISTTRANSLIT:;
#CREDIT:;
#BANNER:Numa Banner.jpg;
#BACKGROUND:Numa Background.jpg;
#LYRICSPATH:;
#CDTITLE:;
#MUSIC:NumaNumaJapRemix.mp3;
#OFFSET:0.000;
#SAMPLESTART:41.391;
#SAMPLELENGTH:12.000;
#SELECTABLE:YES;
#BPMS:0.000=210.000,101.000=144.960,130.000=210.000,272.000=144.960,303.000=210.000,488.000=144.960,523.000=210.000;
#STOPS:;
#BGCHANGES:;
// cache tags:
#FIRSTBEAT:1.333;
#LASTBEAT:721.000;
#SONGFILENAME:Songs/cedric step/Numa Numa Dance(Japanese remix)/NumaNUmaJapRemix.sm;
#HASMUSIC:1;
#HASBANNER:1;
#MUSICLENGTH:222.516;
// end cache tags

//---------------dance-single - ----------------
#NOTES:
     dance-single:
     :
     Hard:
     5:
     0.725,0.770,0.175,1.000,1.000,832.000,39.000,258.000,0.000,0.000:
0000
0000
0000
0000
2002
0000
0000
3003
0000
0000
0000
0000
,
0000
0010
0000
0000
1000
0000
0000
0200
0000
0301
0000
0000
,
0000
0000
0000
0000
0000
0010
0000
0000
1000
0000
0000
0002
,
0000
0000
0103
0000
0010
0000
1000
0000
0001
0000
0100
0000
,
0000
0001
0000
0000
0200
0000
0010
0300
0001
0010
0000
1000
,
0000
0000
0010
0000
0000
1000
0000
0010
0000
1002
0000
0000
,
0003
0000
0210
0000
0000
0301
0000
0010
0000
1000
0000
0000
,
0001
0000
0000
0200
0000
0000
0310
0000
0001
0000
1000
0000
,
0100
0000
0001
0000
0000
0010
0000
1000
0000
0000
0200
0000
,
0300
0001
0000
1000
0000
0001
0000
0000
1000
0000
0000
0001
,
0000
0000
2000
0001
0000
3100
0000
0010
0000
1000
0000
0001
,
0000
0000
0010
2000
3000
0100
1000
0000
2002
3000
0000
0003
,
2000
0010
0000
3100
0000
0001
0000
0000
0010
0000
0000
0100
,
0000
0000
0002
1000
0000
0103
0000
0001
0000
0100
0000
0000
,
1000
0000
0000
0010
0000
0000
0200
0010
0000
0001
0300
1000
,
0000
0100
0000
1000
0000
0010
0000
0000
1000
0000
0000
0002
,
0000
0000
0013
0000
1000
0000
0001
0000
0100
0000
0000
0010
,
0000
0000
1000
0000
0000
0220
0000
0330
0000
2002
0000
3003
,
0010
0000
0100
0000
0001
0000
1000
0010
0000
1000
0000
0002
,
0100
0000
1003
0000
0100
0000
1000
0000
0010
0000
1000
0000
,
0000
0000
0100
0000
0002
0000
0100
0003
1000
0000
0001
0000
,
0100
0000
0010
0000
0000
1000
0000
0000
0000
0020
0000
0000
,
0100
0030
1000
0000
0001
0000
0100
0000
0000
0010
0000
0000
,
1000
0000
0011
0000
1100
0220
0000
0000
,
0330
0000
0000
0100
0000
0001
1000
0010
0000
0200
0000
0000
,
0300
0000
0002
0000
0000
0003
0010
1000
0001
0000
0100
0000
,
0200
0300
0000
0000
0000
0000
1000
0010
0000
0100
0010
2000
,
3000
0000
0000
0000
0000
0000
0001
1000
0000
0100
0001
0000
,
0100
0010
0000
2002
3003
0000
0010
0000
0000
0100
0002
0000
,
0003
0000
1000
0000
0000
0010
0100
0010
0000
0001
1000
0000
,
0220
0330
0000
0000
0000
2000
0000
0000
3000
0100
0002
0000
,
0003
0000
0010
2000
0000
3000
0000
0000
0020
0200
0330
0000
,
0200
0000
0300
0000
0000
0000
2000
0000
3200
0000
0302
0000
,
0003
0020
0000
0000
0030
0000
0000
0002
0000
0000
0003
0000
,
1000
0000
0010
0000
1000
0000
0010
0000
2200
3300
0000
0010
,
0000
0100
0000
1000
0000
0010
0000
0001
0000
0010
0000
0001
,
0000
2000
3000
0010
0000
0100
0000
0001
0000
1000
0000
0010
,
0000
1000
0000
0001
0000
0100
0000
0000
0001
0000
0020
0000
,
0000
0030
0000
0000
0200
0000
0000
0000
2300
3002
0003
0020
,
0000
0000
0030
0200
0300
0000
0000
0000
0001
1000
0000
0010
,
0000
0100
0000
0000
0010
0000
0002
0000
0100
0003
1000
0000
,
0000
0020
0100
0000
0031
1000
0000
0000
1002
0000
0003
0000
,
0001
0000
0010
0000
0200
0000
0001
0300
0010
0000
0000
2000
,
3000
0002
0000
0000
0000
0203
0300
0000
0000
0000
0000
0000
,
0000
0010
0000
0000
0100
0000
0000
0002
0000
0010
0003
1000
,
0000
0100
0000
0001
0000
0000
0010
0000
0000
1000
0000
0000
,
0200
0000
0010
0300
0001
0000
1000
0000
0100
0000
0001
0000
,
0010
0000
0000
0100
0000
0000
0002
0000
0003
0010
0000
0100
,
0000
0001
0000
1000
0000
0010
0000
0000
1000
0000
0000
0022
,
0033
0000
0000
2200
3300
0001
0000
0100
0000
0000
0010
0000
,
1000
0000
0100
0000
0000
0020
0030
0100
0000
1000
0000
0001
,
0000
0100
0000
0000
0010
0000
1000
0000
0000
0000
0200
0300
,
0000
0010
0000
1000
0000
0001
0000
0100
0000
0000
0010
0000
,
1000
0000
0000
0000
0020
0030
0001
0000
1000
0000
0010
0000
,
0100
0000
0001
0000
0000
0000
0100
0000
0000
2200
3300
0000
,
0022
0033
0100
0000
0001
0000
1000
0000
0100
0000
0000
0001
,
0000
0000
0020
0030
0000
0100
0000
0001
0000
1000
0000
0010
,
0000
0000
0100
0000
0000
0001
0000
0000
2000
3000
0000
0010
,
0000
0100
0000
0001
0000
0100
0000
0010
0000
0000
1000
0000
,
0000
0200
0000
0310
0000
0001
0000
1000
0000
0100
0000
0000
,
0010
0000
0000
0100
0000
0000
0000
2002
3003
0000
0220
0330
,
0000
1000
0000
0100
0000
0001
0000
0100
0000
0000
0010
0000
,
0200
0300
0010
0000
1000
0000
0001
0000
0100
0000
0000
0010
,
0000
0000
1000
0000
0000
0002
0003
0000
0010
0000
1000
0000
,
0001
0000
0100
0000
0010
0000
0000
1000
0000
0000
0200
0300
,
0000
0001
0000
0100
0000
0010
0000
1000
0000
0000
0001
0000
,
0000
0100
0000
0000
2002
3003
0000
0220
0330
0000
0000
0100
,
0000
0010
0000
1000
0000
0000
0100
0000
0010
0000
1000
0000
,
0001
0000
0001
0000
0010
0000
0100
0000
0000
1002
0000
0003
,
0000
0000
0000
1000
0000
0000
0010
0000
0000
0100
0000
0020
,
0000
0000
0000
0130
0000
0000
0002
0000
0003
2000
0000
3000
,
0000
0000
0000
0000
0001
0000
1000
0000
0020
0000
0030
0000
,
2100
0000
3100
0000
0000
0010
0000
0100
0000
0220
0000
0330
,
0000
0000
0000
0000
1000
0010
0000
0000
0200
0000
0000
0320
,
0000
0000
0000
0000
0000
0000
0030
0200
0300
0000
0002
0003
,
2000
3000
0000
0000
1000
0000
0001
0000
0110
0000
0000
0000
,
0000
1000
0000
0000
0000
0100
0000
0000
0010
0000
0000
2000
,
3000
0000
0000
0200
0300
0001
0000
1000
0000
0010
1000
0000
,
0001
0000
0200
1000
0300
0000
0020
1000
0000
0000
0030
2000
,
0000
0000
3000
0001
0000
0200
0000
0000
0302
0000
0000
0013
,
0000
0000
2000
0000
3010
0000
0001
0000
1000
0000
0000
0010
,
0000
0000
1000
0000
0000
0002
0000
0003
0000
0000
0000
0010
,
0000
0000
0200
0000
0000
0000
0310
0000
0000
0001
0000
0000
,
0000
0200
0300
0001
0000
1000
0000
0010
0000
0100
0000
1000
,
0000
0000
0001
0000
0000
2000
3000
0000
0000
0020
0000
0000
,
0000
0000
0000
0000
0030
0000
0000
0000
0200
0300
0000
0000
,
2000
3000
0000
0002
0003
0000
0000
0000
0020
0030
0000
2000
,
3000
0000
0000
0000
0000
0000
0000
0000
0002
0000
0000
0000
0003
0000
0000
0000
0000
0000
2020
0000
0000
0000
0000
0000
0000
0000
0000
0000
0000
0000
0000
0000
0000
3030
0000
0000
0000
0000
0000
0000
0000
0000
0000
0000
0100
0000
0000
0000
,
0000
0001
1000
0000
0000
0000
0000
0000
0010
1000
0000
0001
,
0010
0001
1000
0010
0000
0000
0100
1000
0000
0000
0000
0000
,
0010
0001
0010
0000
0100
0000
0000
0000
0000
0010
1000
0000
,
0100
0000
0000
0000
0000
0000
0010
0000
0100
0000
0010
0000
,
0000
1000
0000
0001
0100
0000
0010
0000
0000
0000
0000
0100
,
0000
1000
0000
0010
0000
0000
0000
0100
0000
1000
0000
0010
,
0000
0000
0000
0000
0100
0000
0000
0010
0000
0010
0000
0001
,
1000
0000
0010
0100
0000
0010
0000
0000
0000
1000
0000
0001
,
0000
0010
0000
0000
0000
0000
0000
0100
0000
1000
0000
0010
,
0000
0000
0000
0000
0001
0000
0010
0000
1000
0200
0000
0000
,
0000
1000
0000
0310
0000
0001
0000
1000
0000
0010
1000
1000
,
0000
0000
0000
0200
0300
0001
1000
0000
0020
0000
0030
0100
,
0000
0001
0000
2000
0000
0000
3000
0000
0020
0000
0000
0000
,
1030
0000
0002
0000
0000
0003
0010
0000
1000
0000
0002
0000
,
0003
0020
0030
0020
,
0000
0130
1000
0100
0000
0000
1000
0001
0000
0100
0010
0000
,
1000
0000
0002
0000
0010
1003
1000
0000
0001
0000
0000
0000
,
0010
0000
1000
0002
0000
0003
0000
0100
0000
1000
0000
0020
,
0000
0000
0030
0000
0000
0200
0000
0000
0000
1000
0300
0002
,
0000
0000
0003
0010
0000
0001
0000
0200
0000
0000
0000
0020
,
0300
0000
0000
0030
0000
2000
0000
0000
3000
0000
0010
0000
,
0001
0010
0000
1000
0001
0100
0000
0000
1000
0000
0020
0000
,
0000
0030
0000
0100
0010
0000
0000
0000
0000
0000
2000
3002
,
0003
0000
0020
0000
0030
0000
0000
0200
0300
2000
3000
0002
,
0003
0000
0020
0000
0000
0000
2030
3000
0000
0200
0000
0300
,
0000
0000
0010
0000
0001
0000
0010
0000
0000
0000
2000
0000
,
0000
0000
3020
0000
0000
0000
0030
0000
0100
1000
0000
0001
,
0000
0010
0000
0001
0000
0000
0010
0000
1000
0000
0000
0000
,
0000
0000
1000
0100
0000
0010
0000
0100
0000
0100
0000
0002
,
0000
0003
0000
0100
1000
0000
0020
0000
0030
0000
0000
0200
,
0000
0000
0000
0000
0310
0000
0002
0000
0000
0003
0000
0010
,
0200
0300
0000
0000
0020
0000
0000
0030
0000
0200
0000
0000
,
0300
2000
0000
0010
3000
0000
0010
0000
0001
0000
0010
0000
,
0100
0010
0000
0100
0002
0000
0000
0203
0000
0000
0000
0000
,
0300
0000
1000
0000
0001
0000
0010
0000
1000
0100
0000
0010
,
0000
0010
0000
0001
1000
0000
0100
0000
0020
0000
0000
0030
,
0000
0000
1000
0100
0000
0010
0100
0000
0002
0000
2000
3000
,
0013
0020
0000
0230
0000
0002
0300
0003
2020
0000
0000
3030
,
0000
0000
0000
0002
0003
0010
0000
0100
0000
0010
0000
1000
,
0000
0100
0000
0001
0010
0001
0000
2000
0000
3010
0000
0001
,
0000
1000
0000
0000
0002
0003
0020
2000
3000
0200
0030
0000
,
0300
0000
0000
1000
0000
0001
0000
0000
0100
0010
0000
0100
,
0200
0000
0000
0320
0000
0000
0000
0030
0000
1000
0000
0001
,
0000
1000
0000
0001
0000
1000
0000
0001
0100
0000
0020
0000
,
0030
0000
0000
1000
0000
0100
0000
0002
0000
0000
0003
0020
,
0000
0000
0000
1000
0030
0000
0200
0000
0000
0310
0000
0000
,
0001
0000
2000
0000
0000
3000
0000
0000
0020
0000
0000
0000
,
0230
0000
0000
0001
0300
1000
0001
0000
0100
0001
0000
1000
,
0020
0000
0030
0200
0001
2300
0000
0000
3001
0000
0100
0000
,
0010
0000
0000
1000
0000
0100
0000
0020
0000
0030
0000
0001
,
0000
1000
0000
0200
0000
0300
0000
0000
0020
0000
0000
0000
,
1030
0000
0000
0102
0000
0000
0003
0000
0010
0000
0002
0000
,
0200
0003
0000
0320
0000
0000
0030
0000
2000
0000
0000
0010
,
3000
0000
0000
0000
0100
0001
0000
0000
0010
1000
0000
0000
,
0200
0000
0000
0000
0320
0000
0000
0000
0030
0000
2002
0000
0000
0000
0000
3003
,
0000
0000
0000
2000
0000
0000
0000
0000
0000
0000
0000
0000
0000
0000
0000
3000
0000
0000
0000
0000
0000
0000
0020
0000
,
0030
0000
0202
0303
0000
0000
0000
1000
0000
0001
0000
0200
,
0000
0300
0000
0000
0010
0000
1000
0000
0002
0000
0003
0200
,
0000
0000
0000
0300
0010
0000
2000
0000
0000
3000
0000
0010
,
0100
0000
0000
0002
0000
0000
0003
2000
0000
0000
3000
0020
,
0000
0030
0000
0000
0100
0000
0000
1000
0000
0001
0000
1000
,
0000
0010
0000
0002
0000
0003
0200
0000
0010
0300
0001
0000
,
1000
0000
0010
0000
0200
0000
0300
0000
0020
0000
0000
0030
,
0000
2000
0000
0000
3000
0100
0200
0000
0020
0300
0000
0000
,
0030
1000
0000
0000
0002
0000
0000
0000
0013
0020
0000
0000
,
0030
0200
0000
0000
0000
2300
0000
0000
3000
0000
0010
0000
,
0020
0000
0000
0000
0000
1030
0100
0000
0001
0010
0000
2000
,
0000
3000
0002
0010
0000
0103
0000
0001
0000
1000
0000
0010
,
0000
0100
0000
0000
0010
0000
0001
0000
0010
0000
0001
0000
,
0010
0000
0100
0000
1000
0000
0020
0000
0000
0030
0000
2000
,
3000
0000
0002
0003
0100
0000
0001
0000
1000
0000
0100
0000
,
0001
0000
0010
0000
0100
0000
0010
0000
0100
0000
0010
0000
,
0100
0000
0010
0000
0100
0000
2000
3000
0000
0000
0200
0300
,
0000
0020
0030
0001
0000
0100
0000
0010
0000
1000
0000
0001
,
0000
0100
0000
0010
0000
0001
0000
0010
0000
0100
0000
1000
,
0000
0100
0000
0000
0002
0000
0003
0000
0220
0330
0000
2002
,
0000
3003
0000
0010
0000
0100
0000
0001
0000
1000
0000
0010
,
0000
1000
0000
0001
0000
1000
0000
0001
0000
1000
0000
0001
,
0000
0000
0020
0000
0030
0000
0000
2000
0000
3000
0020
0000
,
0130
0000
0001
0000
1000
0000
0001
0000
0100
0000
1000
0000
,
0100
0000
0001
0000
0100
0000
0001
0000
0100
0000
0001
0000
,
0100
0000
0020
0000
0030
0000
0020
0030
0000
0200
0300
0010
,
0000
0001
0000
1000
0000
0100
0000
0001
0000
0010
0000
0001
,
0000
0010
0000
0001
0000
0010
0000
0001
0000
0010
0000
0001
,
0000
0200
0300
0000
0210
0000
0300
0000
1002
0000
0013
0000
,
0100
0000
0001
0000
1000
0000
0100
0000
0010
0000
0001
0000
,
0010
0000
0100
0000
1000
0000
0100
0000
0010
0000
0000
0200
,
0000
0300
0000
0012
0000
0003
1200
0000
0310
0000
0001
0000
,
1000
0000
0010
0000
0100
0000
0001
0000
0100
0000
0001
0000
,
0100
0000
0001
0000
0100
0000
0001
0000
0100
0000
0020
0000
,
0030
0000
0020
0030
0000
0002
0003
0000
0000
0220
0330
0000
,
2002
3003
0000
0220
0000
0000
0000
0000
0000
0000
0000
0000
,
0000
0330
0000
0000
;

//---------------dance-single - Copied from----------------
#NOTES:
     dance-single:
     Copied from:
     Challenge:
     7:
     0.787,0.932,0.324,1.000,1.000,874.000,72.000,280.000,0.000,1.000:
0000
0000
0000
0000
2002
0000
0000
3003
0000
0000
0000
0000
,
0000
0010
0000
0000
1000
0000
0000
0200
0000
0301
0000
0000
,
0000
0000
0000
0000
0000
0010
0000
0000
1000
0000
0000
0002
,
0000
0000
0103
0000
0010
0000
1000
0000
0001
0000
0100
0000
,
0000
0001
0000
0000
0200
0000
0010
0300
0001
0010
0000
1000
,
0000
0000
0010
0000
0000
1000
0000
0010
0000
1002
0000
0000
,
0003
0000
0210
0000
0000
0301
0000
0010
0000
1000
0000
0000
,
0001
0000
0000
0200
0000
0000
0310
0000
0001
0000
1000
0000
,
0100
0000
0001
0000
0000
0010
0000
1000
0000
0000
0220
0000
,
0330
0001
0000
1000
0000
0001
0000
0000
1000
0000
0000
0001
,
0000
0000
2000
0001
0000
3100
0000
0010
0000
1000
0000
0001
,
0000
0000
0010
1000
1000
0100
1000
0000
1002
1000
0000
0003
,
2000
0010
0000
3100
0000
0001
0000
0000
0010
0000
0000
0100
,
0000
0000
0002
1000
0000
0103
0000
0001
0000
0100
0000
0000
,
1000
0000
0000
0010
0000
0000
0200
0010
0000
0001
0300
1000
,
0000
0100
0000
1000
0000
0010
0000
0000
1000
0000
0000
0002
,
0000
0000
0013
0000
1000
0000
0001
0000
0100
0000
0000
0010
,
0000
0000
1000
0000
0000
0220
0000
0330
0000
2002
0000
3003
,
0010
0000
0100
0000
0001
0000
1000
0010
0000
1000
0000
0002
,
0100
0000
1003
0000
0100
0000
1000
0000
0010
0000
1000
0000
,
0000
0000
0100
0000
0002
0000
0100
0003
1000
0000
0001
0000
,
0100
0000
0010
0000
0000
1000
0000
0000
0000
0020
0000
0000
,
0100
0030
1000
0000
0001
0000
0100
0000
0000
0010
0000
0000
,
1000
0000
0000
0000
0011
0000
0000
0000
1100
0000
0100
0010
0001
0010
0100
1000
,
0000
0000
0000
0100
0000
0001
1000
0010
0000
0200
0000
0000
,
0300
0000
0002
0000
0000
0003
0010
1000
0001
0000
0100
0000
,
0220
0330
0000
0000
0000
0000
1000
0010
0000
0100
0010
2002
,
3003
0000
0000
0000
0000
0000
0001
1000
0000
0100
0001
0000
,
0100
0010
0000
2002
3003
0000
0010
0000
0000
0100
0002
0000
,
0003
0000
1000
0000
0000
0010
0100
0010
0000
0001
1000
0000
,
0220
0330
0000
0000
0000
2000
0000
0000
3000
0100
0002
0000
,
0003
0000
0010
2000
0000
3000
0000
0000
0020
0200
0330
0000
,
0200
0000
0300
0000
0000
0000
2000
0000
3200
0000
0302
0000
,
0003
0020
0000
0000
0030
0000
0000
0002
0000
0000
0003
0000
,
1000
0000
0010
0000
1000
0000
0010
0000
2200
3300
0000
0010
,
0000
0100
0000
1000
0000
0010
0000
0001
0000
0010
0000
0001
,
0000
2200
3300
0010
0000
0100
0000
0001
0000
1000
0000
0010
,
0000
1000
0000
0001
0000
0100
0000
0000
0001
0000
0020
0000
,
0000
0030
0000
0000
0200
0000
0000
0000
2300
3002
0003
0020
,
0000
0000
0030
0200
0300
0000
0000
0000
0001
1000
0000
0010
,
0000
0100
0000
0000
0010
0000
0002
0000
0100
0003
1000
0000
,
0000
0020
0100
0000
0031
1000
0000
0000
1002
0000
0003
0000
,
0001
0000
0010
0000
1200
0000
0001
0300
0010
0000
0000
2000
,
3000
0000
0000
0000
0002
0000
0000
0000
0000
0000
0000
0000
0000
0000
0000
0000
0000
0000
0000
0000
0203
0000
0000
0000
0300
0000
0000
0000
0000
0000
0000
0000
0000
0000
0000
0000
0001
0000
0000
0010
0000
0000
0100
0000
0000
1000
0000
0000
,
0100
0010
0000
0000
0100
0000
0000
0002
0000
0010
0003
1000
,
0000
0100
0000
0001
0000
0000
0010
0000
0000
1000
0000
0000
,
0200
0000
0010
0300
0001
0000
1000
0000
0100
0000
0001
0000
,
0010
0000
0000
0100
0000
0000
2002
0000
3003
0010
0000
0100
,
0000
0001
0000
1000
0000
0010
0000
0000
1000
0000
0000
0022
,
0033
0000
0000
2200
3300
0001
0000
0100
0000
0000
0010
0000
,
1000
0000
0100
0000
0000
0022
0033
0100
0000
1000
0000
0001
,
0000
0100
0000
0000
0010
0000
1000
0000
0000
0000
0202
0303
,
0000
0010
0000
1000
0000
0001
0000
0100
0000
0000
0010
0000
,
1000
0000
0000
0000
0220
0330
0001
0000
1000
0000
0010
0000
,
0100
0000
0001
0000
0000
0000
0100
0000
0000
2200
3300
0000
,
0022
0033
0100
0000
0001
0000
1000
0000
0100
0000
0000
0001
,
0000
0000
2020
3030
0000
0100
0000
0001
0000
1000
0000
0010
,
0000
0000
0100
0000
0000
0001
0000
0000
2002
3003
0000
0010
,
0000
0100
0000
0001
0000
0100
0000
0010
0000
0000
1000
0000
,
0000
0200
0000
0310
0000
0001
0000
1000
0000
0100
0000
0000
,
0010
0000
0000
0100
0000
0000
0000
2002
3003
0000
0220
0330
,
0000
1000
0000
0100
0000
0001
0000
0100
0000
0000
0010
0000
,
2200
3300
0010
0000
1000
0000
0001
0000
0100
0000
0000
0010
,
0000
0000
1000
0000
0000
0202
0303
0000
0010
0000
1000
0000
,
0001
0000
0100
0000
0010
0000
0000
1000
0000
0000
0220
0330
,
0000
0001
0000
0100
0000
0010
0000
1000
0000
0000
0001
0000
,
0000
0000
0000
0000
0100
0000
0000
0000
0000
0000
0000
0000
0000
0000
0000
0000
2002
0000
0000
0000
3003
0000
0000
0000
0000
0000
0000
0000
0220
0000
0000
0000
0330
0000
0000
0000
0001
0000
0000
0010
0000
0000
0100
0000
0000
1000
0000
0000
,
0100
0000
0000
0010
0000
0000
0001
0000
0000
0010
0000
0000
0100
0000
0000
1000
0000
0000
0000
0000
0000
0000
0000
0000
0100
0000
0000
0000
0000
0000
0000
0000
0010
0000
0000
0000
0000
0000
0000
0000
1000
0000
0000
0000
0000
0000
0000
0000
,
0001
0000
0001
0000
0010
0000
0100
0000
0000
1002
0000
0003
,
0000
0000
0000
1000
0000
0000
0010
0000
0000
0100
0000
0020
,
0000
0000
0000
0130
0000
0000
0002
0000
0003
2000
0000
3000
,
0000
0000
0000
0000
0001
0000
1000
0000
0020
0000
0030
0000
,
2100
0000
3100
0000
0000
0010
0000
0100
0000
0220
0000
0330
,
0000
0000
0000
0000
1000
0010
0000
0000
0200
0000
0000
0320
,
0000
0000
0000
0000
0000
0000
0030
0200
0300
0000
0002
0003
,
2000
3000
0000
0000
1010
0000
0101
0000
0110
0000
0000
0000
,
0000
1000
0000
0000
0000
0100
0000
0000
0010
0000
0000
2002
,
3003
0000
0000
0220
0330
0001
0000
1000
0000
0010
1000
0000
,
0001
0000
0200
1000
0300
0000
0020
1000
0000
0001
0030
2010
,
0000
0100
3000
0001
0000
0200
0000
0000
0302
0000
0000
0013
,
0000
0000
2200
0000
3310
0000
0001
0000
1000
0000
0000
0010
,
0000
0000
1000
0000
0000
0102
0000
0003
0000
0000
0000
0010
,
0000
0000
0200
0000
0000
0000
0310
0000
0000
0001
0000
0000
,
0000
0220
0330
0001
0000
1000
0000
0010
0000
0100
0000
1000
,
0000
0000
0001
0000
0000
2200
3300
0000
0000
0020
0000
0000
,
0000
0000
0000
0000
0030
0000
0000
0000
0200
0300
0000
0000
,
2000
3000
0000
0002
0003
0000
0000
0000
0020
0030
0000
2000
,
3000
0000
0000
0000
0000
0000
0000
0000
0002
0000
0000
0000
0003
0000
0000
0000
0000
0000
1000
0000
0000
0100
0000
0000
0010
0000
0000
0001
0000
0000
0010
0000
0000
0100
0000
0000
1000
0000
0000
0000
0000
0000
0000
0000
0100
0000
0000
0000
,
0000
0001
1000
0000
0000
0000
0000
0000
0010
1000
0000
0001
,
0010
0001
1000
0010
0000
0000
0100
1000
0000
0000
0000
0000
,
0010
0001
0010
0000
0100
0000
0000
0000
0000
0010
1000
0000
,
0100
0000
0000
0000
0000
0000
0010
0000
0100
0000
0010
0000
,
0000
1000
0000
0001
0100
0000
0010
0000
0000
0000
0000
0100
,
0000
1000
0000
0010
0000
0000
0000
0100
0000
1000
0000
0010
,
0000
0000
0000
0000
0100
0000
0000
0010
0000
0010
0000
0001
,
1000
0000
0010
0100
0000
0010
0000
0000
0000
1000
0000
0001
,
0000
0010
0000
0000
0000
0010
0000
0100
0000
1000
0000
0010
,
0000
0000
0000
0000
0001
0000
0010
0000
1000
0200
0000
0000
,
0000
1000
0000
0010
0000
0001
0000
1000
0000
0010
1000
1000
,
0300
0000
0000
0200
0300
0001
1000
0000
0020
0000
0030
0100
,
0000
0001
0000
2000
0000
0000
3000
0000
0020
0000
0000
0000
,
1030
0000
0002
0000
0000
0003
0010
0000
1000
0000
0002
0000
,
0003
0020
0030
0020
,
0000
0130
1000
0100
0000
0000
1000
0001
0000
0100
0010
0000
,
1000
0000
0002
0000
0010
1003
1000
0000
0001
0000
0000
0000
,
0010
0000
1000
0002
0000
0003
0000
0100
0000
1000
0000
0020
,
0000
0000
0030
0000
0000
0200
0000
0000
0000
1000
0300
0002
,
0000
0000
0003
0010
0000
0001
0000
0200
0000
0000
0000
0020
,
0300
0000
0000
0030
0000
2000
0000
0000
3000
0000
0010
0000
,
0001
0010
0000
1000
0001
0100
0000
0000
1000
0000
0020
0000
,
0000
0030
0000
0101
0110
0000
0000
0000
0000
0000
2000
3002
,
0003
0000
0020
0000
0030
0000
0000
0200
0300
2000
3000
0002
,
0003
0000
0020
0000
0000
0000
2030
3000
0000
0200
0000
0300
,
0000
0010
0020
0000
0000
0001
0030
0000
0000
0000
2000
0000
,
0000
0000
3020
0000
0000
0000
0030
0000
0100
1000
0100
0000
,
0000
0010
0000
1000
0001
0000
0100
0000
0020
0000
0000
0030
,
0000
0000
1000
0100
0000
0010
0000
0100
0000
0100
0000
0002
,
0000
0003
0000
0100
1000
0000
0020
0000
0030
0000
0000
0200
,
0000
0000
0000
0000
0310
0000
0002
0000
0000
0003
0000
0010
,
0200
0300
0000
0000
0020
0000
0000
0030
0000
0200
0000
0000
,
0300
2000
0000
0010
3000
0000
0010
0000
0001
0000
0010
0000
,
0100
0000
0000
0000
0010
0000
0000
0000
0000
0000
0000
0000
0100
0000
0000
0000
0002
0000
0000
0000
0000
0000
0000
0000
0000
0000
0000
0000
0203
0000
0000
0000
0000
0000
0000
0000
0300
0000
0000
1000
0000
0000
0100
0000
0000
0010
0000
0000
,
1001
0000
1000
0000
0001
0000
0010
0000
1000
0100
0000
0010
,
0000
0010
0000
0001
1000
0000
0100
0000
0020
0000
0000
0030
,
0000
0000
1000
0100
0000
0010
0100
0000
0002
0000
2000
3000
,
0013
0020
0000
0230
0000
0002
0300
0003
2020
0000
0000
3030
,
0000
0000
0000
0002
0003
0010
0000
0100
0000
0010
0000
1000
,
0000
0100
0000
0001
0010
0001
0000
2000
0000
3010
0000
0001
,
0000
1000
0000
0000
0002
0003
0020
2000
3000
0200
0030
0000
,
0300
0000
0000
1000
0000
0001
0000
0000
0100
0010
0000
0100
,
0200
0000
0000
0320
0000
0000
0000
0030
0000
1000
0000
0001
,
0000
1000
0000
0001
0000
1000
0000
0001
0100
0000
0020
0000
,
0030
0000
0000
1000
0000
0100
0000
0002
0000
0000
0003
0020
,
0000
0000
0000
1000
0030
0000
0200
0000
0000
0310
0000
0000
,
0001
0000
2000
0000
0000
3000
0000
0000
0020
0000
0000
0000
,
0230
0000
0000
0001
1300
0001
1000
0000
0100
0001
0000
1000
,
0020
0000
0030
0200
0001
2300
0000
0000
3001
0000
0100
0000
,
0010
0000
0000
1000
0000
0100
0000
0020
0000
0030
0000
0001
,
0000
1000
0000
0200
0000
0300
0000
0000
0020
0000
0000
0000
,
1030
0000
0000
0102
0000
0000
0003
0000
0010
0000
0002
0000
,
0200
0003
0000
0320
0000
0000
0030
0000
2000
0000
0000
0010
,
3000
0000
0000
0000
0100
0001
0000
0000
0010
1000
0000
0000
,
0200
0000
0000
0000
0320
0000
0000
0000
0030
0001
0010
0100
1000
0100
0010
0001
,
0010
0000
0000
0100
0000
0000
2000
0000
0000
0000
0000
0000
0000
0000
0000
0000
0000
0000
0000
0000
0000
0000
0000
0000
0000
0000
0000
0000
0000
0000
3000
0000
0000
0000
0000
0000
0000
0000
0000
0000
0000
0000
0000
0000
0020
0000
0000
0000
,
0030
0000
0202
0303
0000
0000
0000
1000
0000
0001
0000
0200
,
0000
0300
0000
0000
0010
0000
1000
0000
0002
0000
0003
0200
,
0000
0000
0000
0300
0010
0000
2000
0000
0000
3000
0000
0010
,
0100
0000
0000
0002
0000
0000
0003
2000
0000
0000
3000
0020
,
0000
0030
0000
0000
0100
0000
0000
1000
0001
1000
0000
0001
,
0000
0010
0000
0002
0000
0003
0200
0000
0010
0300
0001
0000
,
1000
0000
0010
0000
0200
0000
0300
0000
0020
0000
0000
0030
,
0000
2000
0000
0000
3000
0100
0200
0000
0020
0300
0000
0000
,
0030
1000
0000
0000
0002
0000
0000
0000
0013
0020
0000
0000
,
0030
0200
0000
0000
0000
2300
0000
0000
3000
0000
0010
0000
,
0020
0000
0000
0000
0000
1030
0100
0000
0001
0010
0000
2000
,
0000
3000
0002
0010
0000
0103
0000
0001
0000
1000
0000
0010
,
0000
0100
0000
0000
0010
0000
0001
0000
0010
0000
0001
0000
,
0010
0000
0100
0000
1000
0000
0020
0000
0000
0030
0000
2200
,
3300
0000
0022
0033
0100
0000
0001
0000
1000
0000
0100
0000
,
0001
0000
0010
0000
0100
0000
0010
0000
0100
0000
0010
0000
,
0100
0000
0010
0000
0100
0000
2000
3000
0000
0000
0202
0303
,
0000
2020
3030
0001
0000
0100
0000
0010
0000
1000
0000
0001
,
0000
0100
0000
0010
0000
0001
0000
0010
0000
0100
0000
1000
,
0000
0100
0000
0000
0002
0000
0003
0000
0220
0330
0000
2002
,
0000
3003
0000
0010
0000
0100
0000
0001
0000
1000
0000
0010
,
0000
1000
0000
0001
0000
1000
0000
0001
0000
1000
0000
0001
,
0000
0000
0020
0000
0030
0000
0000
2002
0000
3003
0220
0000
,
0330
0000
0001
0000
1000
0000
0010
0000
0100
0000
1000
0000
,
0100
0000
0001
0000
0100
0000
0001
0000
0100
0000
0001
0000
,
0100
0000
0020
0000
0030
0000
0022
0033
0000
2200
3300
0010
,
0000
0001
0000
1000
0000
0100
0000
0001
0000
0010
0000
0001
,
0000
0010
0000
0001
0000
0010
0000
0001
0000
0010
0000
0001
,
0000
0200
0300
0000
0210
0000
0300
0000
1002
0000
0013
0000
,
0100
0000
0001
0000
1000
0000
0100
0000
0010
0000
0001
0000
,
0010
0000
0100
0000
1000
0000
0100
0000
0010
0000
0000
0200
,
0000
0300
0000
0012
0000
0003
1200
0000
0310
0000
0001
0000
,
1000
0000
0010
0000
0100
0000
0001
0000
0100
0000
0001
0000
,
0100
0000
0001
0000
0100
0000
0001
0000
0100
0000
0020
0000
,
0030
0000
2020
3030
0000
0202
0303
0000
0000
0220
0330
0000
,
2002
3003
0000
0220
0000
0000
0000
0000
0000
0000
0000
0000
,
0000
0330
0000
0000
;
