#TITLE:Wizard Stage;
#SUBTITLE:Wizards and Warriors III;
#ARTIST:David Wise;
#TITLETRANSLIT:;
#SUBTITLETRANSLIT:;
#ARTISTTRANSLIT:;
#CREDIT:;
#BANNER:Wizard Stage-banner.png;
#BACKGROUND:Wizard Stage-bg.png;
#LYRICSPATH:;
#CDTITLE:CDtitle1.png;
#MUSIC:05_-_wizard_stage.mp3;
#OFFSET:-0.100;
#SAMPLESTART:25.820;
#SAMPLELENGTH:11.500;
#SELECTABLE:YES;
#BPMS:0.000=186.600;
#STOPS:;
#BGCHANGES:;
// cache tags:
#FIRSTBEAT:0.000;
#LASTBEAT:383.500;
#SONGFILENAME:Songs/KBU/Wizard Stage/Wizard Stage.sm;
#HASMUSIC:1;
#HASBANNER:1;
#MUSICLENGTH:149.733;
// end cache tags

//---------------dance-single - Blank----------------
#NOTES:
     dance-single:
     Blank:
     Hard:
     11:
     0.985,1.000,0.374,0.000,0.988,976.000,56.000,0.000,0.000,0.000:
1000
0100
0010
0001
1000
0001
0010
0100
1000
0100
0010
0001
1000
0001
0010
0100
,
1000
0010
0001
1000
0100
1000
0001
0010
0100
0010
0001
1000
0100
1000
0001
0010
,
0100
0010
1000
0100
0010
0100
1000
0001
0010
0001
1000
0100
0010
0100
1000
0001
,
0010
1000
0100
0010
0001
0010
0100
1000
0001
1000
0100
0010
0001
0010
0100
0010
,
1000
0100
0010
0001
1000
0001
0010
0100
1000
0100
0010
0001
1000
0001
0010
0100
,
1000
0010
0001
1000
0100
1000
0001
0010
0100
0010
0001
1000
0100
1000
0001
0010
,
0100
0010
1000
0100
0010
0100
1000
0001
0010
0001
1000
0100
0010
0100
1000
0001
,
0010
1000
0100
0010
0001
0010
0100
1000
0001
1000
0100
0010
0001
0010
0100
0010
,
1000
0100
0010
0001
0100
1000
0001
0010
1000
0100
0010
0001
0100
1000
0001
0010
,
1000
0100
0010
0001
0100
1000
0001
0010
1000
0100
0010
0001
0100
1000
0001
0010
,
1000
0000
1100
0010
1001
0010
1100
0000
,
1010
0000
1000
0010
1010
0100
1100
0000
,
1010
0000
0000
0000
1000
0000
0000
0000
1000
0100
0010
0001
1000
0001
0010
0100
,
1000
0100
0010
0001
1000
0001
0010
0100
1000
0010
0001
1000
0100
1000
0001
0010
,
1001
0000
1001
0001
1001
0010
1000
0100
,
1010
0000
1010
0010
1010
0100
1000
1000
,
1100
0000
0000
0000
1000
0000
0000
0000
0100
0010
1000
0100
0010
0100
1000
0001
,
0010
0001
1000
0100
0010
0100
1000
0001
0010
1000
0100
0010
0001
0010
0100
1000
,
0100
0010
0001
1000
0100
1000
0001
0010
,
0100
0010
0001
1000
0100
1000
0001
0010
,
1000
0100
0010
0001
1000
0001
0010
0100
,
1000
0010
1000
0100
1000
0100
0010
0001
,
1000
0000
1100
0010
1001
0010
1100
0000
,
1010
0000
1000
0010
1010
0100
1100
0000
,
1010
0000
0000
0000
1000
0000
0000
0000
1000
0100
0010
0001
1000
0001
0010
0100
,
1000
0100
0010
0001
1000
0001
0010
0100
1000
0010
0001
1000
0100
1000
0001
0010
,
1001
0000
1001
0001
1001
0010
1000
0100
,
1010
0000
1010
0010
1010
0100
1000
1000
,
1100
0000
0000
0000
1000
0000
0000
0000
0100
0010
1000
0100
0010
0100
1000
0001
,
0010
0001
1000
0100
0010
0100
1000
0001
0010
1000
0100
0010
0001
0010
0100
1000
,
0100
0010
0001
1000
0100
1000
0001
0010
,
0100
0010
0001
1000
0100
1000
0001
0010
,
1000
0100
0010
0001
1000
0001
0010
0100
,
1000
0010
1000
0100
1000
0100
0010
0001
,
0010
0001
1000
0100
0010
0100
1000
0001
,
0010
0001
1000
0100
0010
0100
1000
0001
,
0100
0010
0001
1000
0100
1000
0001
0010
,
0100
0001
0100
0010
0100
0010
0001
1000
,
0000
0000
0010
0000
0100
0010
0000
0010
0100
0000
0001
0000
0010
0000
0000
0000
,
1000
0000
0010
0000
0100
0010
0000
0010
0100
0000
0001
0000
1000
0000
0000
0000
,
0000
0000
0100
0000
0010
0100
0000
0100
0010
0000
1000
0000
0100
0000
0000
0000
,
0001
0000
0100
0000
0010
0100
0000
0100
0010
0000
0100
0000
1000
0000
0000
0000
,
0000
0000
0010
0000
0100
0010
0000
0010
0100
0000
0001
0000
0010
0000
0000
0000
,
1000
0000
0010
0000
0100
0010
0000
0010
0100
0000
0001
0000
1000
0000
0000
0000
,
0000
0000
0100
0000
0010
0100
0000
0100
0010
0000
1000
0000
0100
0000
0000
0000
,
0001
0000
0100
0000
0010
0100
0000
0100
0010
0000
0100
0000
1000
0000
0000
0000
,
0000
0000
1000
0000
0010
1000
0000
1000
0010
0000
0100
0000
1000
0000
0000
0000
,
0001
0000
1000
0000
0010
1000
0000
1000
0010
0000
0100
0000
0001
0000
1000
0000
,
0001
0010
0100
1000
0001
1000
0100
0010
0001
0010
0100
1000
0001
1000
0100
0010
,
0001
0100
1000
0001
0010
0001
1000
0100
0010
0100
1000
0001
0010
0001
1000
0100
,
0010
0100
0001
0010
0100
0010
0001
1000
0100
1000
0001
0010
0100
0010
0001
1000
,
0100
0001
0010
0100
1000
0100
0010
0001
1000
0001
0010
0100
1000
0100
0010
0100
,
0001
0010
0100
1000
0001
1000
0100
0010
0001
0010
0100
1000
0001
1000
0100
0010
,
0001
0100
1000
0001
0010
0001
1000
0100
0010
0100
1000
0001
0010
0001
1000
0100
,
0010
0100
0001
0010
0100
0010
0001
1000
0100
1000
0001
0010
0100
0010
0001
1000
,
0100
0001
0010
0100
1000
0100
0010
0001
1000
0001
0010
0100
1000
0100
0010
0100
,
0001
0010
0100
1000
0010
0001
1000
0100
0001
0010
0100
1000
0010
0001
1000
0100
,
0001
0010
0100
1000
0010
0001
1000
0100
0001
0010
0100
1000
0010
0001
1000
0100
,
0001
0000
0011
0100
1001
0100
0011
0000
,
0101
0000
0001
0100
0101
0010
0011
0000
,
0101
0000
0000
0000
0001
0000
0000
0000
0001
0010
0100
1000
0001
1000
0100
0010
,
0001
0010
0100
1000
0001
1000
0100
0010
0001
0100
1000
0001
0010
0001
1000
0100
,
1001
0000
1001
1000
1001
0100
0001
0010
,
0101
0000
0101
0100
0101
0010
0001
0001
,
0011
0000
0000
0000
0001
0000
0000
0000
0010
0100
0001
0010
0100
0010
0001
1000
,
0100
1000
0001
0010
0100
0010
0001
1000
0100
0001
0010
0100
1000
0100
0010
0001
,
0010
0100
1000
0001
0010
0001
1000
0100
,
0010
0100
1000
0001
0010
0001
1000
0100
,
0001
0010
0100
1000
0001
1000
0100
0010
,
0001
0100
0001
0010
0001
0010
0100
1000
,
0001
0000
0011
0100
1001
0100
0011
0000
,
0101
0000
0001
0100
0101
0010
0011
0000
,
0101
0000
0000
0000
0001
0000
0000
0000
0001
0010
0100
1000
0001
1000
0100
0010
,
0001
0010
0100
1000
0001
1000
0100
0010
0001
0100
1000
0001
0010
0001
1000
0100
,
1001
0000
1001
1000
1001
0100
0001
0010
,
0101
0000
0101
0100
0101
0010
0001
0001
,
0011
0000
0000
0000
0001
0000
0000
0000
0010
0100
0001
0010
0100
0010
0001
1000
,
0100
1000
0001
0010
0100
0010
0001
1000
0100
0001
0010
0100
1000
0100
0010
0001
,
0010
0100
1000
0001
0010
0001
1000
0100
,
0010
0100
1000
0001
0010
0001
1000
0100
,
0001
0010
0100
1000
0001
1000
0100
0010
,
0001
0100
0001
0010
0001
0010
0100
1000
,
0100
1000
0001
0010
0100
0010
0001
1000
,
0100
1000
0001
0010
0100
0010
0001
1000
,
0010
0100
1000
0001
0010
0001
1000
0100
,
0010
1000
0010
0100
0010
0100
1000
0001
,
0000
0000
0100
0000
0010
0100
0000
0100
0010
0000
1000
0000
0100
0000
0000
0000
,
0001
0000
0100
0000
0010
0100
0000
0100
0010
0000
1000
0000
0001
0000
0000
0000
,
0000
0000
0010
0000
0100
0010
0000
0010
0100
0000
0001
0000
0010
0000
0000
0000
,
1000
0000
0010
0000
0100
0010
0000
0010
0100
0000
0010
0000
0001
0000
0000
0000
,
0000
0000
0100
0000
0010
0100
0000
0100
0010
0000
1000
0000
0100
0000
0000
0000
,
0001
0000
0100
0000
0010
0100
0000
0100
0010
0000
1000
0000
0001
0000
0000
0000
,
0000
0000
0010
0000
0100
0010
0000
0010
0100
0000
0001
0000
0010
0000
0000
0000
,
1000
0000
0010
0000
0100
0010
0000
0010
0100
0000
0010
0000
0001
0000
0000
0000
,
0000
0000
0001
0000
0100
0001
0000
0001
0100
0000
0010
0000
0001
0000
0000
0000
,
1000
0000
0001
0000
0100
0001
0000
0001
0100
0000
0010
0000
1000
0000
0001
0000
;
