#TITLE:Gigadelic;
#SUBTITLE:;
#ARTIST:teranoid feat. MC Natsack;
#TITLETRANSLIT:;
#SUBTITLETRANSLIT:;
#ARTISTTRANSLIT:;
#CREDIT:;
#BANNER:giga-bn.png;
#BACKGROUND:giga-bg.png;
#LYRICSPATH:;
#CDTITLE:!reachTitle.png;
#MUSIC:1-09 gigadelic.mp3;
#OFFSET:-0.408;
#SAMPLESTART:35.151;
#SAMPLELENGTH:11.980;
#SELECTABLE:YES;
#BPMS:0.000=172.696;
#STOPS:;
#BGCHANGES:;
// cache tags:
#FIRSTBEAT:0.000;
#LASTBEAT:354.000;
#SONGFILENAME:Songs/hard shit/Gigadelic- Reach/giga.sm;
#HASMUSIC:1;
#HASBANNER:1;
#MUSICLENGTH:129.026;
// end cache tags

//---------------dance-single - Copied from----------------
#NOTES:
     dance-single:
     Copied from:
     Challenge:
     15:
     1.000,1.000,1.000,1.000,1.000,1279.000,635.000,172.000,0.000,52.000:
1001
0000
1000
0100
0000
1000
0100
0000
0000
1000
0001
0100
,
0010
0000
1000
0001
0000
1000
0001
0010
0010
0100
0000
0001
,
0010
0000
1000
0010
0000
1000
0010
0001
0001
0100
0000
1000
,
0010
0000
0010
0000
0010
0000
0001
0000
0000
0000
0010
0000
1000
0000
0000
0000
0100
1000
0010
0000
0000
0000
0000
0000
,
0000
0000
1000
0100
0000
1000
0100
0000
0000
0010
0010
0010
,
0010
0001
1000
0011
0100
0010
1100
0001
0100
0110
1010
0101
,
1010
0100
1000
0011
0100
0001
1010
0100
1000
0011
0100
0001
,
1100
0010
0001
1100
0010
0100
1001
0000
0000
1001
0000
0000
,
0011
0000
0000
0011
0000
0000
0011
0101
1010
0011
0000
0000
,
0101
1010
0011
1100
0011
1001
0110
0000
0000
0110
0000
0000
,
0110
0000
0000
0101
0000
0000
0011
0101
1010
0110
0000
0000
,
0101
0101
1010
0011
0000
0101
0011
0000
0000
1001
0000
0000
,
2020
3030
0000
0011
0000
0000
1010
0101
0011
1001
0000
0000
,
0110
0101
0011
1010
0000
0011
1001
0000
0101
0110
0000
0000
,
1001
0000
0000
0101
0000
0000
0101
1010
0011
1100
0000
0000
,
0011
0110
1100
0101
0000
0101
1100
0000
0000
1101
0000
0000
,
0011
0100
1000
0010
0100
0001
1100
0000
0010
0000
0100
0000
0011
0000
0011
0000
0110
0000
0110
0000
1000
0000
0010
0000
,
1001
0000
0101
0000
1010
0000
1001
0010
0100
1000
0010
0100
0011
0000
0011
0000
0110
0000
1100
0000
1100
0000
0110
0000
,
0011
0100
1000
0010
0100
0001
1010
0000
0100
0000
0001
0000
1010
0000
0110
0000
0011
0000
1001
0000
0000
0000
0000
0000
,
1001
0000
0011
0000
1001
0000
0101
0000
0011
0000
1001
0010
0100
0010
0001
0010
0100
1000
0111
0000
0000
0000
0000
0000
,
1101
0000
0011
0000
0101
0000
1001
0000
0000
0000
0000
0000
1001
0010
0100
1000
0001
0100
1010
0000
0000
0000
0000
0000
,
1001
0000
0110
0000
1100
0000
0110
0001
0010
0100
1000
0010
1100
0000
1100
0000
0110
0000
0011
0100
0010
0001
0010
0100
,
1001
0000
0011
0000
0101
0000
0011
0100
1000
0010
0100
0001
1010
0000
1010
0000
0110
0000
0011
0000
0000
0000
0000
0000
,
1001
0010
0100
1000
0010
0100
0011
0100
1000
0001
0010
0100
2002
0000
0000
0000
0000
0000
0000
0000
0000
0000
0000
0000
,
3113
0000
0110
0000
0011
0000
0011
0100
1000
0001
0100
0010
1100
0000
1100
0000
0110
0000
0011
0000
0100
0000
1000
0000
,
0011
0100
1000
0010
0100
0001
1010
0100
0001
1000
0010
0100
0011
0000
0110
0000
0110
0000
1100
0000
0010
0000
0001
0000
,
1010
0100
0001
1000
0010
0100
0011
1000
0001
0100
0010
1000
0011
0000
0011
0000
0110
0000
1010
0000
0100
0000
0001
0000
,
1100
0000
0110
0000
0011
0000
1001
0000
1100
0000
0011
0000
1100
0010
0100
0001
1000
0010
1100
0001
0010
0100
1000
0010
,
1001
0000
1001
0000
0011
0000
0011
0100
1000
0001
0100
0010
1100
0000
1100
0000
0110
0000
0011
0000
0100
0000
1000
0000
,
1001
0000
1001
0000
0110
0000
0011
0100
1000
0010
0100
0001
1010
0000
1010
0000
0110
0000
0011
0100
1000
0010
0100
0001
,
1010
0000
0101
0000
0011
0000
1100
0001
0100
1000
0010
0100
0011
0000
0011
0000
0110
0000
1100
0010
0001
0010
0100
1000
,
0022
0000
0000
0000
0000
0000
0100
0100
0100
1133
0100
0100
,
2011
0001
0010
0101
0100
0010
3211
0011
0011
1001
0010
0001
,
1321
0100
0001
1100
0001
0100
1001
1001
1100
1100
0001
0100
,
2131
0100
0001
0110
0001
0010
0101
0101
0011
0011
0101
0101
,
3011
0000
1000
0000
0100
0001
1100
0000
0010
0000
0101
1000
0011
0000
1000
0000
0101
0010
1001
0000
0010
0001
1100
0010
,
1001
0000
1001
0000
0011
0000
1100
0000
0011
0000
1000
0100
0011
0000
0011
0000
0110
0000
1100
0000
0011
1000
0100
1000
,
0011
0000
0011
0000
1100
0000
0011
1000
0100
0010
0001
0010
1100
0000
1100
0000
0110
0000
0011
0100
1000
0100
0010
0001
,
1100
0010
0001
0010
0100
1000
0011
0000
0011
0000
1000
0100
0011
0000
0011
0000
0110
0000
1100
0000
0011
1000
0100
1000
,
0101
0101
0011
1001
1001
1100
0022
0000
0000
0000
0000
0000
,
1133
0000
1100
0000
0110
0000
0011
0000
0101
0000
1000
0100
0011
0000
0011
0000
0110
0000
1100
0000
0010
0001
0010
0100
,
1001
0010
0100
1000
0001
0100
0011
0100
1000
0010
0100
0001
1100
0000
1100
0000
0110
0000
0011
0000
1000
0100
0010
0001
,
1100
0010
0001
0010
0100
1000
0011
1000
0100
0010
0001
0010
1100
0000
1100
0000
0110
0000
0011
0000
0110
0000
1000
0100
,
1002
1100
1000
0110
1000
0010
1100
1100
1010
1010
0100
1000
,
0123
0100
1000
0101
1000
0100
0101
0101
1100
1100
1000
0001
,
1001
0100
1000
0101
1000
0100
1230
0001
0001
0001
0001
0001
,
2301
0001
0001
0001
0001
0001
0001
0001
0001
0001
0001
0001
,
3201
0000
0001
0000
0001
0000
0001
0000
0001
0000
0001
0000
0001
1000
0001
1000
0001
1000
0001
1000
0001
1000
0001
1000
,
1301
1001
0110
0101
0011
0011
0101
0011
0101
0011
0101
0011
,
0011
1001
1010
1001
1010
0110
1010
0110
1010
0110
1010
0101
,
1100
1100
1100
1100
1100
1100
1010
0101
0011
0101
0110
1010
,
1001
0101
1010
1001
0101
0011
0101
1010
0101
0011
0110
1100
,
1001
1001
0110
0011
0011
0011
0101
0011
0101
0011
0101
0110
,
1001
1001
1100
0110
0110
1001
0110
1010
0110
1010
0110
1010
,
0011
0011
0011
0011
0011
0011
1001
0101
0110
1010
1100
0110
,
1001
1001
0110
0011
0011
0011
0101
0011
0101
0011
1010
0110
,
2102
0000
0000
0000
0000
0000
3003
0000
0000
0000
0000
0000
0000
0000
0000
0000
0110
0000
0000
0000
0000
0000
0000
0000
0000
0000
0000
0000
0000
0000
0000
0000
1001
0000
0000
0000
0000
0000
0000
0000
0000
0000
0000
0000
0000
0000
0000
0000
0220
0000
0000
0000
0000
0000
0330
0000
0000
0000
0000
0000
0000
0000
0000
0000
0110
0000
0000
0000
0000
0000
0000
0000
0000
0000
0000
0000
0000
0000
0000
0000
0011
0000
0000
0000
0000
0000
0000
0000
0000
0000
0000
0000
0000
0000
0000
0000
2200
0000
0000
0000
0000
0000
3300
0000
0000
0000
0000
0000
0000
0000
0000
0000
1100
0000
0000
0000
0000
0000
0000
0000
0000
0000
0000
0000
0000
0000
0000
0000
0110
0000
0000
0000
0000
0000
0000
0000
0000
0000
0000
0000
0000
0000
0000
0000
0022
0000
0000
0000
0000
0000
0033
0000
0000
0000
0000
0000
0000
0000
0000
0000
0011
0000
0000
0000
0000
0000
0000
0000
0000
0000
0000
0000
0000
0000
0000
0000
1100
0000
0000
0000
0000
0000
0000
0000
0000
0000
0000
0000
0000
0000
0000
0000
,
2002
0000
0000
0000
0000
0000
3003
0000
0000
0000
0000
0000
0000
0000
0000
0000
0011
0000
0000
0000
0000
0000
0000
0000
0000
0000
0000
0000
0000
0000
0000
0000
1100
0000
0000
0000
0000
0000
0000
0000
0000
0000
0000
0000
0000
0000
0000
0000
2002
0000
0000
0000
0000
0000
3003
0000
0000
0000
0000
0000
0000
0000
0000
0000
1100
0000
0000
0000
0000
0000
0000
0000
0000
0000
0000
0000
0000
0000
0000
0000
0011
0000
0000
0000
0000
0000
0000
0000
0000
0000
0000
0000
0000
0000
0000
0000
2200
0000
0000
0000
0000
0000
3300
0000
0000
0000
0000
0000
0000
0000
0000
0000
0011
0000
0000
0000
0000
0000
0000
0000
0000
0000
0000
0000
0000
0000
0000
0000
1100
0000
0000
0000
0000
0000
0000
0000
0000
0000
0000
0000
0000
0000
0000
0000
2020
0000
0000
0000
0000
0000
3030
0000
0000
0000
0000
0000
0000
0000
0000
0000
0011
0000
0000
0000
0000
0000
0000
0000
0000
0000
0000
0000
0000
0000
0000
0000
0220
0000
0000
0000
0000
0000
0000
0000
0330
0000
0000
0000
0000
0000
0000
0000
,
2002
0000
0000
0000
0000
0000
3003
0000
0000
0000
0000
0000
0000
0000
0000
0000
1001
0000
0000
0000
0000
0000
0000
0000
0000
0000
0000
0000
0000
0000
0000
0000
1001
0000
0000
0000
0000
0000
0000
0000
0000
0000
0000
0000
0000
0000
0000
0000
2002
0000
0000
0000
0000
0000
3003
0000
0000
0000
0000
0000
0000
0000
0000
0000
1001
0000
0000
0000
0000
0000
0000
0000
0000
0000
0000
0000
0000
0000
0000
0000
1001
0000
0000
0000
0000
0000
0000
0000
0000
0000
0000
0000
0000
0000
0000
0000
0202
0000
0000
0000
0000
0000
0303
0000
0000
0000
0000
0000
0000
0000
0000
0000
0011
0000
0000
0000
0000
0000
0000
0000
0000
0000
0000
0000
0000
0000
0000
0000
0101
0000
0000
0000
0000
0000
0000
0000
0000
0000
0000
0000
0000
0000
0000
0000
2020
0000
0000
0000
0000
0000
3030
0000
0000
0000
0000
0000
0000
0000
0000
0000
1100
0000
0000
0000
0000
0000
0000
0000
0000
0000
0000
0000
0000
0000
0000
0000
0110
0000
0000
0000
0000
0000
0000
0000
0000
0000
0000
0000
0000
0000
0000
0000
,
2002
0000
0000
0000
0000
0000
3003
0000
0000
0000
0000
0000
0000
0000
0000
0000
0110
0000
0000
0000
0000
0000
0000
0000
0000
0000
0000
0000
0000
0000
0000
0000
1001
0000
0000
0000
0000
0000
0000
0000
0000
0000
0000
0000
0000
0000
0000
0000
2002
0000
0000
0000
0000
0000
3003
0000
0000
0000
0000
0000
0000
0000
0000
0000
0011
0000
0000
0000
0000
0000
0000
0000
0000
0000
0000
0000
0000
0000
0000
0000
1100
0000
0000
0000
0000
0000
0000
0000
0000
0000
0000
0000
0000
0000
0000
0000
2200
0000
0000
0000
0000
0000
3300
0000
0000
0000
0000
0000
0000
0000
0000
0000
0011
0000
0000
0000
0000
0000
0000
0000
0000
0000
0000
0000
0000
0000
0000
0000
1100
0000
0000
0000
0000
0000
0000
0000
0000
0000
0000
0000
0000
0000
0000
0000
0202
0000
0000
0000
0000
0000
0303
0000
0000
0000
0000
0000
0000
0000
0000
0000
1010
0000
0000
0000
0000
0000
0000
0000
0000
0000
0000
0000
0000
0000
0000
0000
0110
0000
0000
0000
0000
0000
0000
0000
0000
0000
0000
0000
0000
0000
0000
0000
,
2002
0000
0000
0000
0000
0000
3003
0000
0000
0000
0000
0000
0000
0000
0000
0000
0011
0000
0000
0000
0000
0000
0000
0000
0000
0000
0000
0000
0000
0000
0000
0000
0110
0000
0000
0000
0000
0000
0000
0000
0000
0000
0000
0000
0000
0000
0000
0000
2020
0000
0000
0000
0000
0000
3030
0000
0000
0000
0000
0000
0000
0000
0000
0000
0101
0000
0000
0000
0000
0000
0000
0000
0000
0000
0000
0000
0000
0000
0000
0000
1010
0000
0000
0000
0000
0000
0000
0000
0000
0000
0000
0000
0000
0000
0000
0000
0202
0000
0000
0000
0000
0000
0303
0000
0000
0000
0000
0000
0000
0000
0000
0000
1100
0000
0000
0000
0000
0000
0000
0000
0000
0000
0000
0000
0000
0000
0000
0000
0011
0000
0000
0000
0000
0000
0000
0000
0000
0000
0000
0000
0000
0000
0000
0000
2200
0000
0000
0000
0000
0000
3300
0000
0000
0000
0000
0000
0000
0000
0000
0000
0110
0000
0000
0000
0000
0000
0000
0000
0000
0000
0000
0000
0000
0000
0000
0000
0011
0000
0000
0000
0000
0000
0000
0000
0000
0000
0000
0000
0000
0000
0000
0000
,
2002
0000
0000
0000
0000
0000
3003
0000
0000
0000
0000
0000
0000
0000
0000
0000
1100
0000
0000
0000
0000
0000
0000
0000
0000
0000
0000
0000
0000
0000
0000
0000
0110
0000
0000
0000
0000
0000
0000
0000
0000
0000
0000
0000
0000
0000
0000
0000
0022
0000
0000
0000
0000
0000
0033
0000
0000
0000
0000
0000
0000
0000
0000
0000
1100
0000
0000
0000
0000
0000
0000
0000
0000
0000
0000
0000
0000
0000
0000
0000
0011
0000
0000
0000
0000
0000
0000
0000
0000
0000
0000
0000
0000
0000
0000
0000
2200
0000
0000
0000
0000
0000
3300
0000
0000
0000
0000
0000
0000
0000
0000
0000
0011
0000
0000
0000
0000
0000
0000
0000
0000
0000
0000
0000
0000
0000
0000
0000
1010
0000
0000
0000
0000
0000
0000
0000
0000
0000
0000
0000
0000
0000
0000
0000
0220
0000
0000
0000
0000
0000
0330
0000
0000
0000
0000
0000
0000
0000
0000
0000
0011
0000
0000
0000
0000
0000
0000
0000
0000
0000
0000
0000
0000
0000
0000
0000
1001
0000
0000
0000
0000
0000
0000
0000
0000
0000
0000
0000
0000
0000
0000
0000
,
0220
0000
0000
0000
0000
0000
0330
0000
0000
0000
0000
0000
0000
0000
0000
0000
0110
0000
0000
0000
0000
0000
0000
0000
0000
0000
0000
0000
0000
0000
0000
0000
0110
0000
0000
0000
0000
0000
0000
0000
0000
0000
0000
0000
0000
0000
0000
0000
0220
0000
0000
0000
0000
0000
0330
0000
0000
0000
0000
0000
0000
0000
0000
0000
0110
0000
0000
0000
0000
0000
0000
0000
0000
0000
0000
0000
0000
0000
0000
0000
0110
0000
0000
0000
0000
0000
0000
0000
0000
0000
0000
0000
0000
0000
0000
0000
2002
0000
0000
0000
0000
0000
3003
0000
0000
0000
0000
0000
0000
0000
0000
0000
0011
0000
0000
0000
0000
0000
0000
0000
0000
0000
0000
0000
0000
0000
0000
0000
0110
0000
0000
0000
0000
0000
0000
0000
0000
0000
0000
0000
0000
0000
0000
0000
2200
0000
0000
0000
0000
0000
3300
0000
0000
0000
0000
0000
0000
0000
0000
0000
0110
0000
0000
0000
0000
0000
0000
0000
0000
0000
0000
0000
0000
0000
0000
0000
0011
0000
0000
0000
0000
0000
0000
0000
0000
0000
0000
0000
0000
0000
0000
0000
,
2001
0000
0000
0000
0000
0000
0000
0000
0000
0000
0000
0000
0000
0000
0000
0000
3001
0000
0000
0000
0000
0000
0000
0000
0000
0000
0000
0000
0000
0000
0000
0000
0001
0000
0000
0000
0000
0000
0000
0000
0000
0000
0000
0000
0000
0000
0000
0000
2002
0000
0000
0000
0000
0000
3003
0000
0000
0000
0000
0000
0000
0000
0000
0000
0001
0000
0000
0000
0000
0000
0000
0000
0000
0000
0000
0000
0000
0000
0000
0000
0001
0000
0000
0000
0000
0000
0000
0000
0000
0000
0000
0000
0000
0000
0000
0000
1001
0000
0000
0000
0000
0000
0000
0000
0010
0000
0000
0000
0000
0000
0000
0000
0100
0000
0000
0000
0000
0000
0000
0000
1000
0000
0000
0000
0000
0000
0000
0000
0001
0000
0000
0000
0000
0000
0000
0000
0100
0000
0000
0000
0000
0000
0000
0000
0010
0000
0000
0000
0000
0000
0000
0000
1000
0000
0000
0000
0000
0000
0000
0000
0001
0000
0000
0000
0000
0000
0000
0000
0010
0000
0000
0000
0000
0000
0000
0000
0100
0000
0000
0000
0000
0000
0000
0000
1000
0000
0000
0000
0000
0000
0000
0000
,
0011
0000
0101
0000
0011
0000
1001
0010
0100
1000
0010
0100
0011
0000
0011
0000
0101
0010
1100
0000
1100
0010
1100
0001
,
1100
0000
1100
0000
0110
0000
0011
1000
0010
0100
0001
1000
0110
0000
0011
0000
1010
0100
0011
0000
1000
0000
0100
0000
,
0011
1000
0011
1000
0011
1000
0011
1000
0011
1000
0101
0000
1001
0000
0101
0000
0011
0100
1001
0000
0101
0000
1010
0000
,
1001
0000
0011
0100
1010
0000
0101
0010
1000
0001
0100
0010
1001
0000
1001
0000
0011
0100
1010
0000
0011
0100
0011
1000
,
0101
0000
0101
0000
1010
0000
0101
0010
0100
1000
0100
0010
1001
0000
1001
0000
0101
0010
1100
0000
1001
0010
1001
0000
,
0110
0000
0110
0000
1100
0000
0011
0100
1000
0001
0010
0100
1001
0000
0110
0000
1100
0010
0101
0000
0011
0100
1001
0000
,
1100
0010
1100
0010
1100
0010
1100
0010
1100
0010
1100
0000
1010
0000
1001
0000
1010
0001
1100
0000
1001
0000
1010
0001
,
1100
0001
0010
0100
1000
0001
0100
0010
1000
0001
0100
0010
1000
0001
1000
0001
1000
0001
1000
0001
1000
0001
1000
0001
,
2200
0000
0000
0000
0000
0000
3300
0000
0010
0000
0000
0000
0000
0000
0000
0000
0001
0000
0000
0000
0000
0000
0000
0000
0010
0000
0000
0000
0000
0000
0000
0000
0100
0000
0000
0000
0000
0000
0000
0000
1000
0000
0000
0000
0000
0000
0000
0000
0022
0000
0000
0000
0000
0000
0033
0000
1000
0000
0000
0000
0000
0000
0000
0000
0100
0000
0000
0000
0000
0000
0000
0000
0010
0000
0000
0000
0000
0000
0000
0000
0001
0000
0000
0000
0000
0000
0000
0000
0010
0000
0000
0000
0000
0000
0000
0000
2200
0000
0000
0000
0000
0000
3300
0000
0010
0000
0000
0000
0000
0000
0000
0000
0001
0000
0000
0000
0000
0000
0000
0000
0010
0000
0000
0000
0000
0000
0000
0000
0100
0000
0000
0000
0000
0000
0000
0000
1000
0000
0000
0000
0000
0000
0000
0000
0202
0000
0000
0000
0000
0000
0303
0000
0010
0000
0000
0000
0000
0000
0000
0000
0100
0000
0000
0000
0000
0000
0000
0000
1000
0000
0000
0000
0000
0000
0000
0000
0100
0000
0000
0000
0000
0000
0000
0000
0010
0000
0000
0000
0000
0000
0000
0000
,
2002
0000
0000
0000
0000
0000
3003
0000
0010
0000
0000
0000
0000
0000
0000
0000
0100
0000
0000
0000
0000
0000
0000
0000
1000
0000
0000
0000
0000
0000
0000
0000
0100
0000
0000
0000
0000
0000
0000
0000
0010
0000
0000
0000
0000
0000
0000
0000
0202
0000
0000
0000
0000
0000
0303
0000
0010
0000
0000
0000
0000
0000
0000
0000
0100
0000
0000
0000
0000
0000
0000
0000
1000
0000
0000
0000
0000
0000
0000
0000
0100
0000
0000
0000
0000
0000
0000
0000
0010
0000
0000
0000
0000
0000
0000
0000
2002
0000
0000
0000
0000
0000
3003
0000
0100
0000
0000
0000
0000
0000
0000
0000
0010
0000
0000
0000
0000
0000
0000
0000
0001
0000
0000
0000
0000
0000
0000
0000
0010
0000
0000
0000
0000
0000
0000
0000
0100
0000
0000
0000
0000
0000
0000
0000
0022
0000
0000
0000
0000
0000
0033
0000
1000
0000
0000
0000
0000
0000
0000
0000
0100
0000
0000
0000
0000
0000
0000
0000
0010
0000
0000
0000
0000
0000
0000
0000
0001
0000
0000
0000
0000
0000
0000
0000
0010
0000
0000
0000
0000
0000
0000
0000
,
2200
0000
0000
0000
0000
0000
3300
0000
0010
0000
0000
0000
0000
0000
0000
0000
1100
0000
0000
0000
0000
0000
0000
0000
0010
0000
0000
0000
0000
0000
0000
0000
1100
0000
0000
0000
0000
0000
0000
0000
0010
0000
0000
0000
0000
0000
0000
0000
2200
0000
0000
0000
0000
0000
3300
0000
0010
0000
0000
0000
0000
0000
0000
0000
1100
0000
0000
0000
0000
0000
0000
0000
0010
0000
0000
0000
0000
0000
0000
0000
1100
0000
0000
0000
0000
0000
0000
0000
0000
0000
0000
0000
0000
0000
0000
0000
2020
0000
0000
0000
0000
0000
3030
0000
0000
0000
0000
0000
0000
0000
0000
0000
0100
0000
0000
0000
0000
0000
0000
0000
0001
0000
0000
0000
0000
0000
0000
0000
0110
0000
0000
0000
0000
0000
0000
0000
0000
0000
0000
0000
0000
0000
0000
0000
2200
0000
0000
0000
0000
0000
3300
0000
0000
0000
0000
0000
0000
0000
0000
0000
1010
0000
0000
0000
0000
0000
0000
0000
0000
0000
0000
0000
0000
0000
0000
0000
1001
0000
0000
0000
0000
0000
0000
0000
0000
0000
0000
0000
0000
0000
0000
0000
,
0220
0000
0000
0000
0000
0000
0330
0000
0001
0000
0000
0000
0000
0000
0000
0000
0010
0000
0000
0000
0000
0000
0000
0000
0100
0000
0000
0000
0000
0000
0000
0000
1000
0000
0000
0000
0000
0000
0000
0000
0100
0000
0000
0000
0000
0000
0000
0000
2002
0000
0000
0000
0000
0000
3003
0000
0000
0000
0000
0000
0000
0000
0000
0000
1001
0000
0000
0000
0000
0000
0000
0000
0000
0000
0000
0000
0000
0000
0000
0000
0110
0000
0000
0000
0000
0000
0000
0000
0000
0000
0000
0000
0000
0000
0000
0000
0022
0000
0000
0000
0000
0000
0033
0000
0100
0000
0000
0000
0000
0000
0000
0000
1000
0000
0000
0000
0000
0000
0000
0000
0010
0000
0000
0000
0000
0000
0000
0000
0100
0000
0000
0000
0000
0000
0000
0000
0001
0000
0000
0000
0000
0000
0000
0000
2200
0000
0000
0000
0000
0000
3300
0000
0000
0000
0000
0000
0000
0000
0000
0000
0110
0000
0000
0000
0000
0000
0000
0000
0000
0000
0000
0000
0000
0000
0000
0000
0011
0000
0000
0000
0000
0000
0000
0000
0000
0000
0000
0000
0000
0000
0000
0000
,
2020
0000
0000
0000
0000
0000
3030
0000
0001
0000
0000
0000
0000
0000
0000
0000
0010
0000
0000
0000
0000
0000
0000
0000
0100
0000
0000
0000
0000
0000
0000
0000
1000
0000
0000
0000
0000
0000
0000
0000
0100
0000
0000
0000
0000
0000
0000
0000
0022
0000
0000
0000
0000
0000
0033
0000
0100
0000
0000
0000
0000
0000
0000
0000
1000
0000
0000
0000
0000
0000
0000
0000
0100
0000
0000
0000
0000
0000
0000
0000
0010
0000
0000
0000
0000
0000
0000
0000
0100
0000
0000
0000
0000
0000
0000
0000
2002
0000
0000
0000
0000
0000
3003
0000
0100
0000
0000
0000
0000
0000
0000
0000
0010
0000
0000
0000
0000
0000
0000
0000
0001
0000
0000
0000
0000
0000
0000
0000
0010
0000
0000
0000
0000
0000
0000
0000
0100
0000
0000
0000
0000
0000
0000
0000
2020
0000
0000
0000
0000
0000
3030
0000
0100
0000
0000
0000
0000
0000
0000
0000
0010
0000
0000
0000
0000
0000
0000
0000
0001
0000
0000
0000
0000
0000
0000
0000
0010
0000
0000
0000
0000
0000
0000
0000
0100
0000
0000
0000
0000
0000
0000
0000
,
2002
0000
0000
0000
0000
0000
3003
0000
0010
0000
0000
0000
0000
0000
0000
0000
0100
0000
0000
0000
0000
0000
0000
0000
0010
0000
0000
0000
0000
0000
0000
0000
0100
0000
0000
0000
0000
0000
0000
0000
0010
0000
0000
0000
0000
0000
0000
0000
2002
0000
0000
0000
0000
0000
3003
0000
0010
0000
0000
0000
0000
0000
0000
0000
0100
0000
0000
0000
0000
0000
0000
0000
0010
0000
0000
0000
0000
0000
0000
0000
0100
0000
0000
0000
0000
0000
0000
0000
0010
0000
0000
0000
0000
0000
0000
0000
2002
0000
0000
0000
0000
0000
3003
0000
0010
0000
0000
0000
0000
0000
0000
0000
0100
0000
0000
0000
0000
0000
0000
0000
0010
0000
0000
0000
0000
0000
0000
0000
0100
0000
0000
0000
0000
0000
0000
0000
0010
0000
0000
0000
0000
0000
0000
0000
2002
0000
0000
0000
0000
0000
3003
0000
0010
0000
0000
0000
0000
0000
0000
0000
0100
0000
0000
0000
0000
0000
0000
0000
0010
0000
0000
0000
0000
0000
0000
0000
0100
0000
0000
0000
0000
0000
0000
0000
1000
0000
0000
0000
0000
0000
0000
0000
,
0022
0000
0000
0000
0000
0000
0033
0000
0100
0000
0000
0000
0000
0000
0000
0000
0011
0000
0000
0000
0000
0000
0000
0000
0100
0000
0000
0000
0000
0000
0000
0000
0011
0000
0000
0000
0000
0000
0000
0000
0100
0000
0000
0000
0000
0000
0000
0000
0022
0000
0000
0000
0000
0000
0033
0000
0100
0000
0000
0000
0000
0000
0000
0000
0011
0000
0000
0000
0000
0000
0000
0000
0100
0000
0000
0000
0000
0000
0000
0000
0011
0000
0000
0000
0000
0000
0000
0000
0100
0000
0000
0000
0000
0000
0000
0000
2020
0000
0000
0000
0000
0000
3030
0000
0100
0000
0000
0000
0000
0000
0000
0000
0011
0000
0000
0000
0000
0000
0000
0000
0100
0000
0000
0000
0000
0000
0000
0000
1010
0000
0000
0000
0000
0000
0000
0000
0100
0000
0000
0000
0000
0000
0000
0000
0022
0000
0000
0000
0000
0000
0033
0000
0100
0000
0000
0000
0000
0000
0000
0000
1010
0000
0000
0000
0000
0000
0000
0000
0100
0000
0000
0000
0000
0000
0000
0000
0011
0000
0000
0000
0000
0000
0000
0000
0100
0000
0000
0000
0000
0000
0000
0000
,
2002
0000
0000
0000
0000
0000
3003
0000
0010
0000
0000
0000
0000
0000
0000
0000
0100
0000
0000
0000
0000
0000
0000
0000
1000
0000
0000
0000
0000
0000
0000
0000
0010
0000
0000
0000
0000
0000
0000
0000
0100
0000
0000
0000
0000
0000
0000
0000
0001
0000
0000
0000
0000
0000
0000
0000
0010
0000
0000
0000
0000
0000
0000
0000
0100
0000
0000
0000
0000
0000
0000
0000
1000
0000
0000
0000
0000
0000
0000
0000
0010
0000
0000
0000
0000
0000
0000
0000
0100
0000
0000
0000
0000
0000
0000
0000
2002
0000
0000
0000
0000
0000
3003
0000
0010
0000
0000
0000
0000
0000
0000
0000
0100
0000
0000
0000
0000
0000
0000
0000
1000
0000
0000
0000
0000
0000
0000
0000
0100
0000
0000
0000
0000
0000
0000
0000
0010
0000
0000
0000
0000
0000
0000
0000
0001
0000
0000
0000
0000
0000
0000
0000
0010
0000
0000
0000
0000
0000
0000
0000
0001
0000
0000
0000
0000
0000
0000
0000
0010
0000
0000
0000
0000
0000
0000
0000
0001
0000
0000
0000
0000
0000
0000
0000
0010
0000
0000
0000
0000
0000
0000
0000
,
2002
0000
0000
0000
0000
0000
3003
0000
0100
0000
0000
0000
0000
0000
0000
0000
1000
0000
0000
0000
0000
0000
0000
0000
0100
0000
0000
0000
0000
0000
0000
0000
1000
0000
0000
0000
0000
0000
0000
0000
0100
0000
0000
0000
0000
0000
0000
0000
2002
0000
0000
0000
0000
0000
3003
0000
0010
0000
0000
0000
0000
0000
0000
0000
0001
0000
0000
0000
0000
0000
0000
0000
0010
0000
0000
0000
0000
0000
0000
0000
0001
0000
0000
0000
0000
0000
0000
0000
0010
0000
0000
0000
0000
0000
0000
0000
2002
0000
0000
0000
0000
0000
3003
0000
0010
0000
0000
0000
0000
0000
0000
0000
0100
0000
0000
0000
0000
0000
0000
0000
0010
0000
0000
0000
0000
0000
0000
0000
0100
0000
0000
0000
0000
0000
0000
0000
0010
0000
0000
0000
0000
0000
0000
0000
2002
0000
0000
0000
0000
0000
3003
0000
0010
0000
0000
0000
0000
0000
0000
0000
0100
0000
0000
0000
0000
0000
0000
0000
1000
0000
0000
0000
0000
0000
0000
0000
0100
0000
0000
0000
0000
0000
0000
0000
0010
0000
0000
0000
0000
0000
0000
0000
,
2002
0000
3123
0000
,
1130
0001
1100
0001
1100
0001
1100
0001
1100
0001
1100
0001
1100
0010
0101
0010
1001
0100
0011
0100
1010
0100
0011
0100
,
1001
0010
0100
1000
0001
0010
1100
0000
0000
0000
1001
0100
1010
0100
0000
0000
1001
0010
1100
0010
0000
0000
0000
0000
,
2002
0000
0000
0000
0000
0000
3003
0000
0010
0000
0000
0000
0000
0000
0000
0000
0100
0000
0000
0000
0000
0000
0000
0000
0010
0000
0000
0000
0000
0000
0000
0000
1100
0000
0000
0000
0000
0000
0000
0000
0000
0000
0000
0000
0000
0000
0000
0000
2002
0000
0000
0000
0000
0000
3003
0000
0100
0000
0000
0000
0000
0000
0000
0000
0010
0000
0000
0000
0000
0000
0000
0000
0001
0000
0000
0000
0000
0000
0000
0000
0110
0000
0000
0000
0000
0000
0000
0000
0000
0000
0000
0000
0000
0000
0000
0000
2002
0000
0000
0000
0000
0000
3003
0000
0010
0000
0000
0000
0000
0000
0000
0000
0100
0000
0000
0000
0000
0000
0000
0000
0010
0000
0000
0000
0000
0000
0000
0000
1001
0000
0000
0000
0000
0000
0000
0000
0000
0000
0000
0000
0000
0000
0000
0000
0220
0000
0000
0000
0000
0000
0330
0000
1000
0000
0000
0000
0000
0000
0000
0000
0100
0000
0000
0000
0000
0000
0000
0000
0010
0000
0000
0000
0000
0000
0000
0000
1100
0000
0000
0000
0000
0000
0000
0000
0000
0000
0000
0000
0000
0000
0000
0000
,
2002
0000
0000
0000
0000
0000
3003
0000
0010
0000
0000
0000
0000
0000
0000
0000
0100
0000
0000
0000
0000
0000
0000
0000
1000
0000
0000
0000
0000
0000
0000
0000
0100
0000
0000
0000
0000
0000
0000
0000
0010
0000
0000
0000
0000
0000
0000
0000
0001
0000
0000
0000
0000
0000
0000
0000
0010
0000
0000
0000
0000
0000
0000
0000
0100
0000
0000
0000
0000
0000
0000
0000
1000
0000
0000
0000
0000
0000
0000
0000
0100
0000
0000
0000
0000
0000
0000
0000
0010
0000
0000
0000
0000
0000
0000
0000
2002
0000
0000
0000
0000
0000
3003
0000
0010
0000
0000
0000
0000
0000
0000
0000
0100
0000
0000
0000
0000
0000
0000
0000
1000
0000
0000
0000
0000
0000
0000
0000
0100
0000
0000
0000
0000
0000
0000
0000
0010
0000
0000
0000
0000
0000
0000
0000
0001
0000
0000
0000
0000
0000
0000
0000
0010
0000
0000
0000
0000
0000
0000
0000
0100
0000
0000
0000
0000
0000
0000
0000
1000
0000
0000
0000
0000
0000
0000
0000
0100
0000
0000
0000
0000
0000
0000
0000
0010
0000
0000
0000
0000
0000
0000
0000
,
2200
0000
0000
0000
0000
0000
3300
0000
0010
0000
0000
0000
0000
0000
0000
0000
1100
0000
0000
0000
0000
0000
0000
0000
0001
0000
0000
0000
0000
0000
0000
0000
1100
0000
0000
0000
0000
0000
0000
0000
0010
0000
0000
0000
0000
0000
0000
0000
2200
0000
0000
0000
0000
0000
3300
0000
0001
0000
0000
0000
0000
0000
0000
0000
1100
0000
0000
0000
0000
0000
0000
0000
0010
0000
0000
0000
0000
0000
0000
0000
1100
0000
0000
0000
0000
0000
0000
0000
0001
0000
0000
0000
0000
0000
0000
0000
2020
0000
0000
0000
0000
0000
3030
0000
0100
0000
0000
0000
0000
0000
0000
0000
0011
0000
0000
0000
0000
0000
0000
0000
0100
0000
0000
0000
0000
0000
0000
0000
1010
0000
0000
0000
0000
0000
0000
0000
0100
0000
0000
0000
0000
0000
0000
0000
0022
0000
0000
0000
0000
0000
0033
0000
0100
0000
0000
0000
0000
0000
0000
0000
1010
0000
0000
0000
0000
0000
0000
0000
0100
0000
0000
0000
0000
0000
0000
0000
0011
0000
0000
0000
0000
0000
0000
0000
0100
0000
0000
0000
0000
0000
0000
0000
,
1001
0010
1001
0000
1100
0001
1100
0000
0110
0001
0110
0000
1100
0001
0100
0010
0001
0010
0100
1000
0100
0010
0001
0010
,
2202
0000
3303
0000
;
