#TITLE:Epidermis;
#SUBTITLE:;
#ARTIST:Venetian Snares;
#TITLETRANSLIT:;
#SUBTITLETRANSLIT:;
#ARTISTTRANSLIT:;
#CREDIT:;
#BANNER:epidermis-bn.png;
#BACKGROUND:epidermis-bg.png;
#LYRICSPATH:;
#CDTITLE:;
#MUSIC:epidermis.mp3;
#OFFSET:-4.892;
#SAMPLESTART:115.730;
#SAMPLELENGTH:12.000;
#SELECTABLE:YES;
#BPMS:0.000=200.000;
#STOPS:147.750=1.200
;
#BGCHANGES:;
// cache tags:
#FIRSTBEAT:40.000;
#LASTBEAT:484.000;
#SONGFILENAME:Songs/Essential Sim Collection/(Hayden) Epidermis/epidermis.sm;
#HASMUSIC:1;
#HASBANNER:1;
#MUSICLENGTH:162.951;
// end cache tags

//---------------dance-single - ----------------
#NOTES:
     dance-single:
     :
     Challenge:
     13:
     1.000,1.000,1.000,0.466,1.000,1120.000,275.000,76.000,0.000,0.000:  // measure 1
0000
0000
0000
0000
,  // measure 2
0000
0000
0000
0000
,  // measure 3
0000
0000
0000
0000
,  // measure 4
0000
0000
0000
0000
,  // measure 5
0000
0000
0000
0000
,  // measure 6
0000
0000
0000
0000
,  // measure 7
0000
0000
0000
0000
,  // measure 8
0000
0000
0000
0000
,  // measure 9
0000
0000
0000
0000
,  // measure 10
0000
0000
0000
0000
,  // measure 11
1001
0000
0000
0000
1100
0010
0100
0001
1000
0100
0011
0000
1000
0010
1000
0010
,  // measure 12
0100
0001
0100
0001
0100
0010
1001
0000
0000
0000
0000
0000
0110
0000
0000
0000
,  // measure 13
1010
0000
1000
0010
1000
0001
0110
0000
0001
0010
0001
0010
0100
1000
0100
1000
,  // measure 14
0010
0100
0022
0000
0033
0000
0000
0000
1010
0000
0000
0000
0101
0000
1000
0100
,  // measure 15
1000
0010
1001
0000
0010
0100
1001
0000
1010
0000
0100
0000
0001
0010
0001
0000
,  // measure 16
0000
0000
0000
0000
1001
0000
0000
0000
1010
0000
0100
0010
0100
0001
1010
0000
,  // measure 17
1000
0001
0110
0000
1001
0000
0100
0000
0001
0100
0001
0000
0000
0000
0000
0000
,  // measure 18
1100
0000
0000
0000
0010
0000
0010
0000
1000
0100
0010
0000
0010
0001
0010
0100
,  // measure 19
0010
0000
0010
0001
0010
0000
0100
0000
1000
0001
0100
0010
1100
0000
0000
0000
,  // measure 20
1010
0000
0001
0001
0000
0010
0110
0000
0001
0100
0010
0100
0001
1000
0100
0010
,  // measure 21
0001
1000
0110
0000
0000
0000
0000
0000
1001
0000
0000
0000
1100
0000
0001
0100
,  // measure 22
0010
1000
0101
0000
0100
0010
0100
0001
1010
0000
0100
0000
0001
0100
0001
0000
,  // measure 23
0000
0000
0000
0000
1100
0000
0000
0000
0001
0010
0001
0010
0001
0010
0001
0010
,  // measure 24
0101
0101
1000
0001
0100
0010
0000
0100
,  // measure 25
0001
1000
0001
0010
0000
0100
1000
0001
,  // measure 26
0100
0010
0000
1000
0100
0001
0100
1000
,  // measure 27
0000
0001
0100
0010
1000
0100
0000
1000
,  // measure 28
0001
0100
0001
1000
0000
1000
0010
1000
,  // measure 29
0001
0100
0000
1000
0100
0010
0001
0010
,  // measure 30
0000
0010
0100
0010
0001
1000
0000
0001
,  // measure 31
0100
0010
1000
0001
0000
1000
0100
0010
,  // measure 32
0100
1000
0000
0001
0100
0010
1000
0100
,  // measure 33
0000
1000
0100
0010
0001
1000
0000
0001
,  // measure 34
0100
0001
1000
0100
0000
0010
0001
0000
,  // measure 35
1000
0100
0000
0010
0100
0000
0001
0010
,  // measure 36
0000
0100
0001
0000
0000
1000
0000
0000
,  // measure 37
0010
0000
0000
0000
0000
0000
0000
0000
0000
0000
0000
0000
0000
0000
0000
0000
0000
0000
0000
0000
0000
0000
0000
0000
0000
0000
0000
0000
0000
0000
0000
0000
0000
0000
0000
0000
0000
0000
0000
0000
0000
0000
0000
0000
0000
0000
0000
0000
0000
0000
0000
0000
0000
0000
0000
0000
0020
0000
0000
0000
0000
0030
0000
0000
,  // measure 38
1000
0100
1000
0000
0110
0000
0001
1000
0010
0000
1100
0000
0011
0000
1000
0001
,  // measure 39
1000
0000
0010
0100
0010
0100
1010
0000
0001
0010
0100
1000
0001
0010
0101
0000
,  // measure 40
1010
0000
0200
0310
0200
0300
0012
0003
1000
0010
1000
0100
1001
0000
0001
0010
,  // measure 41
0001
0100
1010
0000
0001
0100
0010
1000
0100
0010
0011
0000
0101
0000
1000
0100
,  // measure 42
1000
0001
1000
0100
1010
0000
0001
0100
0101
0000
1000
1000
0000
0010
0110
0000
,  // measure 43
0000
0110
0000
0000
0110
0000
1000
0100
0011
0000
0010
0001
0010
0001
0010
0001
,  // measure 44
0010
0100
1000
0100
1010
0000
1010
0000
0110
0000
0110
0000
1000
0010
1000
0010
,  // measure 45
1100
0001
0010
0000
1001
0000
0110
1000
0100
0010
0101
0000
0010
0100
0010
1000
,  // measure 46
0010
0100
0011
0000
0110
0000
1100
0000
0101
0000
1000
0010
0101
0000
1100
0000
,  // measure 47
1100
0000
0010
1000
0010
0100
0010
1000
0010
0100
0001
1000
0011
0000
0000
0011
,  // measure 48
0000
0000
0011
0000
0000
0011
0000
0000
0001
0100
0010
1000
0001
0010
1100
0000
,  // measure 49
0010
0000
1100
0000
0010
0100
0010
0000
0001
0110
0000
0000
1010
0000
0102
0000
,  // measure 50
0000
0000
0203
0300
0010
1000
0010
0000
1100
0000
0001
1000
0010
0000
1001
0000
,  // measure 51
0100
0010
0100
0010
0100
0001
0100
0010
0100
0001
0100
0010
0100
0001
0100
0010
,  // measure 52
0101
0000
1100
0000
0101
0000
1000
0010
0100
0001
0110
0000
2000
0000
3000
0000
,  // measure 53
1001
0000
0101
0000
0101
0000
0000
0000
1000
0100
1000
0100
1001
0000
0110
0000
,  // measure 54
0101
0000
0001
0100
0010
1000
0110
0000
0012
0000
0003
0000
0010
0100
0010
0100
,  // measure 55
0010
0100
0010
0100
0010
0100
1000
0100
1001
0000
0101
0000
1010
0000
1000
0010
,  // measure 56
0101
0000
2000
0000
0000
0000
0000
0000
3000
0000
0010
0000
1001
0000
0100
0010
,  // measure 57
0101
0010
0101
0000
1010
0000
0110
0000
0011
0000
2000
3100
1000
0100
1010
0000
,  // measure 58
0011
0011
0011
0000
1000
0010
0100
0100
0010
0000
0100
0000
0020
0000
0030
0000
,  // measure 59
1001
0000
1000
0100
1000
0100
1000
0100
1000
0010
0101
0000
0101
0000
0010
0000
,  // measure 60
1001
0000
0000
1010
0000
0000
1001
0000
0000
0000
0000
0000
0010
0000
0010
0000
0100
0000
0010
0000
0000
0001
0000
0000
,  // measure 61
1010
0000
0100
0001
0100
0010
1001
0000
0110
0000
0000
0000
1100
0000
0001
0100
,  // measure 62
0001
0001
0010
0000
1001
1000
0010
0000
1001
0000
1100
0000
0101
0000
1100
0000
,  // measure 63
1100
0000
0020
0000
0000
0000
0000
0000
0030
0000
0100
0001
0110
0001
1000
0000
,  // measure 64
0101
0010
0100
0000
1001
0000
1010
0000
0011
0000
0011
0000
0010
0100
0011
0000
,  // measure 65
0011
0000
0000
0000
1001
0000
0010
0000
1000
0100
0010
0000
0001
0010
0001
0010
,  // measure 66
1100
0000
0000
0000
0000
0000
0010
0000
0000
0000
0000
0000
1002
0000
0000
0000
0000
0000
1003
0000
0000
0100
0000
0000
1000
0000
0000
0000
0000
0000
0200
0000
0000
0000
0320
0000
0000
0000
0030
0000
0000
0000
0000
0000
0200
0000
0000
0000
,  // measure 67
0320
0000
0000
0000
0030
0000
0000
0000
0000
0000
0000
0000
0000
0000
0000
0000
0000
0000
1000
0000
0000
0000
0000
0000
1000
0000
0000
0000
0000
0000
0001
0000
0000
0100
0000
0000
0011
0000
0000
0000
0000
0000
1010
0000
0000
0000
0000
0000
,  // measure 68
0102
0000
1003
0000
0020
0000
2030
0000
3200
0000
2300
0000
3200
0000
0301
0010
,  // measure 69
1001
0000
1000
0001
0100
0010
0100
0010
0101
0000
0010
1000
0200
0000
0302
0023
,  // measure 70
0030
0020
0032
0003
2000
0000
3020
0032
0003
0000
0000
0000
0000
0000
0000
0000
,  // measure 71
1000
0100
1000
0100
1001
0000
0000
0000
2000
0000
3020
0000
0230
0000
0302
0000
,  // measure 72
2003
0000
3020
0000
0230
0000
0300
0000
0000
0000
1001
0000
1010
0000
0100
0010
,  // measure 73
1001
0000
0000
0000
0000
0000
0000
0000
0000
0000
0000
0000
2000
0000
0000
3200
0000
0000
2300
0000
0000
3000
0000
0000
0020
0000
0000
0000
0032
0000
0000
0000
0023
0000
0000
0000
0230
0000
0000
2300
0000
0000
3000
0000
0000
0200
0000
0000
,  // measure 74
0320
0030
0000
0000
0000
0000
1001
0000
1001
0000
0100
0010
1100
0001
0010
0100
,  // measure 75
2001
0000
0000
0000
0000
0000
3200
0000
0000
0000
0000
0000
0320
0000
0000
0000
0000
0000
0032
0000
0203
0000
0000
0000
2300
0000
0000
0000
0000
0000
3020
0000
0000
0000
0000
0000
0230
0000
0000
0000
0000
0000
0310
0000
0000
1000
0000
0000
,  // measure 76
0010
0000
1100
0000
0001
0010
0100
0100
1000
0000
0110
0000
2000
3020
0230
0300
,  // measure 77
0020
2030
3000
0000
0002
0003
0000
0200
0320
0030
0000
0000
1100
0000
0101
0000
,  // measure 78
1000
0000
0000
0010
0000
0000
0101
0000
0000
1000
0000
0000
0011
0000
0000
0000
0000
0000
0100
0000
0000
0000
0000
0000
0002
0000
2003
0000
3002
0000
2003
0000
3000
0002
0000
0000
0203
0000
0000
0300
0000
0000
0020
0000
0000
0030
0000
0000
,  // measure 79
2000
3000
0002
0203
0300
0000
0000
0000
0000
0000
0000
0000
0000
0000
0000
0000
,  // measure 80
1001
0001
0001
1001
0001
0001
1001
0001
,  // measure 81
0001
1001
0001
0001
1001
0001
0001
1001
,  // measure 82
0001
0001
1001
0001
0001
1001
0001
0001
,  // measure 83
1001
0000
0000
0000
1001
0000
0000
1000
,  // measure 84
0001
0110
0000
0000
,  // measure 85
0000
0000
0000
0000
1001
0010
0100
0010
0001
0010
0100
0010
0001
0010
0100
0010
,  // measure 86
0001
0010
0100
0010
0001
0010
0100
0010
0001
0010
0100
0010
1001
0010
0100
0010
,  // measure 87
1001
0100
0010
0001
0100
0010
1000
0001
0100
0010
1000
0100
0010
0001
0010
0100
,  // measure 88
1010
0100
1000
0100
0010
0001
0100
0010
1000
0001
0100
0010
1001
0100
0010
0001
,  // measure 89
1000
0010
0100
0001
1000
0001
0010
0100
1000
0010
1000
0100
1010
0001
0100
0001
,  // measure 90
0100
0010
1000
0010
1000
0100
0010
0001
1100
0010
0100
0001
0010
0100
1000
0100
,  // measure 91
0010
0001
1000
0010
0100
0001
1000
0100
1010
0001
0100
0010
0100
0001
0010
0100
,  // measure 92
1000
0010
0100
0001
1010
0100
0010
0001
1000
0001
0010
0100
1000
0100
0010
0001
,  // measure 93
0010
0100
0010
0100
1000
0010
0100
0001
0010
0100
1000
0100
0010
0001
0010
0100
,  // measure 94
1001
0000
0101
0000
1010
0000
0001
0010
0100
1000
0110
0000
1000
0100
1000
0100
,  // measure 95
1001
0010
1000
0001
1100
0000
0001
0010
0101
0000
1000
0001
0110
0000
1100
0000
,  // measure 96
1001
0000
0001
0100
0001
0010
1001
0000
0100
0010
0100
0010
1001
0000
0000
0000
,  // measure 97
1001
0000
0010
0100
0011
0000
0010
0010
1001
0000
1010
0000
0101
0000
1000
0001
,  // measure 98
0100
0010
1100
0000
0001
0010
0001
1000
0001
0010
0100
1000
0110
0000
1000
0001
,  // measure 99
1100
0000
0000
0000
1001
0000
0110
0000
0011
0000
0100
0000
0010
0100
1001
0000
,  // measure 100
0001
0100
0001
0100
0011
0000
0000
0000
1001
0000
0100
0000
0000
1001
0000
0000
,  // measure 101
0101
0000
1001
0000
0110
0000
1000
0001
0100
0010
1001
0000
0010
0100
0010
1000
,  // measure 102
0010
0100
0010
1000
0110
0000
0001
0010
0100
1000
0001
0010
0101
0000
0101
0000
,  // measure 103
1000
0010
1000
0100
0010
0001
0110
0000
1000
0001
1000
0000
0110
0000
0110
0000
,  // measure 104
0001
0010
0001
1000
0001
0010
0001
1000
0011
0000
0110
0000
1000
0001
0100
0010
,  // measure 105
1000
0100
0010
0001
1010
0000
1000
0010
1100
0000
1100
0000
1100
0000
0010
0100
,  // measure 106
0010
0100
0011
0000
0011
0000
0000
0000
1001
0000
0000
0100
1001
0000
1000
0100
,  // measure 107
1001
0010
0100
1000
0110
0000
0001
0010
0001
0010
0101
0000
0010
0000
1001
0000
,  // measure 108
0110
0000
0101
0000
1000
0001
1000
0001
0010
0100
1001
0000
0100
0010
0100
0001
,  // measure 109
0110
0001
1000
0010
0100
0010
1000
0010
0100
0001
1010
0000
1001
0000
1100
0000
,  // measure 110
0011
1000
0001
0100
0001
0100
0011
0000
1000
0100
0011
0000
0011
0000
1100
0001
,  // measure 111
0100
0010
1001
0000
0010
1001
0000
0010
0101
0000
1010
0000
0110
0000
1000
0001
,  // measure 112
0110
0000
1100
0000
0110
0000
1001
0000
0001
0010
0100
0010
0001
0010
0100
1000
,  // measure 113
0100
0010
1100
0000
1001
0000
1010
0000
0101
0000
0010
0100
0011
0000
1010
0000
,  // measure 114
0110
0000
1001
0000
0110
0000
0010
1001
0000
0000
0001
0001
0101
0000
0110
0000
,  // measure 115
1001
0000
1010
0000
0101
0000
1000
0001
0100
0010
0101
0000
0001
0010
0101
0000
,  // measure 116
1001
0000
0101
0010
0100
1000
0100
0010
0100
1000
0100
0010
0101
0000
0110
0000
,  // measure 117
1100
0000
0001
0010
0000
0010
0001
0000
0100
0010
0000
0010
1100
0000
0000
1001
,  // measure 118
0000
0000
1000
0100
1000
0100
1010
0000
0101
0000
1010
0000
0100
0001
0100
0010
,  // measure 119
0100
0001
1010
0000
1000
0100
0011
0000
0011
0000
1001
0010
0100
1000
0100
0010
,  // measure 120
0100
1000
0100
0010
1100
0000
1010
0000
1001
0000
0100
0010
0000
0010
0100
0000
,  // measure 121
1000
0100
0000
0100
1001
0000
0000
0000
1010
0000
0000
0101
0000
0000
0100
0000
,  // measure 122
1001
0000
0000
0000
;

//---------------dance-single - ----------------
#NOTES:
     dance-single:
     :
     Hard:
     11:
     1.000,1.000,1.000,0.448,1.000,1120.000,187.000,73.000,0.000,0.000:  // measure 1
0000
0000
0000
0000
,  // measure 2
0000
0000
0000
0000
,  // measure 3
0000
0000
0000
0000
,  // measure 4
0000
0000
0000
0000
,  // measure 5
0000
0000
0000
0000
,  // measure 6
0000
0000
0000
0000
,  // measure 7
0000
0000
0000
0000
,  // measure 8
0000
0000
0000
0000
,  // measure 9
0000
0000
0000
0000
,  // measure 10
0000
0000
0000
0000
,  // measure 11
1001
0000
0000
0000
1000
0010
0100
0001
1000
0100
0010
0000
1000
0010
1000
0010
,  // measure 12
0100
0001
0100
0001
0100
0010
1000
0000
0000
0000
0000
0000
0110
0000
0000
0000
,  // measure 13
1010
0000
1000
0010
1000
0001
0110
0000
0001
0010
0001
0010
0100
1000
0100
1000
,  // measure 14
0010
0100
0022
0000
0033
0000
0000
0000
1010
0000
0000
0000
0101
0000
1000
0100
,  // measure 15
1000
0010
1001
0000
0010
0100
0001
0000
1010
0000
0100
0000
0001
0010
0001
0000
,  // measure 16
0000
0000
0000
0000
1001
0000
0000
0000
1010
0000
0100
0010
0100
0001
1010
0000
,  // measure 17
1000
0001
0010
0000
1001
0000
0100
0000
0001
0100
0001
0000
0000
0000
0000
0000
,  // measure 18
1100
0000
0000
0000
0010
0000
0010
0000
1000
0100
0010
0000
0010
0001
0010
0100
,  // measure 19
0010
0000
0010
0001
0010
0000
0100
0000
1000
0001
0100
0010
1100
0000
0000
0000
,  // measure 20
1010
0000
0001
0100
0000
0100
0001
0000
0001
0100
0010
0100
0001
1000
0100
0010
,  // measure 21
0001
1000
0110
0000
0000
0000
0000
0000
1001
0000
0000
0000
1100
0000
0001
0100
,  // measure 22
0010
1000
0101
0000
0100
0010
0100
0001
0010
0000
0100
0000
0001
0100
0001
0000
,  // measure 23
0000
0000
0000
0000
1100
0000
0000
0000
0001
0010
0001
0010
0001
0010
0001
0010
,  // measure 24
0001
0101
1000
0001
0100
0010
0000
0100
,  // measure 25
0001
1000
0001
0010
0000
0100
1000
0001
,  // measure 26
0100
0010
0000
1000
0100
0001
0100
1000
,  // measure 27
0000
0001
0100
0010
1000
0100
0000
1000
,  // measure 28
0001
0100
0001
1000
0000
1000
0010
1000
,  // measure 29
0001
0100
0000
1000
0100
0010
0001
0010
,  // measure 30
0000
0010
0100
0010
0001
1000
0000
0001
,  // measure 31
0100
0010
1000
0001
0000
1000
0100
0010
,  // measure 32
0100
1000
0000
0001
0100
0010
1000
0100
,  // measure 33
0000
1000
0100
0010
0001
1000
0000
0001
,  // measure 34
0100
0001
1000
0100
0000
0010
0001
0000
,  // measure 35
1000
0100
0000
0010
0100
0000
0001
0010
,  // measure 36
0000
1000
0010
0000
0000
0100
0000
0000
,  // measure 37
0001
0000
0000
0000
0000
0000
0000
0000
0000
0000
0000
0000
0000
0000
0000
0000
0000
0000
0000
0000
0000
0000
0000
0000
0000
0000
0000
0000
0000
0000
0000
0000
0000
0000
0000
0000
0000
0000
0000
0000
0000
0000
0000
0000
0000
0000
0000
0000
0000
0000
0000
0000
0000
0000
0000
0000
0020
0000
0000
0000
0000
0030
0000
0000
,  // measure 38
1000
0100
1000
0000
0110
0000
0001
1000
0010
0000
1100
0000
0011
0000
1000
0001
,  // measure 39
1000
0000
0010
0100
0010
0100
0010
0000
0001
0010
0100
1000
0001
0010
0101
0000
,  // measure 40
1010
0000
0100
0010
0100
0000
0012
0003
1000
0010
1000
0100
1001
0000
0001
0010
,  // measure 41
0001
0100
0010
0000
0001
0100
0010
1000
0100
0010
0001
0000
0101
0000
1000
0100
,  // measure 42
1000
0001
1000
0100
1010
0000
0001
0100
0001
0000
1000
0100
0000
0000
0100
1000
,  // measure 43
0000
0110
0000
0000
0110
0000
1000
0100
0010
0000
0010
0001
0010
0001
0010
0001
,  // measure 44
0010
0100
1000
0100
1000
0000
1010
0000
0110
0000
0110
0000
1000
0010
1000
0010
,  // measure 45
1000
0001
0010
0000
1001
0000
0110
1000
0100
0010
0001
0000
0010
0100
0010
1000
,  // measure 46
0010
0100
0010
0000
0110
0000
1100
0000
0101
0000
1000
0010
0100
0000
1100
0000
,  // measure 47
1100
0000
0010
1000
0010
0100
0010
1000
0010
0100
0001
1000
0011
0000
0000
0011
,  // measure 48
0000
0000
0011
0000
0000
0011
0000
0000
0001
0100
0010
1000
0001
0010
0100
0000
,  // measure 49
0010
0000
1100
0000
0010
0100
0010
0000
0001
0110
0000
0000
1010
0000
0102
0000
,  // measure 50
0000
0000
0203
0300
0010
1000
0010
0000
1100
0000
0001
1000
0010
0000
1001
0000
,  // measure 51
0100
0010
0100
0010
0100
0001
0100
0010
0100
0001
0100
0010
0100
0001
0100
0010
,  // measure 52
0100
0000
1100
0000
0101
0000
1000
0010
0100
0001
0100
0000
2000
0000
3000
0000
,  // measure 53
1001
0000
0101
0000
0101
0000
0000
0000
1000
0100
1000
0100
1000
0000
0110
0000
,  // measure 54
0101
0000
0001
0100
0010
1000
0110
0000
0012
0000
0003
0000
0010
0100
0010
0100
,  // measure 55
0010
0100
0010
0100
0010
0100
1000
0100
1000
0000
0101
0000
1010
0000
1000
0010
,  // measure 56
0101
0000
2000
0000
0000
0000
0000
0000
3000
0000
0010
0000
1001
0000
0100
0010
,  // measure 57
0100
0010
0100
0000
1010
0000
0110
0000
0011
0000
1000
0100
1000
0100
1000
0000
,  // measure 58
0001
0010
1001
0000
1000
0010
0100
0001
0010
0000
0100
0000
0020
0000
0030
0000
,  // measure 59
1001
0000
1000
0100
1000
0100
1000
0100
1000
0010
0100
0000
0101
0000
0010
0000
,  // measure 60
1001
0000
0000
1010
0000
0000
1001
0000
0000
0000
0000
0000
0010
0000
0010
0000
0100
0000
0010
0000
0000
0001
0000
0000
,  // measure 61
1010
0000
0100
0001
0100
0010
1001
0000
0110
0000
0000
0000
1100
0000
0001
0100
,  // measure 62
0001
1000
0010
0000
0010
1000
0010
0000
1001
0000
0010
0000
0101
0000
0010
0000
,  // measure 63
1100
0000
0020
0000
0000
0000
0000
0000
0030
0000
0100
0001
0100
0001
1000
0000
,  // measure 64
0100
0010
0100
0000
1001
0000
1010
0000
0011
0000
0100
0000
0010
0100
0010
0000
,  // measure 65
1001
0000
0000
0000
1001
0000
0010
0000
1000
0100
0010
0000
0001
0010
0001
0010
,  // measure 66
0100
0000
0000
0000
0000
0000
0010
0000
0000
0000
0000
0000
1002
0000
0000
0000
0000
0000
1003
0000
0000
0100
0000
0000
1000
0000
0000
0000
0000
0000
0200
0000
0000
0000
0320
0000
0000
0000
0030
0000
0000
0000
0000
0000
0200
0000
0000
0000
,  // measure 67
0320
0000
0000
0000
0030
0000
0000
0000
0000
0000
0000
0000
0000
0000
0000
0000
0000
0000
1000
0000
0000
0000
0000
0000
1000
0000
0000
0000
0000
0000
0001
0000
0000
0100
0000
0000
0010
0000
0000
0000
0000
0000
1010
0000
0000
0000
0000
0000
,  // measure 68
0102
0000
1003
0000
0020
0000
2030
0000
3200
0000
2300
0000
3200
0000
0301
0010
,  // measure 69
1001
0000
1000
0001
0100
0010
0100
0010
0100
0000
0010
1000
0200
0000
0302
0023
,  // measure 70
0030
0020
0032
0003
2000
0000
3020
0230
0300
0000
0000
0000
0000
0000
0000
0000
,  // measure 71
1000
0100
1000
0100
1000
0000
0000
0000
2000
0000
3020
0000
0230
0000
0302
0000
,  // measure 72
2003
0000
3020
0000
0230
0000
0300
0000
0000
0000
1001
0000
1010
0000
0100
0010
,  // measure 73
1000
0000
0000
0000
0000
0000
0000
0000
0000
0000
0000
0000
2000
0000
0000
3200
0000
0000
2300
0000
0000
3000
0000
0000
0020
0000
0000
0000
0032
0000
0000
0000
0023
0000
0000
0000
0230
0000
0000
2300
0000
0000
3000
0000
0000
0200
0000
0000
,  // measure 74
0320
0030
0000
0000
0000
0000
1001
0000
1001
0000
0100
0010
1000
0001
0010
0100
,  // measure 75
2000
0000
0000
0000
0000
0000
3200
0000
0000
0000
0000
0000
0320
0000
0000
0000
0000
0000
0032
0000
0203
0000
0000
0000
2300
0000
0000
0000
0000
0000
3020
0000
0000
0000
0000
0000
0230
0000
0000
0000
0000
0000
0310
0000
0000
1000
0000
0000
,  // measure 76
0010
0000
1100
0000
0001
0010
0100
1000
0100
0000
0110
0000
2000
3020
0230
0300
,  // measure 77
0020
2030
3000
0000
0002
0003
0000
0200
0320
0030
0000
0000
1100
0000
0101
0000
,  // measure 78
1000
0000
0000
0010
0000
0000
0100
0000
0000
0001
0000
0000
1010
0000
0000
0000
0000
0000
0100
0000
0000
0000
0000
0000
0002
0000
2003
0000
3002
0000
2003
0000
3000
0002
0000
0000
0203
0000
0000
0300
0000
0000
0020
0000
0000
0030
0000
0000
,  // measure 79
2000
3000
0002
0203
0300
0000
0000
0000
0000
0000
0000
0000
0000
0000
0000
0000
,  // measure 80
1001
0001
0001
1001
0001
0001
1001
0001
,  // measure 81
0001
1001
0001
0001
1001
0001
0001
1001
,  // measure 82
0001
0001
1001
0001
0001
1001
0001
0001
,  // measure 83
1001
0000
0000
0000
1001
0000
0000
1000
,  // measure 84
0001
0110
0000
0000
,  // measure 85
0000
0000
0000
0000
0001
0010
0100
0010
0001
0010
0100
0010
0001
0010
0100
0010
,  // measure 86
0001
0010
0100
0010
0001
0010
0100
0010
0001
0010
0100
0010
0001
0010
0100
0010
,  // measure 87
0001
0010
0100
1000
0010
0100
0010
1000
0100
0010
0001
0010
0100
1000
0010
0100
,  // measure 88
0001
1000
0100
0010
0100
1000
0010
0100
0001
0010
0100
1000
0010
0100
0010
1000
,  // measure 89
0100
0010
0001
0100
0001
0010
0100
1000
0010
1000
0100
0010
0001
0100
0001
0100
,  // measure 90
0010
1000
0010
1000
0100
0010
0001
0100
0010
0100
0001
0010
0100
1000
0010
0100
,  // measure 91
0001
0010
0100
1000
0100
0010
0100
1000
0100
0010
0001
0010
0001
1000
0010
0100
,  // measure 92
0001
1000
0100
0010
0001
0100
0010
0100
0001
0010
0100
1000
0010
0100
0001
0010
,  // measure 93
0100
1000
0100
0010
0001
1000
0010
0100
0001
1000
0010
0100
0001
0010
0100
1000
,  // measure 94
0100
0000
0101
0000
1010
0000
0001
0010
0100
1000
0110
0000
1000
0100
1000
0100
,  // measure 95
1000
0010
1000
0001
1100
0000
0001
0010
0100
0000
1000
0001
0110
0000
1100
0000
,  // measure 96
1001
0000
0001
0100
0001
0010
1001
0000
0100
0010
0100
0010
1001
0000
0000
0000
,  // measure 97
1001
0000
0010
0100
0010
0000
0010
0100
1001
0000
1010
0000
0101
0000
1000
0001
,  // measure 98
0100
0010
1000
0000
0001
0010
0001
1000
0001
0010
0100
1000
0110
0000
1000
0001
,  // measure 99
1000
0000
0000
0000
1001
0000
0110
0000
0011
0000
0100
0000
0010
0100
1001
0000
,  // measure 100
0001
0100
0001
0100
0010
0000
0000
0000
1001
0000
0110
0000
0000
1001
0000
0000
,  // measure 101
0101
0000
1001
0000
0110
0000
1000
0001
0100
0010
1001
0000
0010
0100
0010
1000
,  // measure 102
0010
0100
0010
1000
0010
0000
0001
0010
0100
1000
0001
0010
0100
0000
0101
0000
,  // measure 103
1000
0010
1000
0100
0010
0001
0010
0000
1000
0001
1000
0000
0110
0000
0110
0000
,  // measure 104
0001
0010
0001
1000
0001
0010
0001
1000
0001
0000
0110
0000
1000
0001
0100
0010
,  // measure 105
1000
0100
0010
0001
0010
0000
1000
0010
1000
0000
1010
0000
1010
0000
0010
0100
,  // measure 106
0010
0100
0010
0000
0011
0000
0000
0000
1001
0000
0000
0100
0010
0000
1000
0100
,  // measure 107
0010
0001
0010
0100
1001
0000
0001
0010
0001
0010
0001
0000
0010
0000
1001
0000
,  // measure 108
0110
0000
0101
0000
1000
0001
1000
0001
0010
0100
1001
0000
0100
0010
0100
0001
,  // measure 109
0100
0001
1000
0010
0100
0010
1000
0010
0100
0001
1000
0000
1001
0000
1100
0000
,  // measure 110
0011
1000
0001
0100
0001
0100
0001
0000
1000
0100
0011
0000
0011
0000
1100
0001
,  // measure 111
0100
0010
1001
0000
0010
0100
0000
0100
0010
0000
1010
0000
0110
0000
1000
0001
,  // measure 112
0100
0000
1100
0000
0110
0000
1001
0000
0001
0010
0100
0010
0001
0010
0100
1000
,  // measure 113
0100
0010
0100
0000
1001
0000
1010
0000
0101
0000
0010
0100
0010
0000
1010
0000
,  // measure 114
0110
0000
1001
0000
0110
0000
0010
0100
0000
0000
0001
1000
0001
0000
0110
0000
,  // measure 115
1001
0000
1010
0000
0101
0000
1000
0001
0100
0010
0100
0000
0001
0010
0001
0000
,  // measure 116
1001
0000
0001
0010
0100
1000
0100
0010
0100
1000
0100
0010
0001
0000
0110
0000
,  // measure 117
1100
0000
0001
0010
0000
0010
0001
0000
0100
0010
0000
0010
0100
0000
0000
1001
,  // measure 118
0000
0000
1000
0100
1000
0100
1000
0000
0101
0000
1010
0000
0100
0001
0100
0010
,  // measure 119
0100
0001
0010
0000
1000
0100
0011
0000
0011
0000
1001
0010
0100
1000
0100
0010
,  // measure 120
0100
1000
0100
0010
0100
0000
1010
0000
1001
0000
0100
0010
0000
0010
0100
0000
,  // measure 121
1000
0100
0000
0100
1001
0000
0000
0000
1010
0000
0000
0101
0000
0000
0100
0000
,  // measure 122
1001
0000
0000
0000
;
