#TITLE:Over The Frail Dream;
#SUBTITLE:;
#ARTIST:PHANTASMA;
#TITLETRANSLIT:;
#SUBTITLETRANSLIT:;
#ARTISTTRANSLIT:;
#CREDIT:;
#BANNER:Over The Frail Dream-BN.jpg;
#BACKGROUND:Over The Frail Dream-BG.jpg;
#LYRICSPATH:;
#CDTITLE:!chcattitle.png;
#MUSIC:Over The Frail Dream.mp3;
#OFFSET:-2.310;
#SAMPLESTART:32.394;
#SAMPLELENGTH:12.000;
#SELECTABLE:YES;
#BPMS:0.000=200.000;
#STOPS:;
#BGCHANGES:;
// cache tags:
#FIRSTBEAT:0.000;
#LASTBEAT:292.000;
#SONGFILENAME:Songs/Ace Megapack/Over The Frail Dream/Over The Frail Dream.sm;
#HASMUSIC:1;
#HASBANNER:1;
#MUSICLENGTH:91.898;
// end cache tags

//---------------dance-single - ----------------
#NOTES:
     dance-single:
     :
     Hard:
     11:
     1.000,1.000,0.958,0.076,1.000,710.000,88.000,7.000,0.000,0.000:

1000
0010
0100
0001
0010
0100
1000
0000
,
0100
0010
0001
0000
0001
0010
0100
1000
,
0000
1000
0100
0010
0001
0000
1000
0000
,
0001
0001
0001
0000
0010
0100
1000
0100
,
1000
0100
0010
0001
1000
0100
0010
0001
1000
0100
0010
0001
0010
0100
1000
0001
,
0010
0100
1000
0100
0010
0001
0010
0100
1000
0100
0010
0001
0010
0100
0010
0001
,
1000
0001
1000
0001
1000
0001
1000
0100
0010
0001
0010
0100
1000
0000
0101
0000
,
0000
0000
1001
0000
0000
0110
0000
0000
0000
0000
0000
0000
1100
0110
0011
0000
,
1000
0100
0010
0100
1000
0100
0010
0200
,
0300
1000
0100
0020
0030
0001
0010
0200
,
0300
1000
0100
0010
0001
0000
0001
0011
,
0000
0110
0000
1100
0000
0001
1000
0100
,
0000
0000
1000
0000
0100
0000
0010
0000
0001
0000
0010
0000
0100
0000
2000
3000
,
0000
1000
0100
0010
0000
1000
0100
0010
,
0000
0001
1000
0010
0100
0000
0100
0001
,
0000
0110
0000
0110
0000
0000
0000
0000
,
0001
0010
0100
1000
0001
0010
0100
1000
0001
1000
0100
0010
0001
0010
0100
1000
,
0100
0010
0100
1000
0100
0010
0001
0010
0100
1000
0100
0010
0100
1000
0100
0010
,
0001
0010
0100
0010
0001
0010
0100
0010
0100
1000
0100
0010
0100
1000
0100
0010
,
0100
1000
0100
0010
0001
0010
0100
0010
0001
0010
0001
0010
0001
0010
0001
0010
,
0100
1000
0100
1000
0100
1000
0100
0010
0001
0010
0100
1000
0100
1000
0100
0010
,
0100
1000
0100
0010
0100
1000
0100
0010
0001
0010
0100
0010
0001
0010
0100
1000
,
0100
0010
0001
0010
0001
0010
0100
1000
0100
1000
0100
0010
0000
0000
1001
0000
,
0000
0000
0011
0000
0000
1100
0000
0000
0000
0000
0000
0000
0000
0000
0000
0000
,
0001
0100
0001
0000
0010
0100
0010
0000
0100
0010
0100
0000
1000
0100
1000
0000
,
1000
0100
1000
0000
0100
0010
0100
0000
0010
0100
0010
0000
0001
0100
0001
0000
,
1000
0100
1000
0000
0001
0010
0001
0000
1000
0010
1000
0000
0001
0010
0001
0000
,
1000
0010
1000
0000
0001
0100
0001
0000
0010
0100
0010
0000
0100
0010
0100
0000
,
1000
0100
1000
0000
0100
0010
0100
0000
0010
0100
0010
0000
0001
0100
0001
0000
,
1000
0100
1000
0000
0001
0010
0001
0000
1000
0100
1000
0000
0001
0010
0001
0000
,
0100
0010
0100
0000
1000
0100
1000
0000
0100
0010
0100
0000
0010
0100
0010
0000
,
0001
0100
0001
0000
1000
0100
1000
0000
0001
0010
0001
0000
1000
0100
1000
0000
,
1000
0001
1000
0000
0010
1000
0010
0000
1000
0001
1000
0000
0001
1000
0001
0000
,
0100
1000
0100
0000
0010
1000
0010
0000
0100
0001
0100
0000
0010
1000
0010
0000
,
0100
0010
0100
0000
0010
0100
0010
0000
0001
0010
0001
0000
0010
0100
0010
0000
,
0100
0010
0100
0000
1000
0010
1000
0000
0001
0010
0001
0000
1000
0100
1000
0000
,
0001
0010
0001
0000
0001
0010
0001
0000
1000
0100
1000
0000
0010
0100
0010
0000
,
0100
0010
0100
0000
0010
1000
0010
0000
0001
1000
0001
0000
0100
0001
0100
0000
,
0001
1000
0001
0000
1000
0001
1000
0000
0010
0001
0010
0000
0100
0001
0100
0000
,
0010
1000
0010
0000
0100
0001
0100
0000
0010
0100
0010
0000
1001
0000
0000
0000
,
0101
0010
0101
0010
0101
0001
0011
0001
,
1010
0010
0011
0010
0110
0010
1001
0010
,
1010
0001
1010
0100
0101
0001
0110
0100
,
0110
0100
1100
0100
0101
0100
1010
0100
,
1001
1000
0011
0100
0011
0010
1010
0001
,
0110
0001
0110
0100
1001
0100
1001
1000
,
1100
0001
1100
0001
1100
0100
0101
0100
,
0011
0001
0101
0001
1001
0001
0110
0001
,
0011
0100
0011
1000
1100
0100
1001
1000
,
1001
1000
1010
1000
1100
1000
0011
1000
,
0110
0010
0101
1000
0101
0001
0011
0100
,
1001
0100
1001
1000
0110
0100
1100
0001
,
1100
0001
1100
0100
0101
0100
0011
0001
,
0101
0001
1001
0001
0110
0001
0011
0100
,
0011
1000
1100
0100
1001
1000
1001
1000
,
1010
1000
1100
1000
0011
1000
0110
0010
,
0101
0001
0010
0100
1000
0100
0010
0002
,
0003
0001
0010
0100
0000
1000
0100
0010
,
0000
0001
1000
0100
0010
0000
0001
1000
,
0000
1010
0000
1010
0000
0001
1000
0100
,
0000
1000
0100
0010
0001
0100
0010
0100
,
0000
0010
1000
0010
0000
0100
0001
0100
,
0000
0010
1000
0100
1000
0000
0100
1100
,
0000
1100
0000
1100
0000
0000
0000
0000
,
1000
0100
0010
0001
0010
0100
1000
0100
0010
0100
0010
0100
0010
0100
0010
0001
,
1000
0001
1000
0001
1000
0001
1000
0100
0010
0001
0010
0100
1000
0100
1000
0100
,
1000
0100
0010
0001
0010
0001
0010
0001
0010
0100
1000
0100
0010
0100
1000
0100
,
0010
0001
0010
0100
1000
0100
1000
0100
0010
0100
0010
0100
0010
0001
0010
0100
,
1000
0100
0010
0001
0010
0100
1000
0100
1000
0001
1000
0010
1000
0100
1000
0100
,
1000
0100
0010
0001
0010
0100
1000
0100
0010
0001
0010
0100
0010
0100
1000
0100
,
0010
0001
0010
0001
0010
0001
0010
0100
1000
0100
1000
0100
1000
0000
0000
1100
,
0000
1100
0000
2002
0000
0000
0000
0000
,
0000
0000
0000
0000
,
3003
0000
0000
0000
;

//---------------dance-single - CH321----------------
#NOTES:
     dance-single:
     CH321:
     Challenge:
     11:
     1.000,1.000,0.044,0.283,1.000,777.000,4.000,26.000,0.000,1.000:
0000
1000
0010
0100
0001
0010
0100
1000
,
0000
0010
0001
0010
0000
0010
0100
1000
,
0000
1000
0100
0010
0001
0000
1000
0010
,
0000
0010
0000
0010
0000
0100
1000
0100
,
0001
0100
0010
1000
0100
0010
0001
0010
0100
1000
0010
0100
0001
0010
0100
0010
,
0001
0010
0100
1000
0100
1000
0100
0010
0001
0010
0100
0010
0100
1000
0100
0010
,
0001
0010
0100
1000
0010
0100
0001
0010
0100
1000
0010
0100
0001
0000
0001
0000
,
0000
0000
0001
0000
0000
0000
0220
0000
0000
0000
0330
0000
1000
0100
1000
0000
,
1000
0100
0010
0100
1000
0100
0010
0002
,
0003
1000
0100
0020
0030
0001
0010
0200
,
0300
1000
0100
0010
0001
0000
0001
1000
,
0000
1000
0000
2200
0000
3301
0100
0010
,
0000
1000
0100
0010
0001
0010
0100
2000
,
3000
1000
0100
0010
0000
0001
0100
0010
,
0000
1000
0100
0010
0001
0000
0100
0010
,
0000
0010
0000
0220
0000
0330
0000
0000
,
1000
0010
0100
0001
0010
0100
1000
0100
0010
0001
0010
0100
0010
0001
0010
0100
,
1000
0100
0010
0100
0010
0001
0010
0100
1000
0100
0010
0001
0010
0001
0010
0100
,
1000
0100
0010
0100
1000
0010
0100
0001
0010
0100
1000
0010
0100
0001
1000
0010
,
0100
0001
1000
0010
0100
0001
0010
0100
1000
0010
0100
0001
0100
0010
1000
0100
,
0010
0001
0010
0100
1000
0100
0010
0001
0010
0100
0010
0100
1000
0100
1000
0001
,
0100
0010
1000
0001
0100
0010
1000
0010
0100
0001
0010
0100
1000
0100
0010
0001
,
0010
0100
0010
0001
0010
0100
1000
0100
1000
0100
0010
0001
0010
0000
0001
0000
,
0000
0010
0000
2200
0000
3300
0000
0000
,
1000
0010
0100
0001
0010
0100
1000
0010
0100
0001
1000
0010
0100
0001
0010
0100
,
1000
0100
0010
0001
1000
0010
0100
0001
0100
0010
1000
0100
0010
0001
0010
0100
,
0010
0001
0010
0001
0010
0100
0010
0100
1000
0010
0100
0001
1000
0010
0100
0001
,
0010
0100
1000
0010
0100
0001
1000
0010
0100
0001
0010
0100
1000
0100
0010
0001
,
0010
0100
1000
0100
0010
0001
0010
0100
0010
0001
0010
0100
1000
0100
0010
0100
,
0010
0100
0010
0001
0010
0001
0010
0100
1000
0010
0100
0001
0100
0010
1000
0001
,
0100
0010
1000
0001
0010
0100
1000
0001
0100
0010
1000
0010
0100
0001
1000
0010
,
0100
0010
0100
0010
0001
0010
0100
0010
0001
0010
0100
1000
0100
0010
0100
1000
,
0100
0010
0001
0010
0100
1000
0100
0010
0001
0100
0010
1000
0001
0100
0010
1000
,
0010
0100
0001
1000
0010
0100
0001
0010
0100
1000
0001
0010
0100
1000
0100
0010
,
0001
1000
0100
0010
0001
0100
0010
1000
0001
0100
0010
1000
0100
0010
0001
1000
,
0100
0010
0001
0010
0100
0010
0001
0010
0100
0010
0100
0010
0100
1000
0100
1000
,
0100
0010
0100
0010
0001
0010
0001
0010
0100
1000
0100
0010
0001
0010
0100
1000
,
0010
0100
0001
0010
0100
0010
0001
0010
0100
1000
0100
0010
0001
1000
0010
0100
,
0001
1000
0010
0100
0001
1000
0010
0100
0001
1000
0100
0010
0100
1000
0100
0010
,
0001
1000
0100
0010
0001
0100
0010
1000
0100
0010
0001
0010
0100
0000
0000
0000
,
1000
0000
0010
0100
0001
0010
0000
0010
,
0000
0010
1000
0001
0000
0001
1000
0002
,
0000
0000
0003
2000
0000
0000
0000
0000
,
0000
0000
3000
0000
0001
0100
0010
0200
,
0000
0000
0000
0000
0000
0300
0000
0001
,
0000
0001
0100
0010
1000
0010
0100
0020
,
0000
0000
0030
0200
0000
0000
0300
0000
,
0000
0000
0000
0010
,
2000
0000
0000
0000
0000
3100
0010
1000
,
0020
0000
0000
0030
0100
0000
0010
0000
,
0002
0000
0000
0003
2000
0000
0000
3000
,
0000
0000
0100
0010
,
0002
0000
0000
0003
0000
0010
1000
0010
,
0200
0000
0000
0300
0020
0000
0000
0030
,
0002
0000
0000
0003
0000
0000
0100
0000
,
0100
1000
0100
0010
,
1000
0010
0100
0001
0010
0100
1000
0010
0100
0001
0100
0010
1000
0010
0100
0001
,
0010
0100
1000
0100
0010
0001
0010
0100
1000
0001
0010
0100
1000
0001
0010
0100
,
1000
0010
0100
0001
1000
0010
0100
0001
0100
0010
1000
0010
0100
0001
0010
0100
,
1000
0010
0100
0001
1000
0100
0010
0100
1000
0100
0010
0001
0010
0100
0010
0001
,
0010
0100
0010
0100
0010
0001
0010
0100
1000
0100
1000
0100
0010
0001
1000
0010
,
0100
0001
1000
0010
0100
0001
0010
0100
1000
0010
0100
0001
1000
0010
0100
0001
,
0100
0010
1000
0010
0100
0001
0010
0100
1000
0100
0010
0001
0100
0010
1000
0010
,
0100
0001
0010
0100
1000
0100
0010
0001
0010
0100
0010
0001
0010
0100
0010
0100
,
1000
0100
1000
0100
0010
0001
0010
0100
1000
0100
0010
0100
0010
0001
0010
0001
,
0010
0100
1000
0010
0100
0001
0100
0010
1000
0010
0100
0001
0100
0010
1000
0100
,
0010
0001
1000
0010
0100
0001
1000
0010
0100
0001
0010
0100
1000
0010
0100
0001
,
0010
0100
1000
0100
0010
0100
1000
0100
0010
0001
0010
0100
0010
0001
0010
0100
,
1000
0100
0010
0100
1000
0100
0010
0100
0010
0001
0010
0001
0010
0100
1000
0010
,
0100
0001
0010
0100
1000
0010
0100
0001
1000
0010
0100
0001
0010
0100
1000
0100
,
0010
0001
0010
0100
1000
0001
0100
0010
1000
0010
0100
0001
0010
0100
1000
0000
,
0000
0100
0000
0020
0000
0000
0000
0000
,
0000
0000
0000
0030
0000
0000
0000
0000
;
