#TITLE:Dazzlin' Darlin;
#SUBTITLE:;
#ARTIST:HHH;
#TITLETRANSLIT:;
#SUBTITLETRANSLIT:;
#ARTISTTRANSLIT:;
#CREDIT:;
#BANNER:Dazzlin' Darlin-bn.png;
#BACKGROUND:Dazzlin' Darlin-bg.jpg;
#LYRICSPATH:;
#CDTITLE:Type MARS.png;
#MUSIC:Dazzlin' Darlin.mp3;
#OFFSET:1.220;
#SAMPLESTART:41.040;
#SAMPLELENGTH:25.760;
#SELECTABLE:YES;
#BPMS:0.000=74.500,4.000=149.000,98.000=74.500,100.000=149.000;
#STOPS:98.000=0.800
,209.000=1.200
;
#BGCHANGES:1.375=Dazzlin' Darlin.avi=1.000=1=1=1,
99999=-nosongbg-=1.000=0=0=0 // don't automatically add -songbackground-
;
// cache tags:
#FIRSTBEAT:2.500;
#LASTBEAT:276.000;
#SONGFILENAME:Songs/Definitive Keyboard Megapack/Dazzlin' Darlin(TypeMARS)/Dazzlin' Darlin.sm;
#HASMUSIC:1;
#HASBANNER:1;
#MUSICLENGTH:119.883;
// end cache tags

//---------------dance-single - ----------------
#NOTES:
     dance-single:
     :
     Beginner:
     1:
     0.199,0.201,0.042,0.025,0.000,159.000,5.000,3.000,0.000,0.000:
0000
0000
0000
0000
,
1001
0000
0000
0000
,
0000
0000
0000
0000
,
0001
0000
0000
0000
,
0001
0000
0000
0000
,
1000
0000
1000
0000
,
0100
0000
0100
0000
,
0020
0000
0030
0000
,
0200
0000
0300
0000
,
0010
0000
0010
0000
,
1000
1000
0100
0000
,
0001
0000
0001
0000
,
0100
0100
0001
0000
,
0010
0000
0010
0000
,
1000
1000
0001
0000
,
0001
0000
0100
0000
,
0010
1000
0100
0000
,
0001
0000
1000
0000
,
0001
0001
1000
0000
,
1000
0000
0001
0000
,
1000
0001
1000
0000
,
0010
0000
0100
0000
,
0010
0100
0010
0000
,
0100
0000
0001
0000
,
1000
0001
0100
0000
,
0100
0100
0000
0001
,
0000
1000
0000
0100
,
0000
0001
0000
0010
,
0000
0100
0000
0001
,
0001
0100
0000
1000
,
0000
0010
0000
0100
,
0000
0001
0000
0010
,
0000
0100
0100
0100
,
0001
0000
0001
0000
,
1000
0000
1000
1000
,
0100
0000
0010
0000
,
0100
0000
1000
0001
,
0100
0000
0100
0000
,
0010
0000
0001
0010
,
0100
0000
0100
0000
,
0200
0000
0300
0000
,
1001
0000
0000
0000
,
0001
0000
1000
0000
,
0100
0000
0010
0000
,
0001
0001
0001
0000
,
1001
0000
1000
0000
,
0100
0000
1000
0000
,
1001
0000
0001
0000
,
0100
0100
0100
0000
,
0010
0010
0010
0000
,
1000
0000
0001
0000
,
1000
0001
1000
0000
,
0000
0000
1000
1000
,
1000
0100
0000
0100
,
0000
0010
0010
0010
,
0010
0100
0000
0100
,
0000
1000
1000
1000
,
1000
0001
0000
0001
,
0000
0010
0000
0010
,
0010
0100
0000
0100
,
0000
1000
0001
1000
,
1000
0001
0000
0001
,
0000
0100
0001
0001
,
0100
0001
0000
0010
,
0000
0100
1000
1000
,
0100
1000
0000
1000
,
0000
0001
0000
0001
,
0001
0100
0000
0010
,
0000
0100
0010
0110
;

//---------------dance-single - ----------------
#NOTES:
     dance-single:
     :
     Easy:
     4:
     0.356,0.459,0.392,0.017,0.000,250.000,47.000,2.000,0.000,0.000:
0000
0000
0000
0000
,
1001
0000
0001
0000
,
0100
0000
1000
0000
,
1000
0000
0100
0000
,
0001
0000
0010
0000
,
0001
0000
0100
0000
,
0010
0000
1000
0000
,
0200
0000
0000
0000
,
0320
0100
0130
0010
,
1001
0001
0100
0010
,
1000
0100
1000
0010
,
1001
0100
0010
0001
,
1000
0100
0010
0100
,
1001
0010
0001
0100
,
0010
1000
0100
1000
,
0010
0100
0010
0100
,
0001
1000
0001
1001
,
0100
1000
0100
1000
,
0100
0001
0100
0001
,
0010
1000
0010
1000
,
0010
0001
0010
1001
,
0110
0010
0100
0010
,
1001
0100
0010
0100
,
0011
0100
1010
0100
,
1001
0110
1001
0000
,
1001
0100
0001
0100
,
1000
0100
1000
0100
,
0001
0100
0001
0100
,
1000
0100
1000
0100
,
1001
0100
1000
0100
,
0001
0100
1000
0100
,
0001
0010
1000
0010
,
0001
0010
1000
0010
,
1001
0100
0010
0001
,
0100
0010
1000
0001
,
0100
1000
0010
0001
,
0100
0010
1000
0001
,
1001
0001
0100
0010
,
1000
0100
0010
0001
,
0100
0010
1000
0001
,
1001
0100
0100
0010
,
1001
0001
0000
1000
,
0100
0010
0000
0010
,
0110
0100
0000
0001
,
1001
0101
1100
0010
,
1001
0010
0001
0100
,
0110
1000
0010
0100
,
1001
0100
1001
0010
,
0101
1100
0101
0010
,
1010
0011
1010
0001
,
1001
1000
1001
0100
,
0110
0011
1100
0000
,
0000
0000
1000
0100
,
0010
1001
0100
0010
,
0100
1000
0100
0010
,
0100
0001
0100
0001
,
0100
1000
0100
1000
,
0100
0110
0010
0001
,
0100
0010
1000
0100
,
1000
0010
0001
0100
,
0010
1000
0100
0001
,
1001
0100
1000
0010
,
0100
0001
0100
0010
,
0100
1000
0010
0001
,
0100
0010
1000
0100
,
0101
0001
0100
0010
,
1000
0001
0100
0010
,
0100
1001
0100
1001
,
0100
0011
1100
1001
;

//---------------dance-single - ----------------
#NOTES:
     dance-single:
     :
     Medium:
     6:
     0.436,0.430,0.384,0.083,0.000,310.000,46.000,10.000,0.000,0.000:
0000
0000
0000
0000
,
1001
0001
0100
1000
,
0010
0100
0001
1000
,
0010
0001
0100
0010
,
1000
0000
0100
0000
0010
0001
0100
0000
,
0010
1000
0001
0100
,
0010
1000
0001
0100
,
1001
0010
1100
0010
,
1001
0101
1001
0010
,
1001
0100
0010
0001
,
0100
0010
1000
1001
,
0001
0100
0010
1000
,
0001
0100
0001
0100
0010
0000
1000
0000
,
1001
0001
0100
0010
,
1000
0000
0010
0000
0100
0000
0001
0100
,
0010
1000
0010
0100
,
0010
1000
0010
1000
0100
0000
1001
0000
,
0010
0000
0001
0000
0100
1000
0010
0000
,
0100
0000
0001
0000
0100
0010
0001
0000
,
1000
0000
0010
0000
0100
0001
1000
0000
,
0010
0100
0010
0100
0001
0000
1001
0000
,
0100
0000
0010
0000
1000
0001
0100
0000
,
0010
0000
1000
0000
0001
0100
0010
0000
,
1000
1000
0000
0000
0010
0010
0000
0000
,
0100
0010
0100
0010
0100
0000
0000
0000
,
1001
0100
0010
0001
,
0100
1000
0010
0100
,
0001
0001
0100
0000
1000
1000
0100
0000
,
0010
0100
0010
0000
1000
0001
1000
0000
,
0110
0000
1001
0000
0001
0100
0010
0000
,
1000
0000
0001
0000
0100
0001
0100
0000
,
1000
0000
0010
0000
0100
0001
0100
0000
,
1000
0010
0000
0100
0000
0001
0000
1000
,
0001
0000
0100
0000
0010
1000
0001
0000
,
0100
1001
0010
0001
,
0100
0000
0110
0000
1000
0001
0100
0000
,
0001
0110
1000
0001
,
0100
0000
1001
0000
0010
0100
0010
0000
,
0100
0000
0001
0000
1001
0000
1000
0001
,
0100
0010
0100
0001
,
1000
0000
0001
0000
1001
0000
0001
0100
,
0020
0000
1030
0100
,
0002
0000
0013
0100
,
0020
0000
1030
0001
,
0100
0010
1000
0100
0010
0000
0001
0000
,
0120
0000
1030
0100
,
2001
0000
3001
0010
,
1002
0103
2001
3100
,
0110
1100
0101
0010
,
1001
0101
1100
0010
,
0001
0001
0000
0000
1000
1000
0000
0000
,
0010
0100
0010
0100
0110
0000
0000
0000
,
0000
0000
2000
3002
,
0203
0000
0310
0000
1001
0000
1000
0010
,
0100
0001
0100
0010
,
1000
0000
0001
0000
1001
0000
0010
0001
,
0100
0010
1000
0100
,
0001
0000
0010
0000
1001
0000
0100
1000
,
0010
0100
0001
0010
,
0001
0100
0010
0000
1000
0000
0001
0000
,
0100
0000
0010
1000
0010
1000
0100
0000
,
1001
0000
0110
0000
0101
0000
0010
1000
,
0001
0100
0101
1100
,
1001
0000
0010
0000
1001
0000
0100
0010
,
0001
0100
1010
0101
,
1001
0000
0010
0000
1001
0000
0010
0001
,
0100
0000
0010
1000
0001
0000
0100
0001
,
1000
0000
0010
0010
1000
0000
0100
0100
,
0001
0000
0010
0100
0010
0100
0110
0000
;

//---------------dance-single - ----------------
#NOTES:
     dance-single:
     :
     Hard:
     8:
     0.570,0.573,0.634,0.033,0.125,398.000,76.000,4.000,0.000,0.000:
0000
0000
0000
0000
,
1001
0000
0010
0000
0001
1000
0001
0000
,
0100
1010
0001
0110
,
1001
0000
0110
0000
0001
0100
1000
0000
,
0010
0001
1100
0010
,
1001
0000
0101
0000
0010
1000
0100
0000
,
0001
0000
1000
0000
0110
0000
0001
0100
,
0010
1000
0100
0010
,
0001
0100
1000
0010
0100
0000
0010
0100
,
0110
0000
0000
0001
0000
0000
0100
0000
0010
0000
0000
0000
1000
0000
0000
0000
,
0100
0000
0000
0010
0000
0000
0100
0000
0001
0000
0000
0000
1000
0000
0001
0000
,
0100
0000
0000
0010
0000
0000
1000
0000
0001
0000
0000
0100
0000
0000
0010
0000
,
1000
0100
0010
0001
1000
0000
0010
0100
,
0110
0000
0000
0010
0000
0000
0001
0000
0100
0000
0000
0000
1001
0000
0000
0000
,
0010
0000
0000
1000
0000
0000
0100
0000
1000
0000
0000
0000
1001
0000
0001
0000
,
0100
0000
0000
0010
0000
0000
1000
0000
0100
0000
0000
0010
0000
0000
0001
0000
,
0100
1000
0010
0001
0100
0000
0010
1000
,
1001
0000
0000
0001
0100
0000
0010
0000
0100
0000
0000
0000
1001
0000
0000
0000
,
0010
0000
0000
0001
1000
0000
0010
0000
0001
0000
0000
0000
0100
0000
0010
0000
,
1010
0000
0000
1000
0001
0000
0100
0000
0010
0000
0000
1000
0001
0000
0100
0000
,
0010
1000
0001
0100
0010
0000
1001
0001
,
0100
0000
0000
0100
0001
0000
0010
0000
0001
0000
0000
0000
1001
0000
0000
0000
,
0100
0000
0000
1000
0010
0000
0100
0000
0001
0000
0000
0000
1001
0000
0001
0000
,
1001
1001
0000
0000
0110
0110
0000
0000
,
1000
0100
0001
0100
1001
1000
0100
0010
,
1001
0000
0101
0000
0010
0001
0100
1000
,
0010
0001
0100
1000
0010
0100
0010
0000
,
0001
0100
1000
0000
0010
0100
0001
0000
,
0010
1000
0100
0000
0101
0000
1100
0000
,
1001
0000
0010
0000
0001
0100
1000
0010
,
0100
0001
0010
0001
0100
1000
0010
0000
,
0100
1000
0001
0000
1000
0001
0100
0000
,
0010
1000
0100
0001
0100
0000
0110
0000
,
1001
0000
0101
0000
0010
1000
0100
0001
,
0100
1010
0101
1001
,
0010
0000
1001
0000
0001
0100
0010
1000
,
0100
1001
0010
0101
,
1100
0000
1001
0000
0010
0001
0100
0010
,
1000
0000
0100
0000
0110
0000
0001
0100
,
0010
1000
0100
0010
0001
0010
0100
0010
,
0001
0100
1000
0010
0200
0000
0310
0001
,
1001
0000
0000
0100
0000
0000
0010
0000
0100
0000
0000
0000
0001
0000
0000
0000
,
0010
0000
0000
0100
0000
0000
1000
0000
0001
0000
0000
0000
0100
0000
0010
0000
,
1001
0000
0000
0100
0000
0000
1000
0000
0010
0000
0000
0100
0000
0000
0001
0000
,
0010
0001
0100
1000
0010
0000
0100
0010
,
1010
0000
0000
1000
0000
0000
0001
0000
0100
0000
0000
0000
0110
0000
0000
0000
,
1001
0000
0000
0001
0000
0000
0100
0000
0010
0000
0000
0000
1000
0000
0100
0000
,
0101
0000
0000
0001
0000
0000
0100
0000
0010
0000
0000
1000
0000
0000
0001
0000
,
0100
1000
0010
0100
1001
0000
0010
0001
,
0100
0010
1000
0100
0110
0000
0010
0001
,
1001
1001
1000
0100
0110
0110
0010
0001
,
1001
1001
0100
0010
0110
0000
0000
0000
,
0000
0000
2000
3200
,
0320
0000
0000
0000
0031
0000
0000
0100
0000
0000
0010
0000
1000
0000
0000
0000
,
0100
0000
0000
0000
0010
0000
0000
0001
0000
0000
0010
0000
0110
0000
0000
0000
,
1000
0000
0001
0000
0100
0000
0000
0010
0000
0000
1000
0000
0001
0000
0000
0100
,
0000
0010
0001
0100
1000
0010
0100
0000
,
1001
0000
0001
0000
0100
0000
0000
0010
0000
0000
1000
0000
0100
0000
0000
0000
,
0010
0000
0000
0000
0001
0000
0000
0100
0000
0000
0010
0000
1000
0000
0000
0000
,
0100
0000
1000
0000
0010
0000
0000
0001
0000
0000
0100
0000
0010
0000
0000
0100
,
0000
1000
0001
0100
0010
1000
0001
0000
,
1001
0001
1000
0000
0110
0000
0001
0100
,
0010
1000
0100
0000
0001
0000
1100
0000
,
0101
0000
0010
0000
1001
0000
1000
0010
,
0001
0100
0010
0000
1100
0000
0010
0000
,
0101
0000
1001
0000
0110
0000
0001
0010
,
0001
0100
1000
0000
0010
0100
0001
0100
,
1000
0010
0110
0110
0000
1000
1001
1001
,
0000
0010
0110
0110
0101
0101
1001
0000
;

//---------------dance-single - ----------------
#NOTES:
     dance-single:
     :
     Challenge:
     11:
     1.000,1.000,1.000,1.000,0.192,527.000,216.000,123.000,0.000,82.000:
0000
0000
0000
0000
0000
2000
3200
0320
,
1032
0100
1023
0100
2031
3210
2301
3210
,
1300
0001
0200
0010
2301
0100
3012
1000
,
0213
1000
2301
0100
3012
2103
3012
2103
,
3010
0001
2100
0010
3102
1000
0213
0001
,
1320
0100
2031
0100
3012
2103
3021
1230
,
0301
0100
2010
0001
3120
1000
1230
0312
,
1000
0103
1000
0010
0100
0001
0100
1000
,
0010
0100
0001
0100
2000
0000
3001
0100
,
1010
0000
0000
0001
1000
0000
0100
0000
1010
0000
0000
0000
1001
0000
0000
0000
,
0110
0000
0000
1000
0100
0000
1000
0000
0110
0000
0000
0000
0100
0000
1000
0000
,
0110
0000
0000
1000
0010
0000
0001
0000
0110
0000
0000
0100
0010
0000
1000
0000
,
0101
0010
1001
0100
0011
0000
0100
0001
,
1010
0000
0000
0001
1000
0000
0100
0000
1010
0000
0000
0000
1100
0000
0000
0000
,
0101
0000
0000
1000
0100
0000
0010
0000
1100
0000
0000
0000
0101
0000
0010
0000
,
1001
0000
0000
0100
1000
0000
0010
0000
1100
0000
0000
0001
1000
0000
0010
0000
,
1010
0100
0011
0100
1010
0000
0001
0100
,
1010
0000
0001
1000
0100
0000
0011
0000
1100
0000
0001
0000
0110
0000
0010
0000
,
1001
0000
0100
0010
1000
0000
1010
0000
0110
0000
0001
0000
0110
0000
1001
0000
,
1100
0000
0010
0100
1000
0000
0011
0000
0110
0000
0010
0100
1000
0000
0011
0000
,
1001
1100
0110
0011
0110
0100
1001
0110
,
0011
0000
0100
0010
1000
0000
1001
0000
0110
0000
0010
0000
1001
0000
0100
0000
,
1001
0000
0010
1000
0100
0000
0101
0000
1010
0000
0001
0000
0110
0000
1010
0000
,
1001
0000
1000
0001
0000
0000
0100
0000
0110
0000
0100
0001
0000
0000
0010
0000
,
1100
0000
0000
0000
0000
0000
0000
0000
1001
0000
0000
0000
0000
0000
0000
0000
1010
0000
0000
0000
0000
0000
0000
0000
1100
0000
0000
0000
0000
0000
0000
0000
2002
3003
0000
0000
0000
0000
0000
0000
2000
0000
0000
0000
0000
0000
0000
0000
3020
0000
0000
0000
0000
0000
0000
0000
0230
0000
0000
0000
0000
0000
0000
0000
,
1302
0010
1203
0001
1320
2031
3012
1203
,
0310
0001
0110
0010
1000
0100
0011
0100
,
1000
0010
0110
0001
0010
0001
0110
0010
,
0100
1000
0102
1000
0213
1000
0321
0100
,
2031
0100
3012
1000
1203
0321
2031
3102
,
0013
1000
0101
0010
0001
0100
0110
0001
,
0100
0010
1100
0001
0100
0010
1001
0100
,
0010
1000
0002
1000
0203
1000
0320
0001
,
2130
0001
3102
0010
2103
3210
0321
1032
,
0103
1000
0012
1000
0213
1000
0321
0100
,
2031
0100
3012
1000
2103
3120
0230
0312
,
1003
0100
2010
0100
3012
1000
0213
0001
,
1320
0100
2031
0100
3012
0123
2031
3210
,
0301
0100
2010
0001
3102
0010
1203
0321
,
0100
1030
1001
0010
0001
0100
0110
1000
,
0001
0100
0010
1000
0100
0000
0010
0001
,
1001
0000
0000
0100
0000
0000
0010
0000
1000
0000
0000
0000
0001
0000
0000
0000
,
0100
0000
0000
0010
0000
0000
0100
0000
1000
0000
0000
0000
0010
0000
0100
0000
,
1001
0000
0000
0010
0000
0000
0001
0000
0100
0000
0000
0010
0000
0000
0100
0000
,
1001
0010
1100
1000
1001
0000
0010
0100
,
0110
0000
0000
0001
0000
0000
0100
0000
0010
0000
0000
0000
1000
0000
0000
0000
,
1001
0000
0000
0001
0000
0000
0100
0000
0010
0000
0000
0000
1000
0000
0001
0000
,
1001
0000
0000
0010
0000
0000
0100
0000
0110
0000
0000
0010
0000
0000
0001
0000
,
1001
0100
1001
1000
1001
0000
0010
0100
,
1001
0001
0110
0100
1001
0000
0010
0001
,
1001
1001
0100
0010
1100
1100
0010
0001
,
0110
0000
0000
0000
0110
0000
0000
0000
1000
0100
0010
0001
1000
0000
0000
0000
2002
0000
0000
0000
0000
0000
0000
0000
3003
0000
0000
0000
0000
0000
0000
0000
,
2000
0000
0000
0000
0000
0000
0000
0000
0000
0000
0000
0000
0000
0000
0000
0000
0200
3300
0000
0000
0000
0000
0000
0000
0000
0000
0000
0000
0000
0000
0000
0000
0002
0000
0000
0000
0000
0000
0000
0000
0000
0000
0000
0000
0000
0000
0000
0000
0203
0000
0000
0000
0000
0000
0000
0000
0000
0000
0000
0000
0000
0000
0000
0000
,
1320
0000
0001
0000
2130
0000
0000
0010
3002
0000
0100
0000
1203
0000
0320
0000
,
2031
0000
3002
0000
0103
0000
0000
0001
0020
0000
1000
0000
1230
0000
0000
0000
,
0312
0000
1000
0000
0203
0000
0000
1000
0320
0000
0100
0000
2130
0000
3002
0010
,
0203
1320
0031
0100
0210
0010
1302
0000
,
1203
0000
0010
0000
2301
0000
0000
0001
3020
0000
0100
0000
0231
0000
0302
0000
,
2103
0000
3020
0000
0031
0000
0000
1000
0002
0000
1000
0000
0213
0000
0000
0000
,
0321
0000
2130
0000
0001
0000
3000
0100
0001
0000
0010
0000
0101
0000
0000
1000
,
0001
0100
0011
0001
0102
0010
1203
0000
,
0321
0000
0100
0000
1031
0000
0001
1000
0100
0000
0110
0000
0011
0000
0100
0000
,
1001
0000
0010
0000
0110
0000
0001
0100
0010
0000
1001
0000
0101
0000
0010
0000
,
1001
0000
0110
0000
0011
0000
1000
0010
0100
0000
1001
0000
0110
0000
1000
0100
,
0010
1001
0101
0110
1010
1001
0101
0010
,
0101
0000
1001
0000
0110
0000
1000
0100
0010
0000
1001
0000
0110
0000
0010
0000
,
1001
0000
0001
0000
0110
0000
0010
1000
0001
0000
0110
0000
1001
0000
0010
0000
,
1100
0000
0011
0000
1001
0000
1001
0100
0000
0000
0010
0000
0110
0000
0110
0001
,
0000
0000
0000
0000
0001
0000
0000
0000
1001
0000
0000
0000
1001
0000
0000
0000
1000
0100
0010
0001
1000
0000
0000
0000
0220
0000
0000
0000
0000
0000
0000
0000
,
0330
0000
0000
0000
;
