#TITLE:Listen to Your Hardcore;
#SUBTITLE:;
#ARTIST:Alex Tune;
#TITLETRANSLIT:;
#SUBTITLETRANSLIT:;
#ARTISTTRANSLIT:;
#CREDIT:cxt!;
#BANNER:Listen to-bn.png;
#BACKGROUND:Listen to-bg.png;
#LYRICSPATH:;
#CDTITLE:cxkmbban.png;
#MUSIC:05-alex_tune-listen_to_your_hardcore-ssk.ogg;
#OFFSET:-0.103;
#SAMPLESTART:23.217;
#SAMPLELENGTH:13.400;
#SELECTABLE:YES;
#BPMS:0.000=210.000,1.000=105.000,37.000=52.500,39.000=210.000,95.000=52.500,97.000=210.000,109.000=105.000,111.000=210.000,123.000=105.000,133.000=210.000,229.000=105.000,233.000=210.000,269.000=51.500,270.000=105.000,278.000=210.000,342.000=105.000,350.000=52.500,352.000=210.000,408.000=52.500,410.000=210.000;
#STOPS:;
#BGCHANGES:39.000=In The Groove 2/769_JumpBack.mpg=2.000=0=0=1,
52.000=In The Groove 2/770_JumpBack.mpg=2.000=0=0=1,
63.000=In The Groove 2/640_JumpBack.mpg=2.000=0=0=1,
73.000=In The Groove 2/451_JumpBack.mpg=1.800=0=0=1,
85.000=676_JumpBack.mpg=1.800=0=0=1,
95.000=Listen to-bg.png=1.000=0=0=1,
97.000=In The Groove 2/779_JumpBack.mpg=2.000=0=0=1,
109.000=flash=0.400=0=0=1,
111.000=In The Groove 2/785_JumpBack.mpg=2.000=0=0=1,
123.000=flash=0.400=0=0=1,
125.000=In The Groove 2/906_JumpBack.mpg=0.600=0=0=1,
133.000=In The Groove 2/982_JumpBack.mpg=2.000=0=0=1,
149.000=In The Groove 2/640_JumpBack.mpg=1.000=0=0=1,
165.000=In The Groove 2/927_JumpBack.mpg=1.800=0=0=1,
177.000=In The Groove 2/909_JumpBack.mpg=2.000=0=0=1,
182.000=In The Groove 2/807_JumpBack.mpg=1.800=0=0=1,
189.000=In The Groove 2/913_JumpBack.mpg=2.000=0=0=1,
204.000=In The Groove 2/921_JumpBack.mpg=1.800=0=0=1,
210.000=Listen to-bg.png=1.000=0=0=1,
212.000=In The Groove 2/964_JumpBack.mpg=2.000=0=0=1,
219.000=flash=2.000=0=0=1,
220.000=689_JumpBack.mpg=1.000=0=0=1,
229.000=In The Groove 2/842_JumpBack.mpg=1.000=0=0=1,
233.000=In The Groove 2/445_JumpBack.mpg=1.000=0=0=1,
238.000=In The Groove 2/764_JumpBack.mpg=1.000=0=0=1,
244.000=In The Groove 2/906_JumpBack.mpg=1.000=0=0=1,
251.000=In The Groove 2/972_JumpBack.mpg=1.000=0=0=1,
255.000=In The Groove 2/862_JumpBack.mpg=1.000=0=0=1,
260.000=In The Groove 2/641_JumpBack.mpg=1.000=0=0=1,
265.000=In The Groove 2/983_JumpBack.mpg=1.000=0=0=1,
269.000=In The Groove 2/927_JumpBack.mpg=1.000=0=0=1,
277.000=In The Groove 2/959_JumpBack.mpg=1.000=0=0=1,
293.000=In The Groove 2/929_JumpBack.mpg=1.000=0=0=1,
302.000=In The Groove 2/951_JumpBack.mpg=1.000=0=0=1,
311.000=In The Groove 2/586_JumpBack.mpg=1.000=0=0=1,
318.000=In The Groove 2/938_JumpBack.mpg=1.800=0=0=1,
325.000=In The Groove 2/620_JumpBack.mpg=2.000=0=0=1,
333.000=In The Groove 2/764_JumpBack.mpg=1.600=0=0=1,
338.000=In The Groove 2/439_JumpBack1.mpg=1.000=0=0=1,
342.000=vol4-10-ntsc.mpg=0.700=0=0=1,
352.000=vol4-09-ntsc.mpg=1.000=0=0=1,
360.000=In The Groove 2/433_JumpBack.mpg=1.000=0=0=1,
371.000=In The Groove 2/776_JumpBack.mpg=1.000=0=0=1,
382.000=In The Groove 2/931_JumpBack.mpg=1.000=0=0=1,
389.000=In The Groove 2/785_JumpBack.mpg=1.000=0=0=1,
405.000=In The Groove 2/964_JumpBack.mpg=1.000=0=0=1,
408.000=Listen to-bg.png=1.000=0=0=1,
410.000=In The Groove 2/973_JumpBack.mpg=1.000=0=0=1,
419.000=In The Groove 2/956_JumpBack.mpg=1.000=0=0=1,
430.000=In The Groove 2/948_JumpBack.mpg=1.000=0=0=1,
440.000=In The Groove 2/462_JumpBack.mpg=1.000=0=0=1,
452.000=In The Groove 2/909_JumpBack.mpg=1.000=0=0=1,
462.000=In The Groove 2/819_JumpBack.mpg=1.000=0=0=1,
476.000=In The Groove 2/457_JumpBack.mpg=1.000=0=0=1,
489.000=In The Groove 2/776_JumpBack.mpg=1.000=0=0=1,
502.000=In The Groove 2/445_JumpBack.mpg=1.000=0=0=1,
517.000=In The Groove 2/911_JumpBack.mpg=1.000=0=0=1,
527.000=In The Groove 2/604_JumpBack.mpg=1.000=0=0=1,
543.000=In The Groove 2/431_JumpBack_1.mpg=1.000=0=0=1,
558.000=In The Groove 2/763_JumpBack.mpg=1.000=0=0=1,
577.000=In The Groove 2/613_JumpBack.mpg=1.000=0=0=1,
591.000=In The Groove 2/909_JumpBack.mpg=1.000=0=0=1,
602.000=Listen to-bg.png=1.000=0=0=1,
99999=-nosongbg-=1.000=0=0=0 // don't automatically add -songbackground-
;
#FGCHANGES:0.000=songbg=1.000=0=0=1
,3.000=songbgfade=1.000=0=0=1
,37.000=niggs=1.000=0=0=1
,95.000=niggs2=1.000=0=0=1
,111.000=longfade=1.000=0=0=1
,255.000=listentoheart=1.000=0=0=1
,257.000=longfade=1.000=0=0=1
,270.000=oneblink=1.000=0=0=1
,271.000=oneblink=1.000=0=0=1
,272.000=oneblink=1.000=0=0=1
,273.000=oneblink=1.000=0=0=1
,274.000=oneblink=1.000=0=0=1
,275.000=oneblink=1.000=0=0=1
,276.000=oneblink=1.000=0=0=1
,278.000=whitefade=1.000=0=0=1
,302.000=oneblink=1.000=0=0=1
,310.000=oneblink=1.000=0=0=1
,318.000=oneblink=1.000=0=0=1
,323.000=oneblink=1.000=0=0=1
,323.500=oneblink=1.000=0=0=1
,324.000=oneblink=1.000=0=0=1
,324.500=oneblink=1.000=0=0=1
,342.000=onedim=1.000=0=0=1
,342.000=onedim=1.000=0=0=1
,342.500=onebright=1.000=0=0=1
,342.500=onebright=1.000=0=0=1
,343.000=onedim=1.000=0=0=1
,343.000=onedim=1.000=0=0=1
,343.500=onebright=1.000=0=0=1
,343.500=onebright=1.000=0=0=1
,344.000=onedim=1.000=0=0=1
,344.500=onebright=1.000=0=0=1
,345.000=onedim=1.000=0=0=1
,345.500=onebright=1.000=0=0=1
,346.000=onedim=1.000=0=0=1
,346.500=onebright=1.000=0=0=1
,347.000=onedim=1.000=0=0=1
,347.500=onebright=1.000=0=0=1
,348.000=onedim=1.000=0=0=1
,348.500=shortbright=1.000=0=0=1
,348.750=shortdim=1.000=0=0=1
,349.000=shortbright=1.000=0=0=1
,349.250=shortdim=1.000=0=0=1
,349.500=shortbright=1.000=0=0=1
,349.750=shortdim=1.000=0=0=1
,350.000=shortbright=1.000=0=0=1
,408.000=niggs2=1.000=0=0=1
,602.000=end=1.000=0=0=1
;
// cache tags:
#FIRSTBEAT:5.000;
#LASTBEAT:605.500;
#SONGFILENAME:Songs/Definitive Keyboard Megapack/Listen To Your Hardcore (cxt! VS KOMBO)/listenhard.sm;
#HASMUSIC:1;
#HASBANNER:1;
#MUSICLENGTH:105.000;
// end cache tags

//---------------dance-single - Rynker----------------
#NOTES:
     dance-single:
     Rynker:
     Hard:
     14:
     1.000,1.000,1.000,0.219,1.000,1392.000,200.000,23.000,21.000,0.000:
0000
0000
0000
0000
,
0000
0000
0000
0000
1000
0000
0001
0000
0100
0001
0000
0000
0001
0010
0100
1000
,
0001
1000
0000
0000
0010
0000
0100
0000
0001
0000
0100
0000
0000
0000
0011
0000
,
0000
0010
0001
1000
0010
0110
0100
0100
,
0100
0000
0001
0000
0001
1000
0100
1000
0001
0100
0020
0000
0100
0000
0100
0000
,
0100
0000
0100
0030
1001
0000
1000
0000
0001
0000
0011
0000
0000
0010
0200
0300
,
0100
1000
0100
0000
0010
0000
0001
0000
1000
0000
1010
0000
0100
0000
0101
0000
,
0001
0010
0100
0000
1001
0000
1100
0000
1000
0000
1010
0000
1000
0000
0010
0000
,
0100
0001
0100
0000
0001
1000
0001
0100
0010
0100
0002
0000
1003
0001
0010
0100
,
1000
0010
0000
0000
1002
0000
0000
0000
2000
0000
0000
3003
1000
0000
0010
0000
,
0100
0010
0100
0010
0100
0001
0010
0001
,
0010
0001
1000
0100
1000
0001
0100
0001
,
1000
0000
0010
0000
1000
0000
0010
0000
0100
0001
0100
0001
0100
0000
0001
0000
,
1000
0000
0100
0010
0100
0000
0010
0000
0001
0000
1000
0001
1000
0000
0001
0000
,
0010
0000
0010
0000
0100
0000
1000
0001
1000
0001
1000
0000
0001
0000
0100
0000
,
0001
0100
0001
0000
0010
0000
0001
0100
0001
1000
0100
0000
0010
0000
0001
0000
,
0010
0100
1000
0000
0001
0100
0001
0000
0200
0000
0000
0000
0010
0000
0001
0000
,
0010
0000
0001
0000
0020
0300
0100
0000
1000
0000
0100
0000
1030
0000
0001
0000
,
0010
0000
0001
0010
0100
0010
0100
0000
1000
0001
0100
0000
0001
0010
0100
0000
,
0010
0000
0001
0000
1000
0010
0100
0000
0001
0000
1000
0000
0100
0010
0100
0010
,
0001
0000
0010
0000
0001
0000
1000
0010
1000
0000
0010
0100
0010
0100
0001
0000
,
0100
0010
0100
0000
0010
1000
0010
0000
1000
0100
1000
0010
0100
0000
0001
0000
,
0011
0000
0010
0100
1000
0100
1000
0000
1000
0000
0010
0000
0100
0000
0100
0000
,
0001
0100
0001
0010
0100
0000
1000
0000
0100
0010
0001
1000
0004
0000
0000
0000
,
2000
0000
0000
3003
1001
0000
1001
0000
1001
0000
1001
0000
1001
0000
1001
0000
,
1001
1001
0110
0110
0110
0110
1010
1010
,
1010
1010
0011
0011
0011
0011
1001
1001
,
1001
0000
1001
0000
0101
0000
MMMM
0000
0000
0000
0000
0000
0001
0010
0100
0010
,
0001
1000
0100
0010
0100
0010
0001
1000
0001
1000
0010
0100
0001
0100
0010
1000
,
0001
0000
0010
0000
0100
0000
0010
0000
0100
0000
1000
0000
0010
0000
0100
0000
0001
0000
1000
0000
0001
0010
0001
0000
1000
0000
0001
0000
1000
0000
0001
0000
,
0100
0010
0100
0001
0100
0010
1000
0100
0010
0001
0100
0010
1000
0000
MMMM
0000
,
0000
0000
0000
1000
1001
0000
0000
0000
0011
0000
0000
0000
0110
0000
0000
0000
,
1100
0000
1010
0001
0101
1000
1100
0010
,
0011
0001
0010
0001
1000
0010
0100
0001
1000
0001
0010
0100
1000
0001
0100
0010
,
0100
0001
1000
0001
0010
0100
0010
0001
1000
0010
0100
0001
0010
0100
0010
0001
,
1000
0010
0100
0001
0010
0100
1000
0010
0100
0001
0010
0100
0010
0001
1000
0001
,
0010
0100
0010
0001
1000
0001
0100
0001
0010
0100
1000
0001
0100
0010
1000
0001
,
0100
0001
1001
1000
1100
0100
0110
0010
,
0011
0001
0001
0001
0101
0100
0100
0100
,
0110
0010
1010
1000
1000
1000
1001
0001
,
0011
0010
0010
0010
0110
0100
0100
0100
,
0100
0100
1100
1100
1001
1001
0011
0011
,
0011
0010
0010
0010
0110
0100
0100
0100
,
1100
1000
1010
0010
0010
0010
0110
0100
,
0101
0000
0001
0000
0001
0000
0011
0000
0001
0010
0100
1000
0001
0000
1000
0010
,
0100
0001
1000
0000
0001
0000
1000
0000
0001
0000
1000
0000
0010
0000
0100
0000
,
0010
0100
0001
0100
0001
0100
0001
0010
,
0001
0010
0100
0010
0100
1000
0001
1000
,
0001
0000
1000
0000
0010
0000
0100
0000
0010
0000
0100
0000
0001
1000
0001
1000
,
0001
0000
1000
0000
0010
0000
0100
0000
0001
0000
1000
0100
0010
0000
0001
0000
,
0010
0000
0100
0000
1000
0000
0001
0100
0001
0000
0010
0000
0100
0000
1000
0000
,
0001
0000
0100
0000
0010
0100
0010
0100
0010
0000
1000
0000
0001
0000
0010
0100
,
0010
0000
MMMM
0000
0000
0000
0000
0000
0001
0100
0010
1000
0100
0010
0001
0100
,
0010
0000
0000
0000
0110
0000
0010
0000
1010
0000
1000
0000
0100
0010
0100
0000
,
0010
0001
0200
0300
0000
0000
0110
0010
,
0000
0000
0000
0000
1100
0000
1000
0000
1001
0000
0001
0000
0010
0000
0100
0010
,
0100
0000
0010
0000
0001
0000
0100
0001
0100
0000
0010
0000
1000
0001
0010
0001
,
1000
0000
0100
0010
0002
0000
0013
0000
0010
0010
0100
1000
0100
0100
0010
0001
,
0001
0001
0100
0001
1000
0010
1000
0010
1000
0010
1000
0010
0100
0001
0100
0001
,
0010
0100
0010
0100
1000
0001
0100
0010
0100
0001
1000
0100
0010
0001
0010
0100
,
1000
0001
0100
0010
0100
0000
0001
0000
0101
0000
0100
0000
0110
0000
0010
0000
,
1010
1000
0011
0001
1100
1000
0110
0100
,
0101
0001
1001
1000
0110
0100
1001
0010
,
1001
0100
1001
MMMM
0000
0000
1000
0010
,
0100
0000
0001
0000
1000
0001
0010
0001
1000
0010
0100
0001
1000
0100
1000
0001
,
0100
0010
1000
0100
0010
0100
1000
0001
0100
0010
1000
0001
0010
0100
0010
0001
,
1000
0000
0010
0000
0100
0000
0010
0000
1000
0001
1000
0000
0010
0000
0100
0000
0010
0000
1000
0000
0001
0000
0010
0000
0100
0000
0010
0000
0001
0000
1000
0000
,
0001
0000
0100
0000
0010
0000
0100
0000
1001
0000
0000
0010
0010
0000
0000
0000
1010
0000
0000
0000
0000
0000
0000
0000
1100
0000
0000
0000
0100
0000
0000
0000
,
0110
0010
0101
1000
1001
0101
1001
0120
,
0000
0000
0030
0000
1000
0100
1000
0100
M010
0001
0010
0001
0010
0001
1000
0010
,
0100
0010
0100
0001
1000
0001
0010
0100
0010
0001
1000
0010
0100
0010
0100
0001
,
1000
0000
0001
0000
0010
0000
0100
0000
0010
0001
0010
0000
0100
0000
1000
0000
0001
0000
0100
0000
0001
0000
1000
0000
0010
0000
0100
0000
0001
0000
0010
0000
,
0100
0010
0001
1000
0001
0100
0010
1000
0010
0100
0001
1000
0100
0010
0001
1000
,
0010
0100
0001
0010
2001
0000
3000
0000
1001
0000
0001
0000
0010
0000
0100
0000
,
0010
0001
1000
0010
0100
0001
1000
0100
,
0010
0001
0100
1000
0100
0001
0010
0100
,
0010
0001
1000
0010
0001
0010
1000
0100
,
0110
0010
0011
0001
1001
1000
0100
0001
,
0100
0010
0001
1000
0010
0001
0010
0100
,
1000
0100
0001
1000
1100
0100
0010
0001
,
0010
0000
1000
0000
0010
0000
0001
0000
1000
0000
0010
0000
0100
0010
0100
0001
,
1000
0001
0010
0001
0010
0000
0000
0000
0110
0000
0100
0000
1000
0000
0001
0000
,
0100
0010
0110
0100
0001
0010
1000
0010
,
0001
0100
0010
1000
1100
0100
0010
0001
,
0011
0010
0110
0100
1000
0001
0100
0010
,
0110
0010
1001
1000
1100
0000
1100
0010
,
0101
0010
1100
0010
0011
0100
1010
0100
,
0011
0000
0000
0000
0000
0000
0000
0000
0001
0000
0010
0000
0001
0000
0010
0000
0100
0000
1000
0000
0100
0000
1000
0000
0100
0000
1000
0000
0100
0000
0000
0000
1000
0000
0000
0000
0000
0000
0000
0000
0000
0000
0000
0001
0000
0000
0000
1000
0000
0000
0000
0000
0000
0001
0000
0000
0000
0000
0000
0000
1000
0000
0000
0000
,
1001
0000
0011
0000
0011
0000
0012
0003
,
1100
0000
1100
0000
1010
0000
1010
1001
,
0201
0300
0101
0000
1100
0000
2100
3000
,
1010
0000
1010
0000
0011
0000
0011
0010
,
1200
0300
1100
0000
1010
0000
1020
0030
,
1001
0000
1001
0001
0011
0000
0011
0000
,
0210
0300
1100
0000
1100
0000
1020
0030
,
1010
0000
0011
0000
0011
MMMM
0110
0110
,
1001
0000
0000
0000
1010
0000
0000
0000
0110
0000
0000
0000
0102
0000
0000
0003
,
0011
0110
1100
1010
,
0210
0000
0000
0300
0101
0000
0000
0000
0011
0000
0000
0000
1002
0000
0003
0000
,
1001
1010
1010
0110
,
0110
0110
0101
1001
1001
0110
1001
0000
,
0011
0000
0110
0000
0011
0000
1001
0101
,
4040
0000
0000
3030
1000
0100
0010
0001
,
0100
0000
1000
0000
0100
0000
0001
0000
0010
0100
0010
0000
0001
0000
1000
0000
,
0010
0000
0100
0000
0001
0000
1000
0000
0010
0000
0001
0010
0001
0000
0010
0000
,
0100
0000
0001
0000
0001
0000
1000
0000
1000
0000
0100
0010
0100
0000
0010
0001
,
0010
0000
0001
0100
0001
0000
1000
0010
1000
0000
0001
0000
0010
0000
1000
0000
,
0010
0000
0001
0000
0100
0000
0010
0000
1000
0001
0010
0000
0100
0000
0010
0000
,
0001
0000
1000
0000
0010
0000
0100
0000
0001
1000
0100
0000
0010
0000
0100
0000
,
1000
0000
0010
0000
0001
0000
0010
0000
1000
0000
0100
0010
0100
0000
0010
0001
,
0010
0000
0001
1000
0001
0000
1000
0010
1000
0000
0010
0000
0000
0000
0010
0000
,
0100
0001
0010
0100
0001
0100
0010
0001
,
1000
0010
0100
0000
0001
0000
1000
0000
0100
0000
0010
0000
0001
0010
0100
0000
,
0010
0000
0100
0000
1000
0000
0001
0100
0001
0000
0010
0000
0100
0000
1000
0000
,
0001
0100
0001
0000
1000
0010
0100
0000
0001
1000
0100
0000
0010
0000
0001
0000
,
1000
0000
0010
0000
0100
0001
0100
0000
0001
0000
1000
0000
0100
1000
0100
0000
,
0010
0000
0001
0000
1000
0001
0100
0001
0100
0000
0001
0000
1000
0100
1000
0100
,
1000
0000
0001
0000
0010
0001
0010
0000
0100
0000
1000
0000
0001
0100
0010
0000
,
1000
0100
0010
0000
0001
0010
0100
0000
0010
0000
0001
0000
1000
0000
0001
0000
,
0100
0000
0010
0000
0100
0000
0001
0010
0100
0000
1000
0000
0001
0000
0100
0000
,
0010
0100
0010
0000
1000
0000
0001
0000
0010
0100
0010
0001
1000
0000
0001
0000
,
0100
0001
0100
0010
1000
0001
0010
0100
,
1000
0100
1000
0000
0001
0100
0001
0000
1000
0010
1000
0010
0100
0000
0001
0000
,
0010
0100
0010
0000
0001
0000
1000
0000
0001
0000
0100
0000
0010
0000
1000
0010
,
0100
0000
0001
1000
0001
0010
0100
0010
0100
0000
0010
0000
0001
1000
0001
1000
,
0001
0000
1000
0010
1000
0000
0001
0000
0010
0000
0100
0000
0010
0000
0001
0000
,
1000
0001
0100
0000
0001
1000
0100
0000
0010
0000
0001
0000
0010
0000
0100
0000
,
1000
0000
0001
0000
0100
0000
0001
0000
0010
0000
0100
0000
0010
0001
0010
0000
,
0001
0000
1000
0000
0010
0100
0010
0000
1000
0000
0001
0000
0010
0000
0100
0000
,
1000
0001
1000
0000
0001
0000
0010
0000
0100
0010
0100
0000
0010
0001
0010
0000
,
0001
1000
0001
0000
1000
0000
0010
0000
0100
0000
0001
0000
0010
0001
0010
0000
,
0100
0000
1000
0000
0001
0000
0100
0000
0000
0000
0010
0000
1000
0100
1000
0000
,
0000
0000
0001
0000
0100
0000
0010
0000
0000
0000
1000
0000
0100
0010
0100
0000
,
0010
0000
0001
0000
0100
0000
0010
0000
0000
0000
1000
0000
0001
0010
0001
0000
,
1000
0010
0100
0001
1000
0001
1000
0001
1000
0000
0001
0000
0010
0000
0100
0000
,
0010
0001
1000
0010
0100
0001
1000
0100
,
0010
0000
0001
0000
0010
0100
0010
0000
0001
0000
1000
0000
1010
0000
0010
0000
,
0100
0001
0011
0010
0001
1000
1010
1000
,
0110
0001
0101
1000
0010
0100
0101
0001
,
0010
0100
1100
1000
0001
0100
0110
0010
,
1000
0000
0001
0000
1100
0000
1000
0000
0001
0000
0100
0000
0001
0000
0010
0100
,
0010
0000
0001
0000
1000
0000
0010
0100
0010
0000
1000
0000
0001
0000
0010
0000
,
0011
0001
1001
1000
1010
0010
0100
0001
,
1000
0100
0010
0100
1000
0001
0101
0100
,
0010
0000
1000
0000
1100
0000
0100
1000
0001
0000
0100
0000
0101
0000
0100
0000
,
0010
1000
0011
0001
1000
0100
1100
1000
,
0001
1000
0001
0010
0100
1000
0100
0000
1000
0000
0010
0000
0100
0000
0001
0000
,
0001
0100
0101
0001
1000
0010
1010
1000
,
0110
0110
1001
1000
0001
0010
0110
0100
,
1000
0000
0001
0000
0101
0000
0100
0000
0010
0000
1000
0000
0001
1000
0010
0100
,
0001
0010
0100
1000
0010
0100
0001
0010
0200
0000
0000
0000
0000
0000
0000
0000
,
0000
0000
0000
0300
0000
0000
0000
0000
;

//---------------dance-single - Cxt! and KOMBO Steps----------------
#NOTES:
     dance-single:
     Cxt! and KOMBO Steps:
     Challenge:
     15:
     1.000,1.000,1.000,0.295,1.000,1492.000,514.000,31.000,17.000,116.000:

0000
0000
0000
0000
,
0000
0000
0000
0000
,
0000
0000
0000
0000
0011
0000
1100
0000
0011
0110
1100
0000
0000
0000
0011
0000
,
0110
1100
0110
0000
0011
0000
1100
0000
0110
1100
0011
0000
1100
0000
0110
0000
,
0110
0011
1001
0000
0101
0100
0101
0001
0101
0100
0011
0000
1100
0000
0011
0000
,
0100
0100
1100
0000
0110
0000
0011
0000
0010
0010
0011
0000
0110
0000
2200
3300
,
0100
1000
0100
0010
0001
0010
0101
0000
1000
0000
1010
0000
0100
0000
0101
0000
,
0001
0110
1001
1100
1000
1010
1000
0010
,
0100
0001
0100
0000
0001
1100
0001
0110
0001
1010
0101
0000
1000
0001
0010
0100
,
1000
0010
0000
0000
0222
0000
0000
0000
2300
0000
0000
3033
1101
0000
0010
0000
,
0110
0100
0101
0100
1100
1000
1001
0001
,
0101
0000
0000
0000
0001
0000
0000
0000
1100
0000
0000
0000
0100
0000
0000
0000
0001
0010
0100
1000
0100
0010
0001
0000
1000
0000
0000
0000
0100
0000
0000
0000
,
1010
0000
0100
0000
1010
0000
0010
0000
0100
0001
0100
0001
0100
0000
0001
0000
,
1000
0000
0000
0000
0100
0000
0010
0000
0100
0000
0000
0000
0010
0000
0000
0000
0001
0010
0100
1000
0100
0010
0001
0000
1000
0000
0000
0000
0001
0000
0000
0000
,
0010
0010
0110
0100
1100
0100
0101
0100
,
0011
0000
0000
0000
0110
0000
0000
0000
1100
0000
0000
0000
0110
0000
0000
0000
0001
0010
0100
1000
0100
0010
0001
0000
1100
0000
0000
0000
0001
0000
0000
0000
,
0010
0100
1000
0000
0001
0100
0001
0000
1100
0000
0100
0000
0010
0000
0001
0000
,
0010
0000
0000
0000
0001
0000
0000
0000
0011
0000
0000
0000
0100
0000
0000
0000
1000
0100
0010
0001
0010
0100
1000
0000
0110
0000
0000
0000
0001
0000
0000
0000
,
0010
0000
0001
0010
0100
0010
0100
0000
1000
0001
0100
0000
0001
0010
0100
0000
,
0010
0000
0000
0000
0001
0000
0000
0000
1000
0000
0010
0000
0100
0000
0000
0000
1000
0100
0010
0001
0010
0100
1000
0000
0011
0000
0100
0000
0010
0000
0100
0000
,
0001
0000
0010
0000
0001
0000
1000
0010
1000
0000
0010
0100
0010
0100
0001
0000
,
0100
0000
0010
0000
0100
0000
0000
0000
0010
0000
1000
0000
0010
0000
0000
0000
0001
0010
0100
1000
0100
0010
0001
0000
1100
0000
0000
0000
0001
0000
0000
0000
,
0011
0000
0010
0100
1000
0100
1000
0000
1000
0000
0010
0000
0100
0000
0100
0000
,
0001
0000
0100
0000
0001
0000
0010
0000
0100
0000
0000
0000
1000
0000
0000
0000
0000
1000
0100
0010
0001
1000
0100
0010
2002
0000
0000
0000
0000
0000
0000
0000
,
0000
0000
0000
3003
0111
0000
0110
0000
1110
0000
0101
0000
0111
0000
1100
0000
,
1101
0101
1110
1010
1101
0011
0111
0110
,
1011
1001
0111
0011
1110
1100
0111
0011
,
0111
0000
1100
0000
0111
0000
MMMM
0000
0000
0000
0000
0000
0100
1000
0100
1000
,
0100
1000
0100
1000
0100
1000
0100
1000
0100
1000
0100
1000
0100
1000
0100
1000
,
0100
1000
0100
1000
0010
0001
0010
0001
0010
0001
0010
0001
0010
0001
0010
0001
,
0010
0001
0010
0001
0010
0100
1000
0100
0010
0001
0010
0100
1011
0000
MMMM
0000
,
0110
0000
0000
0000
0000
0000
0000
0000
0000
0000
0000
0000
0000
0000
0000
0000
0000
0000
0110
0000
0000
0000
0000
0000
0000
0000
0000
0000
0000
0000
0000
0000
0000
0000
0000
0000
1100
0000
0000
0000
0000
0000
0000
0000
0000
0000
0000
0000
1001
0000
0000
0000
0000
0000
0000
0000
0000
0000
0000
0000
0000
0000
0000
0000
0000
0000
0000
0000
0000
0000
0000
0000
0000
0000
0000
0000
0000
0000
0000
0000
0000
0000
0000
0000
0000
0000
0000
0000
1100
0000
0000
0000
0000
0000
0000
0000
0011
0000
0000
0000
0000
0000
0000
0000
0000
0000
0000
0000
0000
0000
0000
0000
0000
0000
0000
0000
0000
0000
0000
0000
0000
0000
0000
0000
0000
0000
0000
0000
0000
0000
0000
0000
0000
0000
0000
0000
1001
0000
0000
0000
0000
0000
0000
0000
0110
0000
0000
0000
0000
0000
0000
0000
0000
0000
0000
0000
0000
0000
0000
0000
0000
0000
0000
0000
0000
0000
0000
0000
0000
0000
0000
0000
0000
0000
0000
0000
0000
0000
0000
0000
0000
0000
0000
0000
0011
0000
0000
0000
0000
0000
0000
0000
,
1100
0000
0000
0000
0000
0101
1010
0000
0000
0000
0000
1010
0101
0000
0000
0000
0000
0101
1010
0000
0000
0000
0000
1100
,
0011
0000
0000
0001
0000
0000
0010
0000
0000
0001
0000
0000
0001
0000
0010
0000
0100
0000
1000
0000
0001
0000
0010
0000
0100
0000
1000
0000
0001
0000
0010
0000
0100
0000
1000
0000
0001
0000
0010
0000
0100
0000
1000
0000
0001
0000
0010
0000
,
0100
1000
0001
0010
0100
1000
0001
0010
0100
1000
0001
0010
0100
1000
0001
0010
0100
1000
0001
0010
0100
1000
0001
0010
,
0100
1000
0100
0010
0001
1000
0100
0010
0001
1000
0100
0010
0001
1000
0100
0010
0001
1000
0100
0010
0001
1000
0100
0010
,
0001
1000
0100
0010
0001
1000
0100
0010
0001
1000
0100
0010
0001
1000
0100
0010
0001
1000
0100
0010
0001
1000
0100
0010
,
0001
0100
0010
0100
0010
0000
1010
0000
1100
0000
0100
0000
0110
0000
0010
0000
,
0011
0010
0100
1000
0110
0100
0001
1000
,
0101
0001
0011
0010
0100
0001
0110
1000
,
0110
0001
0010
0100
1100
0100
0010
0001
,
0010
0100
0011
0110
0011
0011
1010
1010
,
0101
0001
0010
0100
1100
0001
1000
0010
,
0011
0100
1010
0100
0010
0001
1010
0010
,
0101
0000
0001
0000
1010
0000
0011
0000
1001
0010
0100
1000
1001
0000
1000
0010
,
1100
0001
1000
0000
0101
0000
1000
0000
0110
0000
1000
0000
1100
0000
0100
0000
,
0011
0100
1001
0100
0011
0100
1001
0010
,
0101
0010
0110
0001
0110
1000
0101
0010
,
1001
0000
0100
0000
0101
0000
1000
0000
0110
0000
0001
0000
0110
1000
0001
1000
,
0101
0000
1000
0000
0011
0000
0100
0000
0101
0000
1000
0100
0011
0000
0001
0000
,
0110
0000
0100
0000
1001
0000
0001
0100
0011
0000
0010
0000
1100
0000
1000
0000
,
0101
0000
0100
0000
0011
0100
0010
0100
1010
0000
1000
0000
0110
0000
1001
0100
,
1001
0000
MMMM
0000
0000
0000
0000
0000
0001
0001
0001
1000
1000
1000
0001
0001
,
0001
0000
1001
0010
1010
1000
0110
0010
,
1010
0011
0101
0000
0000
0000
0101
1010
,
0000
0000
0000
0000
1100
0000
1000
0000
1001
0000
0001
0000
0011
0000
0001
0010
,
1100
0000
0100
0000
0011
0000
0100
0001
0110
0000
0010
0000
1100
0001
0010
0001
,
0110
0000
0010
0100
0011
0000
0010
0000
1100
0000
0010
0000
0011
0000
0010
0000
,
1100
0000
0000
0100
0000
0000
1011
0100
0010
0001
0010
0100
1000
0100
0010
0001
0010
0100
1000
0100
0010
0001
0010
0100
,
1000
0100
0010
0001
0010
0100
1000
0100
0010
0001
0010
0100
1000
0100
0010
0001
0010
0100
1000
0100
0010
0001
0010
0100
,
1000
0100
0010
0001
0010
0100
1011
0000
0000
0110
0000
0000
0111
0000
0000
1010
0000
0000
1110
0000
0000
0011
0000
0000
,
1011
1010
0111
0101
1011
1100
1110
0110
,
1101
1001
1110
1100
0111
0011
1110
1100
,
1110
0011
1110
MMMM
0000
0000
0000
0000
,
0000
0000
0000
0000
0100
1000
0100
1000
0100
1000
0100
1000
0100
1000
0100
1000
,
0100
1000
0100
1000
0100
1000
0100
1000
0100
1000
0100
1000
0010
0001
0010
0001
,
0010
0001
0010
0001
0010
0001
0010
0001
0010
0001
0010
0001
0010
0100
1000
0100
,
0010
0000
0000
0001
0000
0000
0010
0000
0000
0100
0000
0000
1011
0000
0000
0000
0000
0010
0000
0010
0000
0000
0101
0000
1010
0000
0000
0000
0000
0000
0000
0000
0000
0000
0011
0000
1100
0000
0000
0000
0000
0000
0000
0000
0000
0000
1001
0000
,
0110
0000
0000
0000
0000
1010
0101
0000
0000
0000
0000
0110
1001
0000
0000
0000
0000
1010
0101
0000
0000
0000
0000
0011
,
1100
0000
0000
0000
0000
0000
0000
0000
0000
0000
0000
0000
1000
0000
0000
0100
0000
0000
1000
0000
0000
0100
0000
0000
M001
0000
0010
0000
0100
0000
1000
0000
0001
0000
0010
0000
0100
0000
1000
0000
0001
0000
0010
0000
0100
0000
1000
0000
,
0001
0010
0100
1000
0001
0010
0100
1000
0001
0010
0100
1000
0001
0010
0100
1000
0001
0010
0100
1000
0001
0010
0100
1000
,
0001
0010
0100
1000
0001
0010
0100
1000
0001
0010
0100
1000
0100
0010
0001
1000
0100
0010
0001
1000
0100
0010
0001
1000
,
0100
0010
0001
1000
0100
0010
0001
1000
0100
0010
0001
1000
0100
0010
0001
1000
0100
0010
0001
1000
0100
0010
0001
1000
,
0100
0010
0001
1000
0100
0010
1001
0000
0000
0110
0000
0000
0101
0000
0000
1001
0000
0000
0110
0000
0000
0101
0000
0000
,
1200
0001
1302
0010
0213
0001
1320
0100
,
2031
0001
3201
1000
2310
0001
3012
0100
,
0213
0001
1302
0010
1103
0010
0101
0100
,
0110
1010
0011
0011
1001
1000
0101
0001
,
0012
0010
0123
1000
2130
0001
3210
0001
,
1302
0100
0213
1000
1320
0100
2030
0010
,
3102
0000
1000
0000
0123
0000
0001
0000
1130
0000
0001
0000
1000
1000
1000
0001
,
0001
0001
1000
1000
1000
0000
0000
0000
0110
0000
0100
0000
1010
0000
0001
0000
,
0110
0010
0110
0100
0101
0010
1010
0010
,
1001
0100
0110
1000
1100
0100
0010
0001
,
0011
0010
0110
0100
1000
0001
0100
0010
,
0110
0010
1001
1000
0111
1001
1110
0011
,
1101
0110
1011
1100
0111
1001
1110
0101
,
1011
0000
0000
0000
0000
0000
0000
0000
0001
0000
0010
0000
0100
0000
0001
0000
0010
0000
0100
0000
1000
0000
0001
0000
0010
0000
0100
0000
1000
0001
0010
0100
1000
0000
0000
0000
0000
0000
0000
0000
0000
0000
0000
0000
0000
0000
0000
0000
0000
0000
0000
0000
0000
0000
0000
0000
0000
0000
0000
0000
0000
0000
0000
0000
,
1110
0111
1110
0111
,
1101
1101
1110
1101
,
0111
1110
1101
0111
,
1110
1011
1101
1110
,
0111
1110
0111
1110
,
1011
1101
0111
1011
,
0111
1110
1011
1101
,
1110
0000
0111
0000
1011
0000
0111
1011
,
1011
0111
1110
0111
,
1011
1110
1101
1011
,
0111
1101
0111
1110
,
1101
0111
1011
1110
,
1110
0110
0111
0101
1011
0110
1101
0000
,
1101
0000
1110
0000
0111
0000
1001
0101
,
0220
0000
0000
0000
1331
0100
0110
0010
,
1001
0100
0110
0010
1001
0100
0110
0010
,
1001
0100
0110
0010
1001
0100
0110
0010
,
1001
0100
0110
0010
1001
0100
0110
0010
,
1001
0100
0110
0010
0011
0100
1100
0010
,
0011
0100
1100
0010
0011
0100
1100
0010
,
0011
0100
1100
0010
0011
0100
1100
0010
,
0011
0000
0000
0100
0000
0000
1100
0000
0000
0010
0000
0000
1001
0000
0000
1000
0100
0010
0001
0000
0000
0001
0010
0100
,
1000
0000
0000
1000
0100
0010
0001
0000
0000
1000
0000
0000
0110
0000
0000
0010
0000
0000
0110
0000
0000
0100
0000
0000
,
1100
0100
0110
0100
1001
0100
0110
0001
,
1100
0010
0100
0000
0011
0000
1000
0000
0110
0000
0010
0000
1010
0100
0010
0100
,
1001
0000
0000
0000
0000
0000
0100
0000
0000
0000
0000
0000
0011
0000
0000
0000
0000
0000
0001
0000
0000
0100
0000
0000
1001
0000
0000
0000
0000
0000
0010
0000
0000
0000
0000
0000
1000
0000
0100
0000
0010
0000
0001
0000
0000
0000
0000
0000
,
0001
0010
0100
1000
0000
0000
1000
0100
0010
0001
0000
0000
1001
0000
0000
0000
0000
0000
0111
0000
0000
0001
0000
0000
,
0110
0000
0010
0000
0010
0100
0010
0000
1100
0000
0100
0000
0110
0001
0010
0000
,
1100
0000
0001
0000
0110
1000
0100
0001
1100
0000
0010
0000
0001
1000
0001
1000
,
0011
0000
0000
0000
0000
0000
0001
0000
0000
0000
0000
0000
1001
0000
0000
0100
0000
0000
0010
0000
0000
0000
0000
0000
0011
0000
0000
0000
0000
0000
0100
0000
0000
0000
0000
0000
1000
0000
0100
0000
0010
0000
0001
0000
0000
0000
0000
0000
,
0001
0010
0100
1000
0000
0000
1000
0100
0010
0001
0000
0000
1010
0000
0000
0010
0000
0000
1100
0000
0000
0010
0000
0000
,
0110
0000
0010
0000
1100
0000
0001
1000
0011
0000
0100
0000
0011
0000
1100
0000
,
0011
0100
0010
0000
1010
0000
0001
0000
1100
0010
0001
0010
1100
0000
0011
0000
,
1100
0001
0110
0010
1100
0001
0010
0100
,
1000
0000
0100
0000
0010
0000
0001
0000
0000
0000
0000
0000
0001
0000
0010
0000
0100
0000
1000
0000
0000
0000
0000
0000
1001
0000
0000
0100
0000
0000
0010
0000
0000
0100
0000
0000
1001
0000
0000
0000
0000
0000
0001
0000
0000
0000
0000
0000
,
0001
0010
0100
0000
0011
0000
0100
0000
1100
0000
0001
0000
0110
0000
0001
0010
,
0100
0000
0100
0010
0001
0010
0100
0010
0110
0000
1010
0000
0010
0100
1000
0100
,
0001
0000
1000
0010
1000
0000
0001
0000
0010
0000
0100
0000
0010
0000
0001
0000
,
1000
0000
0100
0000
0010
0000
0001
0000
0000
0000
0000
0000
0001
0000
0010
0000
0100
0000
1000
0000
0000
0000
0000
0000
0010
0000
0000
0000
0000
0000
0011
0000
0000
0000
0000
0000
0001
0000
0000
0010
0000
0000
0100
0000
0000
0000
0000
0000
,
0110
0000
0010
0000
0100
0000
0010
0000
0011
0000
0100
0000
1100
0001
0010
0100
,
0000
1000
0011
0011
1100
1100
0100
1000
,
0010
0001
0010
0000
1001
0000
0010
0000
0010
0100
1000
0000
0100
0010
0001
0000
,
0010
0100
0010
0000
1001
0000
0101
0000
1010
0000
0001
0000
1000
0001
1000
0000
,
0011
0000
1100
0000
0010
0000
0100
0000
0000
0000
0010
0000
0001
0010
1100
0000
,
0000
0000
0011
0000
0100
0000
0110
0000
0000
0000
1000
0000
1000
0100
0010
0000
,
0110
0000
0100
0000
1100
0000
0010
0000
0000
0000
1000
0000
0110
0010
0001
0000
,
1100
0100
0010
0000
0100
0010
0001
0010
0100
0000
1100
0000
0011
0000
0101
0000
,
1100
0001
1010
0010
0101
0001
1010
0100
,
1001
0000
0001
0000
0110
1000
0001
0000
1100
0000
0010
0000
0101
0000
0010
0000
,
1100
0010
0101
1000
0011
0100
0110
0010
,
0110
0010
1001
1000
0110
0100
0011
0001
,
1010
0010
0101
0010
0101
1000
0110
0001
,
1100
0100
1010
0100
0110
0010
0101
0010
,
0110
0000
0001
0000
1100
0000
0010
0100
0011
0000
0010
0000
0110
0000
0100
0000
,
0101
0001
1001
1000
1010
0010
0110
0001
,
1010
0010
0011
0001
0101
0001
0101
0100
,
0110
0000
1000
0000
1100
0000
0100
0010
1100
0000
0100
0000
1001
0000
0010
0000
,
1100
0001
0011
0100
1010
0001
1010
0100
,
0100
0010
0001
0010
0100
1000
0100
0000
1100
0000
0010
0000
1100
0000
0001
0000
,
0101
0000
0010
0000
0101
0000
0100
0000
1010
0000
0010
0000
1001
0000
0100
0010
,
1100
0110
1001
1010
0101
1010
0110
0101
,
1010
0000
0011
0000
0101
0000
0110
0000
1010
0000
1010
0000
0110
1000
0010
0100
,
0010
0001
0010
0100
1000
0100
0010
0001
0020
0000
0000
0000
0000
0000
0000
0000
,
0000
0000
0000
0030
0000
0000
0000
0000
;
