#TITLE:Black Lawn Finale;
#SUBTITLE:;
#ARTIST:The Flashbulb;
#TITLETRANSLIT:;
#SUBTITLETRANSLIT:;
#ARTISTTRANSLIT:;
#CREDIT:;
#BANNER:black lawn finale-bn.png;
#BACKGROUND:black lawn finale-bg.png;
#LYRICSPATH:;
#CDTITLE:!hayden-cdtitle.png;
#MUSIC:11 - the flashbulb - black lawn finale (cut).mp3;
#OFFSET:-2.740;
#SAMPLESTART:78.410;
#SAMPLELENGTH:15.000;
#SELECTABLE:YES;
#BPMS:0.000=182.000,120.000=91.000,128.000=182.000;
#STOPS:;
#BGCHANGES:;
// cache tags:
#FIRSTBEAT:24.000;
#LASTBEAT:496.000;
#SONGFILENAME:Songs/Keyboard Collaboration II/Hayden - Black Lawn Finale/black lawn finale.sm;
#HASMUSIC:1;
#HASBANNER:1;
#MUSICLENGTH:171.284;
// end cache tags

//---------------dance-single - ----------------
#NOTES:
     dance-single:
     :
     Hard:
     12:
     1.000,1.000,1.000,0.000,0.963,1066.000,324.000,0.000,0.000,0.000:  // measure 1
0000
0000
0000
0000
,  // measure 2
0000
0000
0000
0000
,  // measure 3
0000
0000
0000
0000
,  // measure 4
0000
0000
0000
0000
,  // measure 5
0000
0000
0000
0000
,  // measure 6
0000
0000
0000
0000
,  // measure 7
1000
0000
0001
0100
0001
0000
1000
0000
0100
0000
0100
0000
1010
0000
0001
0000
,  // measure 8
1100
0000
1100
0000
1010
0000
0001
0010
0100
0010
0001
0010
1100
0000
0010
0000
,  // measure 9
0101
0000
1000
0001
0010
0000
0101
0000
1000
0001
1100
0000
1100
0000
1100
0000
,  // measure 10
0110
0000
0000
0000
0000
0000
0110
0000
0000
0000
0000
0000
0001
0000
0010
0000
0100
0000
1000
0000
0000
0010
0000
0000
0100
0000
0000
0001
0000
0000
1000
0000
0000
0010
0000
0000
0101
0000
0000
0000
0000
0000
1000
0000
0100
0000
1000
0000
,  // measure 11
0110
0000
1000
0000
0101
0000
1000
0010
1000
0001
0110
0000
1000
0000
0001
0000
,  // measure 12
1100
0001
0100
0001
0110
1001
0100
0001
,  // measure 13
1000
0000
0000
0000
0010
0000
0000
0000
0100
0000
0000
0000
0001
0000
0010
0000
0100
0000
1000
0000
0000
0010
0000
0000
0100
0000
0000
0001
0000
0000
0010
0000
0000
0001
0000
0000
1100
0000
0000
0000
0000
0000
1100
0000
0000
0000
0000
0000
,  // measure 14
1001
0000
0010
0100
0010
1000
0100
0000
1001
0000
0000
0000
0101
0000
0000
0000
,  // measure 15
1010
0001
0100
0010
1100
0000
0001
0100
0000
0100
0001
0000
1010
0000
0001
0000
,  // measure 16
1100
0000
0010
0100
0010
0000
0010
0000
1100
0000
0001
0100
0001
0000
0000
0000
,  // measure 17
1010
0000
0000
0100
0000
0000
0001
0000
0000
1000
0000
0000
0010
0000
0000
0000
0000
0000
0100
0000
0000
0000
0000
0000
0001
0000
0000
0000
0000
0000
0100
0000
0000
0000
0000
0000
1000
0000
0000
0000
0001
0000
0000
0000
0100
0000
0000
0000
,  // measure 18
0011
0000
0000
0000
0000
0000
0100
0000
0000
0000
0000
0000
1001
0000
0000
0000
0000
0000
0010
0000
0000
0100
0000
0000
0000
0000
0000
0100
0000
0000
0010
0000
0000
0000
0000
0000
1000
0000
0010
0000
0100
0000
0001
0000
0000
0000
0000
0000
,  // measure 19
1010
0000
0001
0100
0001
0000
1000
0010
0100
0001
1000
0000
0110
0000
1000
0010
,  // measure 20
0101
0000
0000
0101
0000
0000
0101
0000
0000
0000
0010
0000
1001
0000
0000
0000
,  // measure 21
1100
0000
0010
0000
0101
0000
1000
0010
0000
1000
0010
0000
1000
0010
0000
0000
,  // measure 22
1010
0000
0100
0000
1001
0000
0000
1000
0000
0001
0100
0010
1000
0100
0100
0000
,  // measure 23
0011
0000
1000
0000
0101
0000
0010
1000
0000
0001
0100
0010
1100
0000
0010
0000
,  // measure 24
0101
0000
1000
0100
0000
0100
0010
0000
0001
0000
0100
0000
0001
0000
0010
0100
,  // measure 25
1001
0000
0010
0000
0100
0000
0001
0010
0001
0100
0001
0000
1000
0010
1000
0001
,  // measure 26
0110
0000
0000
0110
0000
0000
0001
0100
0010
1000
0000
0000
0000
0000
0000
0110
0000
0000
0101
0000
0000
0000
0000
0000
,  // measure 27
1001
0000
0010
0000
0101
0000
1000
0100
0000
1000
0100
0000
0011
0000
0000
0000
,  // measure 28
1001
0000
0000
0010
0000
0000
0100
0000
0000
0010
0000
0000
0100
0000
0000
1000
0000
0000
0001
0100
0001
0100
0000
0000
,  // measure 29
0010
0100
0010
1000
0101
0000
0010
0100
0000
0100
0010
0000
1100
0000
0000
0000
,  // measure 30
1001
0000
1000
0010
0100
0001
1000
0000
0010
0100
0001
1000
0101
0000
1010
0000
,  // measure 31
1001
0000
0010
0000
0101
0000
1000
0010
0100
0001
1000
1000
0110
0000
0001
0100
,  // measure 32
1001
0000
0100
0000
1010
0000
0001
0100
0000
0001
0010
0100
1010
0000
0100
0000
,  // measure 33
0001
0100
0001
0000
1100
0000
0010
0100
0000
0010
0100
0000
1100
0000
0001
0010
,  // measure 34
0100
1000
0100
0000
0011
0000
1000
0010
0100
0001
1000
0000
0101
0000
1010
0000
,  // measure 35
0101
0010
0000
1000
0100
0010
0100
0010
1100
0001
0010
0100
1010
0000
0000
0100
,  // measure 36
0001
0000
0100
0000
1001
0000
0010
0100
0010
1000
0001
0000
1000
0010
0100
0000
,  // measure 37
0001
1000
0010
0000
1100
0000
0001
0100
0010
1000
0001
0100
0011
0000
1000
0000
,  // measure 38
0001
0000
0000
0000
0010
0000
0000
0000
0100
0000
0000
0000
1001
0000
0000
0000
0000
0000
1000
0000
0000
0100
0000
0000
0010
0000
0000
0001
0000
0000
1000
0000
0000
0010
0000
0000
1100
0000
0000
0000
0000
0000
0000
0000
0000
0000
0000
0000
,  // measure 39
0101
0010
1000
0010
1001
0000
0010
0100
0000
0100
0010
0000
1001
0000
1000
0010
,  // measure 40
1100
0000
1100
0000
1001
0000
0010
0101
0000
0010
0101
0000
1001
0000
0000
0000
,  // measure 41
1010
0000
0100
0001
0100
0000
0010
0100
0000
0010
0100
0000
0011
0000
1100
0000
,  // measure 42
1001
0000
0010
0000
0101
0000
1000
0010
0100
0001
1000
0001
0110
0000
0000
0000
,  // measure 43
1001
0010
0100
0000
0010
0100
1000
0000
0000
0000
0001
0010
0001
0010
0100
0010
,  // measure 44
1100
0000
0000
0000
0010
0000
0000
0000
0001
0100
0001
0000
0110
0000
0000
0000
0110
0000
0000
0000
1000
0000
0100
0000
1001
0000
0000
0000
0000
0000
0000
0000
,  // measure 45
1010
0000
0000
0000
1001
0000
1000
0100
0000
0001
0010
0100
1001
0000
0000
0000
,  // measure 46
1010
0000
0000
0000
0101
0000
0000
1000
0100
1000
0100
0000
1001
0000
0000
0000
,  // measure 47
1100
0000
0001
0000
0010
0000
1100
0000
1001
0000
0100
0000
0001
0100
0000
0100
,  // measure 48
1001
0000
0010
0000
1001
0000
0100
0001
0100
0010
1000
0000
0110
0000
0110
0000
,  // measure 49
1001
0000
0000
0000
1010
0000
0001
0100
0000
0100
0010
1000
0101
0000
0000
0000
,  // measure 50
1100
0000
0000
0000
0011
0000
0000
0100
0010
0100
0010
0000
1001
0000
0000
0000
,  // measure 51
1010
0000
0100
0000
0001
0000
0110
0000
1010
0000
0100
0000
0001
0100
0000
0100
,  // measure 52
1001
0000
0000
0000
0011
0000
1000
0100
1000
0001
0100
0000
0011
0000
0100
0000
,  // measure 53
1001
0000
0010
0000
0101
0000
1000
0100
0000
0100
0010
0001
0110
0000
0000
0000
,  // measure 54
1001
0000
0000
0000
0101
0000
0000
0010
1000
0010
1000
0000
0110
0000
0000
0000
,  // measure 55
1100
0000
0010
0000
0100
0000
0011
0000
0101
0000
1000
0000
0001
0010
0000
0010
,  // measure 56
0101
0000
0000
0000
1100
0000
0001
0010
0100
1000
0010
0000
0001
0000
0100
0000
,  // measure 57
1001
0000
0010
0000
1100
0000
0001
1000
0010
0100
0010
0100
1010
0100
0001
0010
,  // measure 58
1100
0000
1001
0001
0100
0000
0010
0100
0000
0010
0100
0000
1100
0000
0000
0000
,  // measure 59
0001
0100
0001
0100
0001
0100
0001
0100
0001
0100
0001
1000
0001
1000
0001
1000
,  // measure 60
0001
0010
0100
1000
0100
0000
0010
0000
0100
0000
0010
0000
0100
0000
0000
0001
0000
0000
1000
0000
0000
0000
0000
0000
,  // measure 61
0001
0100
0010
1000
0110
0000
0001
0100
0010
1000
0010
0100
0011
0000
1001
1000
,  // measure 62
0110
0000
0110
0000
0001
0010
0100
1000
0100
0010
0000
0000
1010
0000
0000
0000
,  // measure 63
1001
0010
0100
0010
1100
0000
0010
1000
0001
0100
1010
0000
0101
0000
1001
0001
,  // measure 64
0010
0100
0010
0100
1000
0100
1000
0100
0010
0100
0010
0001
0110
0000
1010
0000
,  // measure 65
0011
0100
1000
0010
0101
0000
1000
0010
0100
0001
1000
0100
0011
0000
1001
0000
,  // measure 66
1010
0100
0001
0000
0110
0000
1001
0000
1010
0100
0001
0100
1001
0000
1000
0001
,  // measure 67
0100
0010
1000
0010
1001
0000
0100
0010
0000
1000
0100
0010
1001
0000
0110
0000
,  // measure 68
1010
0000
0100
0000
0001
0001
0010
0100
1000
0000
0010
0000
0101
0000
0000
0000
,  // measure 69
1001
0000
0100
0010
1001
0000
1000
0010
0100
0001
0100
0000
1010
0000
0100
0000
,  // measure 70
1000
0000
0000
0000
0100
0000
0000
0000
0010
0000
0000
0000
0001
0000
0000
0000
0000
0000
1000
0000
0000
0000
0000
0000
0001
0000
0000
0010
0000
0000
0001
0000
0000
0100
0000
0000
1010
0000
0000
0000
0000
0000
0101
0000
0000
0000
0000
0000
,  // measure 71
1100
0000
0010
0000
1001
0000
1000
0010
0100
0001
1000
0100
0011
0000
1000
0100
,  // measure 72
1010
0000
0001
0100
0001
0000
1000
0010
1000
0100
0010
0001
0110
0000
0110
0000
,  // measure 73
1001
1000
0010
0100
0011
0000
1000
0010
1000
0010
1000
0100
0011
0000
0101
0000
,  // measure 74
1010
0100
0001
0000
1100
0000
1100
0000
0101
0010
1000
0010
1001
0000
1000
0100
,  // measure 75
1000
0000
0001
0100
1010
0000
0001
0010
0100
1000
0010
0100
1001
0000
1010
0000
,  // measure 76
0101
0000
0101
0000
1001
0010
0100
0010
1100
0000
0010
0000
0100
0000
0010
0000
,  // measure 77
1001
0000
0000
0000
0101
0000
1000
0010
0000
0010
0100
0001
1000
0000
0000
0000
,  // measure 78
0101
0000
0000
0000
1100
0000
0000
0010
0100
1000
0010
0000
1001
0000
0000
0000
,  // measure 79
1010
0000
0100
0000
0001
0000
1000
0100
0000
1000
0100
0000
1001
0000
0000
0000
,  // measure 80
0110
0000
0000
0000
1010
0000
0100
0001
1000
0010
0100
0000
0011
0000
0100
0000
,  // measure 81
1001
0000
0000
0000
0011
0000
1000
0100
0000
0001
0010
0100
1000
0000
0000
0000
,  // measure 82
0101
0000
0000
0000
1010
0000
0000
0100
0010
0100
1000
0000
0011
0000
0000
0000
,  // measure 83
0110
0000
0000
0000
1001
0000
0100
0010
0000
0100
0010
0000
1100
0000
0000
0000
,  // measure 84
1001
0000
0000
0000
0101
0000
1000
0001
0100
0010
0100
0000
0011
0000
0000
0000
,  // measure 85
1001
0000
0000
0000
1010
0000
0001
0100
0000
0100
0010
1000
0001
0000
0000
0000
,  // measure 86
1010
0000
0000
0000
0011
0000
0000
1000
0010
0100
0001
0000
1010
0000
0000
0000
,  // measure 87
1001
0000
0100
0000
0010
0000
0101
0000
0110
0000
1000
0000
0010
0100
0000
0100
,  // measure 88
1001
0000
0000
0000
1010
0000
0100
0001
1000
0010
0100
0000
0011
0000
1010
0000
,  // measure 89
1001
0000
0000
0000
0101
0000
1000
0100
0000
1000
0100
0000
1001
0000
0000
0000
,  // measure 90
1010
0000
0000
0000
0110
0000
0000
0001
0100
0001
0100
0000
1001
0000
0000
0000
,  // measure 91
1010
0000
0100
0000
0010
0000
1100
0000
1001
0000
0010
0000
0001
0010
0000
0010
,  // measure 92
0101
0000
0000
0000
1001
0000
1000
0010
0100
0001
1000
0000
0101
0000
0110
0000
,  // measure 93
1001
0000
0000
0000
0101
0000
1000
0100
0000
0100
0010
0001
0100
0000
0000
0000
,  // measure 94
1001
0000
0000
0000
0110
0000
0000
1000
0010
0100
0010
0000
0101
0000
0000
0000
,  // measure 95
1001
0000
0100
0000
0010
0000
1100
0000
1001
0000
0100
0000
1000
0010
0000
0010
,  // measure 96
1100
0000
0000
0000
1001
0000
0001
0100
0010
1000
0100
0000
1001
0000
0011
0000
,  // measure 97
1100
0000
0000
0000
0011
0000
1000
0001
0000
1000
0001
0000
1010
0000
0000
0000
,  // measure 98
0101
0000
0000
0000
1001
0000
0000
1000
0100
0010
0001
0000
1010
0000
0000
0000
,  // measure 99
1001
0000
0100
0000
0010
0000
1100
0000
1001
0000
0100
0000
0010
0100
0000
0100
,  // measure 100
1001
0000
0000
0000
0101
0000
1000
0010
0100
0010
1000
0000
0101
0000
0011
0000
,  // measure 101
1001
0000
0000
0000
0101
0000
1000
0100
0000
0010
0100
0010
1100
0000
0000
0000
,  // measure 102
1001
0000
0000
0000
0110
0000
0000
0010
1000
0010
0100
0000
0011
0000
0000
0000
,  // measure 103
1001
0000
0100
0000
0010
0000
1100
0000
1001
0000
0100
0000
0001
1000
0000
1000
,  // measure 104
0101
0000
0000
0000
1010
0000
0001
0100
0010
1000
0100
0000
0011
0000
0101
0000
,  // measure 105
1001
0000
0000
0000
0101
0000
1000
0100
0000
0001
0010
0100
1001
0000
0000
0000
,  // measure 106
1010
0000
0000
0000
0110
0000
0000
0001
0100
0001
0100
0000
1001
0000
0000
0000
,  // measure 107
1100
0000
0010
0000
0100
0000
0011
0000
1010
0000
0001
0000
1000
0010
0000
0010
,  // measure 108
1100
0000
0000
0000
0101
0000
1000
0100
0010
0001
0100
0000
1001
0000
1010
0000
,  // measure 109
0101
0000
0000
0000
1010
0000
0001
0100
0000
0100
0010
1000
0100
0000
0000
0000
,  // measure 110
1001
0000
0000
0000
0101
0000
0000
0010
0100
0010
0100
0000
0101
0000
0000
0000
,  // measure 111
0110
0000
1000
0000
0001
0000
0110
0000
0011
0000
1000
0000
0100
0010
0000
0010
,  // measure 112
1100
0000
0000
0000
0101
0000
1000
0010
0100
0001
0010
0000
1100
0000
0011
0000
,  // measure 113
1001
0000
0000
0000
0101
0000
1000
0100
0000
0010
0100
0010
1100
0000
0000
0000
,  // measure 114
1001
0000
0000
0000
1010
0000
0000
0100
0010
0100
0010
0000
1100
0000
0000
0000
,  // measure 115
0101
0000
0010
0000
1000
0000
0101
0000
1100
0000
0001
0000
1000
0001
0000
0001
,  // measure 116
1100
0000
0000
0000
0101
0000
1000
0100
0010
0001
0010
0000
1010
0000
0101
0000
,  // measure 117
1001
0000
0000
0000
,  // measure 118
0000
0000
0000
0000
,  // measure 119
1010
0000
0000
0000
,  // measure 120
0101
0000
0000
0000
,  // measure 121
0110
0000
0000
0000
,  // measure 122
0000
0000
0000
0000
,  // measure 123
1001
0000
0000
0000
,  // measure 124
0101
0000
0000
0000
,  // measure 125
0110
0000
0000
0000
;
