#TITLE:A Warrior's Death;
#SUBTITLE:A Warrior's Death (2009);
#ARTIST:Baranduin;
#TITLETRANSLIT:;
#SUBTITLETRANSLIT:;
#ARTISTTRANSLIT:;
#CREDIT:;
#BANNER:BN.png;
#BACKGROUND:BG.png;
#LYRICSPATH:;
#CDTITLE:CDTitle.gif;
#MUSIC:01 A Warrior's Death.mp3;
#OFFSET:-0.225;
#SAMPLESTART:20.000;
#SAMPLELENGTH:12.000;
#SELECTABLE:YES;
#BPMS:0.000=134.001,96.500=110.181,98.000=133.001,118.000=134.001,670.250=133.961,670.500=101.862,672.000=133.981;
#STOPS:;
#BGCHANGES:;
// cache tags:
#FIRSTBEAT:0.000;
#LASTBEAT:809.750;
#SONGFILENAME:Songs/Astronomic Metal Collection 2/(Charlo) A Warrior's Death/A Warrior's Death.sm;
#HASMUSIC:1;
#HASBANNER:1;
#MUSICLENGTH:367.490;
// end cache tags

//---------------dance-single - ----------------
#NOTES:
     dance-single:
     :
     Hard:
     12:
     1.000,1.000,1.000,0.955,1.000,2423.000,675.000,351.000,0.000,0.000:
1100
0000
0010
0001
0100
0000
0010
0000
1000
0001
0100
0001
0010
0000
1100
0000
,
1001
0000
0000
0000
0000
0000
0100
0000
0000
0010
0000
0000
0001
0000
0000
0000
0000
0000
1000
0000
0000
0000
0000
0000
0100
0000
0000
0010
0000
0000
0001
0000
0000
0000
0000
0000
0001
0000
0010
0000
0100
0000
0011
0000
0000
1000
0000
0000
,
0110
0000
0001
1000
0010
0000
0100
0000
0010
1000
0100
0010
0001
0100
0010
0100
,
0012
0000
0000
0000
1000
0000
0100
0000
0010
0000
0100
0000
1000
0000
0000
0100
0000
0000
0010
0000
0000
0103
0000
0000
2010
0000
0000
0100
0000
0000
0010
0000
0000
3001
0000
0000
0210
0000
0000
0001
0000
0000
1000
0000
0000
0310
0000
0000
,
1001
0000
0001
0010
0100
0000
1000
0000
0001
0100
0010
0100
0001
0000
0101
0000
,
0110
0000
0000
0000
0000
0000
1000
0000
0000
0001
0000
0000
1000
0000
0000
0000
0000
0000
0010
0000
0000
0000
0000
0000
0100
0000
0000
0001
0000
0000
0010
0000
0000
0000
0000
0000
1000
0000
0100
0000
0010
0000
1001
0000
0000
0010
0000
0000
,
1100
0000
0001
0010
0001
0000
1000
0000
0100
0010
0001
1000
0010
0000
0100
0000
,
0110
0001
1000
0010
1000
0100
0010
0001
0110
1000
0010
1000
0101
0010
0100
1000
,
0011
0100
1000
0010
0100
0010
1000
0100
0011
1000
0010
1000
0001
0100
0010
1000
,
0110
0001
0010
0100
1000
0010
0100
0001
1010
0100
0010
0001
1000
0010
1000
0001
,
1100
0010
0001
0100
0010
0100
0001
0010
0101
1000
0010
0100
0001
0100
0010
1000
,
0220
0000
0000
0000
0000
0000
0000
0330
2020
0000
0000
3030
0022
0000
0000
0033
,
1001
0000
0110
1010
0110
0000
1001
0000
0011
0110
0000
1010
0110
0000
1001
0000
,
0011
0000
1010
0110
1001
0000
0011
0000
0110
0001
1000
0010
1000
0100
0010
0100
,
1010
0000
0011
1010
0110
0000
0101
0000
1010
1100
0000
0011
0110
0000
1001
0000
,
0220
0000
0000
0000
0000
0000
0000
0330
0101
1010
0000
0110
0000
1001
0011
0000
,
1100
0000
1010
1100
0011
0000
1001
0000
0110
1001
0000
1010
0110
0000
0011
0000
,
1100
0000
0011
0101
1010
0000
0110
0000
0011
0100
1000
0001
0010
0001
1000
0010
,
1001
0000
0110
1001
1100
0000
1010
0000
1001
0110
0000
0011
1001
0000
0101
0000
,
2200
0000
0000
0000
0000
0000
0000
3300
0101
1100
0000
1001
0000
0110
0011
0000
,
1001
0000
1001
1001
1001
0000
1001
0000
1000
0100
0010
0001
0200
0300
0011
0000
,
0011
0011
0011
0000
0011
0000
1000
0100
1000
0010
0101
0000
1010
0000
0011
0000
,
1010
0000
0110
0000
0110
0110
0110
0000
0110
0000
1000
0010
0100
0010
1000
0100
,
0010
0000
0000
0001
0000
0000
0110
0000
1000
0000
0001
0000
0100
0000
0001
0000
0010
0000
0100
0000
0000
1000
0000
0000
0010
0000
0000
0100
0000
0000
1001
0000
0000
0010
0000
0000
0001
0000
0000
1000
0000
0000
0011
0000
0000
1000
0000
0000
,
0100
0010
2002
0000
0000
0000
0000
3003
0010
0000
0010
0000
0010
0000
0010
0000
,
0110
0110
2000
3020
0230
0320
2030
3200
,
0320
0032
2003
3020
0032
0203
0320
0230
,
2300
0000
0000
0000
0000
0000
3002
0000
0000
0000
0000
0003
0220
0000
0000
0030
0000
0000
2000
0000
0000
3000
0000
0000
0002
0000
0000
0003
0000
0000
0020
0000
0000
0330
0000
0000
2002
0000
0000
0003
0000
0000
0020
0000
0000
3030
0000
0000
,
0101
0101
2000
3020
0230
0302
2003
3200
,
0320
0000
0000
0000
0000
0000
0230
0000
0000
0000
0000
0000
2300
0000
0000
0000
0000
0000
3002
0000
0000
0000
0000
0003
0110
0000
0000
1000
0000
0000
0001
0000
0000
1000
0000
0000
0010
0000
0000
0100
0000
0000
0001
0000
0000
1000
0000
0000
,
0010
0100
0010
1000
0110
0001
1000
0010
1000
0100
0010
0001
0110
1000
0010
1000
,
0011
0100
1000
0010
0100
0001
1000
0100
0011
1000
0100
0010
0101
1000
0100
0010
,
0001
0100
0010
0100
0011
0100
1000
0010
0101
0010
1100
0001
0110
0001
1100
0010
,
1001
0100
0011
1000
0110
0001
1000
0010
1000
0100
0010
0001
1000
0001
0100
0010
,
0100
0001
0100
0010
1000
0100
0010
0001
0100
0010
1000
0100
0011
0100
1000
0010
,
1100
0010
1001
0010
0101
1000
0011
0100
1010
0001
0010
0100
1001
0010
0100
1000
,
0010
0000
0000
1000
0000
0000
0100
0000
0000
0010
0000
0000
2001
0000
0000
0000
0000
0000
3200
0000
0000
0000
0000
0000
0320
0000
0000
0000
0000
0030
0201
0000
0000
0000
0000
0000
0320
0000
0000
0000
0000
0000
2030
0000
0000
0000
0000
3000
,
0210
0000
0000
0000
0000
0000
0320
0000
0000
0000
0000
0000
0032
0000
0000
0000
0000
0003
1020
0000
0000
0000
0000
0000
0230
0000
0000
0000
0000
0000
2300
0000
0000
0000
0000
3000
0210
0000
0000
0000
0000
0000
0302
0000
0000
0000
0000
0000
,
2003
0000
0000
0000
0000
3000
0210
0000
0000
0000
0000
0000
0302
0000
0000
0000
0000
0000
2003
0000
0000
0000
0000
3000
0021
0000
0000
0000
0000
0000
0130
0000
0000
0000
0000
0000
1100
0000
0000
0000
0000
0000
1010
0000
0000
0000
0000
0000
,
0001
0110
1001
0201
0320
2030
3200
0320
,
0230
0000
0000
0000
0000
0000
0302
0000
0000
0000
0000
0000
0023
0000
0000
0000
0000
0000
0230
0000
0000
0000
0000
0000
0320
0000
0000
0000
0000
0000
2030
0000
0000
0000
0000
3000
0021
0000
0000
0000
0000
0000
0230
0000
0000
0000
0000
0000
,
0302
0000
0000
0000
0000
0003
2010
0000
0000
0000
0000
0000
3200
0000
0000
0000
0000
0300
0012
0000
0000
0000
0000
0003
1010
0000
0000
0000
0000
0000
0100
0000
0010
0000
0001
0000
1000
0000
0000
0010
0000
0000
0100
0000
0000
0010
0000
0000
,
1000
0100
0010
0001
0110
1000
0010
1000
0100
0010
0001
1000
0011
0100
1000
0010
,
1100
0010
0001
1000
0010
1000
0001
0010
0101
1000
0101
0010
1001
0100
0010
0100
,
1001
0010
1100
0010
0001
1000
0110
0001
1010
0100
0011
1000
0101
0010
1001
0100
,
0011
1000
0110
0001
1010
0100
0010
0001
0100
0010
1000
0100
0011
1000
0100
1000
,
0101
0010
0100
1000
0110
0001
1000
0010
0101
1000
0100
0010
1001
0010
0100
1000
,
0010
0100
0001
0010
1100
0010
0001
1000
0011
0100
1000
0010
0100
0001
0010
0001
,
0110
0000
1000
0000
0100
0000
0010
0000
2002
0000
0000
0000
0000
0000
0000
0000
0000
0000
0000
0000
0000
0000
0000
0000
0000
0000
0000
0000
0000
0000
3003
0100
,
0010
0000
1000
0100
1000
0001
0100
0001
0010
0100
1000
0010
1100
0000
0000
0000
,
0110
0000
1001
0000
0000
0000
0100
0010
0001
1000
0001
0010
0100
0010
0001
1000
,
0001
0010
1100
0001
0110
1000
0010
0100
0001
0100
0010
1000
0100
0010
0100
1000
,
0001
0100
0010
0100
0001
0010
0102
0000
2003
0000
3020
0000
0230
0000
2300
0010
,
3100
0001
0010
0001
1000
0010
1000
0100
0010
0001
0010
0100
1000
0100
0012
0000
,
0203
0000
0302
0000
0023
0000
0100
1000
0100
1000
0100
0000
0032
0000
0203
0000
,
0320
0000
0001
1000
0001
1000
0032
0000
0010
0100
0010
0103
1010
0000
0000
0000
,
0110
0000
2002
0000
0000
0000
0000
3003
0101
1000
0010
0100
0001
1000
0110
0001
,
0010
0100
1000
0010
1100
0010
0001
1000
0100
0010
0101
0010
0100
0011
0100
1000
,
0010
0100
0001
0010
0100
1000
0020
0001
0230
0001
2300
0010
3100
0001
0100
0010
,
1001
0100
0011
1000
0100
1000
0110
0001
1010
0001
0100
0010
1000
0001
0020
0000
,
0032
0000
0203
0000
0301
1000
0100
0010
0001
1000
0010
1000
0100
0010
1100
0001
,
0110
1000
0001
0100
0010
0100
1001
0010
0100
0010
0001
1000
0110
0000
0000
0000
,
0110
0000
0110
0110
0110
0000
0110
0000
0110
0000
0000
0000
1001
0000
1001
1001
,
1001
0000
1001
0000
1001
0000
0000
0000
0101
0000
0101
0101
0101
0000
0101
0000
,
0201
0010
1000
0010
0001
1000
0010
0001
1000
0010
1000
0301
0010
0100
0010
0100
,
1010
0000
0101
0110
1100
0000
0110
0000
1001
0101
0000
1100
0110
0000
1100
0000
,
0101
0000
0110
1100
0110
0000
1100
0000
0101
0010
0100
1000
0010
0100
0010
1000
,
0110
0000
1100
0110
0101
0000
1010
0000
0101
0011
0000
0110
1100
0000
1010
0000
,
2002
0000
0000
0000
0000
0000
0000
3003
0101
1100
0000
1010
0000
0110
1001
0000
,
0101
0000
1100
0011
1010
0000
0101
0000
0011
0110
0000
1010
1001
0000
0110
0000
,
1001
0000
1100
0110
0011
0000
1010
0000
1100
0010
0001
0010
0001
1000
0010
1000
,
0101
0000
0011
1010
1001
0000
0011
0000
1100
0011
0000
1100
1010
0000
1001
0000
,
0022
0000
0000
0000
0000
0000
0000
0033
0101
1100
0000
0110
0000
1100
0101
0000
,
2002
3003
0110
0110
0110
0000
2002
3003
0110
0110
0110
0000
2002
0000
0000
3003
,
0220
0000
0000
0330
2020
3030
0101
0101
0101
0000
0010
0001
2000
0000
3200
0000
,
2300
0000
0000
3000
0022
0000
0000
0033
0202
0303
1010
1010
1010
0000
0202
0303
,
1010
1010
1010
0000
0202
0000
0000
0303
0220
0000
0000
0330
0022
0033
1100
1100
,
1100
0000
0010
0100
2000
0000
3002
0000
0023
0000
0000
0030
0202
0000
0000
0303
,
1100
0000
0000
0000
0000
0000
1100
0000
0000
0000
0000
0000
0002
0000
0000
0000
0000
0000
0203
0000
0000
0000
0000
0000
0320
0000
0000
0000
0000
0000
2030
0000
0000
0000
0000
3000
0011
0000
0000
0000
0000
0000
0011
0000
0000
0000
0000
0000
,
2000
0000
0000
0000
0000
0000
3200
0000
0000
0010
0000
0000
0302
0000
0000
1000
0000
0000
0023
0000
0000
1000
0000
0030
0201
0000
0000
0000
0000
0000
0320
0000
0000
0000
0000
0000
2030
0000
0000
0000
0000
0000
3002
0000
0000
0000
0000
0003
,
0210
0000
0000
0000
0000
0000
0302
0000
0000
0000
0000
0003
2100
0000
0000
0000
0000
0000
3020
0000
0000
0000
0000
0000
0230
0000
0000
0000
0000
0000
0320
0000
0000
0000
0000
0030
2001
0000
0000
0000
0000
0000
3200
0000
0000
0000
0000
0300
,
1020
0000
0000
0000
0000
0000
0230
0000
0000
0000
0000
0000
0302
0000
0000
0000
0000
0000
0023
0000
0000
0000
0000
0030
1002
0000
0000
0000
0000
0000
0203
0000
0000
0000
0000
0300
1001
0000
0000
0000
0000
0000
0001
0000
0000
0010
0000
0000
,
0100
0000
0000
0000
0000
0000
1010
0000
0000
0000
0000
0000
0100
0000
0000
0000
0000
0000
1010
0000
0000
0000
0000
0000
0210
0000
0000
0000
0000
0000
2300
0000
0000
0000
0000
0000
3020
0000
0000
0000
0000
0000
0230
0000
0000
0000
0000
0300
,
0012
0000
0000
0000
0000
0000
2003
0000
0000
0000
0000
3000
0201
0000
0000
0000
0000
0000
0320
0000
0000
0000
0000
0000
2030
0000
0000
0000
0000
0000
3002
0000
0000
0000
0000
0003
0210
0000
0000
0000
0000
0000
2300
0000
0000
0000
0000
3000
,
0120
0000
0000
0000
0000
0000
0032
0000
0000
0000
0000
0000
2003
0000
0000
0000
0000
0000
3020
0000
0000
0000
0000
0030
0201
0000
0000
0000
0000
0000
0320
0000
0000
0000
0000
0030
1100
0000
0000
0000
0000
0000
0010
0000
0001
0000
1000
0000
,
0010
0100
0001
0010
0001
1000
0010
1000
0110
0001
1000
0010
1000
0100
0010
0001
,
0110
1000
0001
1000
0101
0010
0100
1000
0010
0100
0010
1000
0110
0001
1000
0010
,
1100
0010
0001
1000
0010
1000
0001
1000
0101
0010
0001
1000
0110
0001
1100
0010
,
0101
1000
0011
0100
1010
0100
1001
0010
1100
0010
0001
0100
0010
0100
0001
0010
,
1100
0010
0001
1000
0101
0010
0100
1000
0001
0100
0010
1000
0110
0001
1000
0100
,
1001
0010
0100
1000
0010
0100
0001
0100
1010
0100
0010
0001
2020
0000
0000
0000
,
0000
0000
0000
3030
0220
0000
0000
0330
2001
0000
0100
0010
0001
0100
0010
0100
,
0001
0010
0100
3010
0101
0000
0000
0000
1100
0000
0110
0000
0000
0000
1000
0100
,
0010
0100
1000
0001
0100
0001
1000
0010
0100
0010
1100
0010
1001
0010
0100
1000
,
0010
0100
0001
0100
0010
1000
0100
0010
0001
0100
0010
1000
0100
0010
0002
0000
,
2003
0000
3002
0000
0203
0000
0320
0000
1030
0100
1000
0001
0100
0001
0010
0100
,
1000
0010
0100
0001
0100
0010
0200
0000
0320
0000
0032
0000
0023
0000
0100
1000
,
0100
1000
0100
0000
0032
0000
2003
0000
3200
0000
0010
1000
0010
1000
0320
0000
,
0001
1000
0001
1030
0101
0000
0000
0000
0110
0000
1100
0000
0000
0000
1000
0001
,
0110
1000
0001
0100
0010
1000
0101
0010
0100
1000
0010
0100
0011
1000
0010
1000
,
0100
0010
1001
0100
0010
1100
0001
0010
0100
1000
0001
0100
0010
0100
0002
0010
,
0203
0000
0000
1000
0000
0000
0320
0000
0000
0001
0000
0030
1100
0000
0000
0001
0000
0000
0100
0000
0000
0010
0000
0000
1100
0000
0000
0001
0000
0000
0110
0000
0000
0001
0000
0000
1000
0000
0000
0010
0000
0000
1100
0000
0000
0001
0000
0000
,
1010
0000
0000
0100
0000
0000
0011
0000
0000
1000
0000
0000
0100
0000
0000
0010
0000
0000
2001
0000
0000
0000
0000
0000
3200
0000
0000
0000
0000
0000
0320
0000
0000
0000
0000
0030
0101
0000
0000
0010
0000
0000
0100
0000
0000
1000
0000
0000
,
0010
0100
0001
1000
0100
0010
1100
0001
0110
1000
0001
1000
0010
0100
0011
1000
,
0010
1000
0100
0010
1001
0000
0000
0000
0011
0000
0202
0000
0303
0000
1000
0010
,
1000
0001
0010
0100
1000
0010
0200
0000
0320
0000
2030
0000
3200
0010
0301
1000
,
0010
1000
0100
0010
0001
1000
0010
0100
0010
1000
0100
1000
0001
0100
0002
0000
,
0203
0000
2300
0000
3020
0100
0031
1000
0010
0100
0001
0010
0100
1000
0010
0100
,
0010
1000
0100
0010
0100
1000
0002
0000
2003
0000
3020
0000
0032
0000
1000
0010
,
1000
0010
2003
0000
3200
0000
0320
0000
0032
0000
1000
0100
1000
0100
2003
0000
,
0010
0001
0010
3001
0110
0000
0000
0000
1100
0000
0101
0000
0000
0000
0010
0100
,
1000
0001
0100
0001
0010
0100
0020
0000
0000
0000
0000
0000
0032
0100
1003
0010
,
0100
0001
0010
0001
1000
0010
1000
0100
0010
0100
1000
0001
0100
0010
0200
0000
,
0320
0000
2030
0000
3200
0000
0001
1000
0001
1000
0001
0000
1000
0010
1000
0010
,
1000
0000
0010
0001
0010
0001
0320
0000
2030
0000
3002
0000
2003
0000
0100
0001
,
0100
0001
0100
0000
0010
0100
3002
0100
0023
0000
0100
1000
0100
1000
0230
0000
,
0001
1000
0001
1300
2002
0000
0000
0000
3003
0000
0010
0000
0100
0000
0010
0000
,
0001
1000
0010
1000
0100
0001
0100
0010
,
1000
0001
0010
0001
1000
0010
0100
0010
,
1000
0001
0100
1000
0010
0001
0100
0010
,
1000
0001
1000
0010
0001
0100
0010
0100
,
1000
0010
1000
0001
0010
0100
1000
0100
,
0010
0000
0001
0000
2020
3030
0110
1001
0110
1001
0110
0000
1001
0110
1001
0110
,
2002
3003
0011
1100
0011
1100
0011
0000
1100
0011
2200
3300
0022
0033
1010
0101
,
1010
0101
1010
0000
0101
1010
0101
1010
0101
0000
1010
0101
1010
0101
1020
0000
,
0230
0000
0000
0000
0000
0000
0302
0000
0000
0000
0000
0003
2200
0000
0000
3300
0000
0000
0110
0000
0000
1001
0000
0000
0110
0000
0000
1001
0000
0000
0110
0000
0000
0000
0000
0000
1001
0000
0000
0110
0000
0000
1001
0000
0000
0110
0000
0000
,
2002
3003
0101
1010
0101
1010
0101
0000
1010
0101
2020
3030
0202
0303
0011
1100
,
0011
1100
0011
0000
1100
0011
1100
0011
1100
0000
0011
1100
0011
1100
0012
0000
,
2003
0000
0000
0000
0000
0000
3200
0000
0000
0000
0000
0300
1010
0000
0000
0000
0000
0000
0001
0000
0000
0100
0000
0000
0001
0000
0000
0100
0000
0000
0001
0000
0000
0000
0000
0000
0010
0000
0000
0100
0000
0000
0010
0000
0000
0100
0000
0000
,
0010
0000
1000
0010
1000
0010
2000
0000
3020
0000
0230
0000
1300
0000
0001
1000
,
0001
1000
0001
0000
0010
0100
0010
0100
0011
0000
1000
0100
1000
0100
1001
0000
,
0101
0000
0110
0000
1100
0000
0010
1000
0010
1000
0010
0000
0100
0001
0100
0001
,
0100
0000
0001
0010
0001
0010
0002
0000
2003
0000
3020
0000
0130
0000
1000
0001
,
1000
0001
1000
0000
0001
0100
0001
0100
1001
0000
1000
0100
1000
0100
1010
0000
,
0110
0000
1100
0000
0011
0000
1000
0010
1000
0010
1000
0000
0100
0010
0100
0010
,
0100
0000
0001
1000
0001
1000
0001
0000
0010
0100
1010
0000
0110
0000
1000
0100
,
1000
0100
1000
0000
0001
0010
0001
0010
0001
0000
0100
1000
0100
1000
0200
0000
,
0320
0000
0000
0000
0000
0000
2030
0000
0000
0000
0000
3000
0101
0000
0000
0000
0000
0000
0010
0000
0000
0100
0000
0000
0010
0000
0000
0100
0000
0000
0010
0000
0000
0000
0000
0000
1000
0000
0000
0010
0000
0000
1000
0000
0000
0010
0000
0000
,
1000
0000
0001
0010
0001
0010
0001
0000
1000
0010
1100
0000
1001
0000
0100
1000
,
0100
1000
0100
0000
0001
0100
0001
0100
0001
0000
0010
0100
0010
0100
0020
0000
,
2030
0000
0000
0000
0000
0000
3002
0000
0000
0000
0000
0003
1010
0000
0000
0001
0000
0000
0100
0000
0000
0010
0000
0000
1000
0000
0000
0100
0000
0000
0011
0000
0000
1000
0000
0000
0100
0000
0000
0010
0000
0000
0100
0000
0000
1000
0000
0000
,
0101
0010
0100
1000
0001
0100
0001
1000
0010
1000
0110
0001
1100
0010
0001
1000
,
0010
1000
0001
0100
0001
1000
0100
1000
0001
0010
0100
1000
0010
0100
1001
0010
,
0100
0010
0001
1000
0110
0001
0010
0001
1000
0010
1000
0100
0010
0100
1000
0001
,
1000
0010
0100
0010
1000
0100
0011
1000
0010
1000
0101
1000
0110
0001
1000
0101
,
0010
0100
1000
0010
0100
0001
1000
0001
0100
0010
1000
0100
0010
0100
1000
0010
,
0100
0001
0010
0001
1100
0001
0010
0100
1000
0001
1010
0100
0010
0001
0110
1000
,
0101
1000
0001
0100
0010
1000
0001
0010
0100
1000
0110
0001
1100
0010
0001
1000
,
0100
0010
0101
1000
0010
1100
0001
0010
0100
1000
0001
0100
0001
1000
0110
0001
,
1000
0010
1000
0100
0011
1000
0010
1000
0001
0010
0100
1000
0010
1000
0100
0010
,
0001
0100
0010
0100
0001
0010
1100
0001
0010
0001
1000
0100
0011
1000
0100
1000
,
0010
0100
0001
0010
0001
0100
0011
1000
0110
0001
0100
0010
1000
0010
0100
0001
,
0010
0100
1000
0100
0011
0000
0100
0000
1000
0000
0010
0000
0100
0000
0010
0000
,
1000
0001
1000
0010
0100
1000
0001
0010
,
0100
0010
1000
0100
0010
0001
0010
0100
,
0010
1000
0001
0100
0001
0010
0100
1000
,
0100
1000
0010
0100
1000
0001
0010
0100
,
1000
0001
0100
0001
0220
0000
0000
0000
,
0000
0000
0000
0330
1001
0000
1001
1001
1001
0000
1001
0000
0100
0010
0100
1000
,
0002
0003
1100
0000
1100
1100
1100
0000
1100
0000
0010
0100
0001
0100
0011
0000
,
1010
0000
0110
0000
1001
0000
0101
0000
0101
0101
0101
0000
0101
0000
1010
0110
,
0000
0000
0000
1100
0000
0000
0110
0000
0000
0000
0000
0000
1001
0000
0000
0000
0000
0000
0110
0000
0001
0000
1000
0000
0010
0000
1000
0000
0100
0000
0010
0000
0100
0000
1000
0000
0001
0000
0100
0000
0010
0000
0100
0000
0000
0001
0000
0000
,
1000
0010
1000
0100
0010
0001
0110
1000
0001
0100
0001
1000
0010
0100
1010
0001
,
0010
0100
1001
0010
0100
0010
0001
1000
0010
1000
0110
0001
1010
0100
1001
0010
,
0100
0010
0101
1000
0110
1000
0011
0100
1010
0001
1010
0100
0011
1000
0110
0001
,
1010
0100
0011
1000
0101
0010
1100
0001
0010
0100
1000
0010
0100
0001
1100
0010
,
0001
1000
0011
0100
1000
0010
0101
1000
0010
0100
0011
1000
0100
0010
1001
0010
,
0100
1000
0010
0100
0001
0010
1100
0001
0100
0010
2200
0000
0000
0000
0000
3300
,
0220
0000
0000
0000
0000
0000
0000
0000
0000
0330
0000
0000
1002
0000
0000
0000
0000
0000
0010
0000
0000
0100
0000
0000
1000
0000
0000
0010
0000
0000
0100
0000
0000
0013
0000
0000
0200
0000
0000
0000
0000
0000
2300
0000
0000
0000
0000
3000
,
0011
0000
0000
0000
0110
0000
0101
0000
0000
0000
1000
0010
1000
0100
0010
0100
,
1000
0001
0100
0010
0100
0001
1010
0100
0011
0100
1000
0010
0100
0001
0100
0010
,
1000
0100
0010
0001
0100
0010
0100
0001
0010
0001
2000
0000
3020
0000
0230
0000
,
0302
0000
0023
0100
1030
0001
0100
0001
1000
0010
1000
0100
0010
0001
1000
0010
,
1000
0100
0020
0000
2030
0000
3200
0000
0320
0000
0001
1000
0001
1000
0032
0000
,
0203
0000
0320
0000
2030
0000
0001
0100
0001
0100
3002
0000
0010
0100
0010
0103
,
1010
0000
0000
0000
0110
0000
1100
0000
0000
0000
1010
0001
1100
0010
0100
0001
,
0010
0100
1010
0001
0100
0001
0010
0100
1001
0010
0100
0010
0001
0100
0011
0100
,
1000
0110
0001
1000
0010
1000
0100
0010
0001
1000
0020
0000
0230
0000
0320
0000
,
1030
0100
0010
0100
1001
0010
1100
0001
0010
0100
1001
0010
1100
0010
0101
1000
,
0010
0000
0000
0100
0000
0000
0012
0000
0000
0000
0000
0000
2003
0000
0000
0000
0000
0000
3200
0000
0000
0000
0000
0300
0011
0000
0000
0110
0000
0000
1001
0000
0000
0100
0000
0000
0010
0000
0000
0001
0000
0000
0100
0000
0000
0010
0000
0000
,
1000
0010
0100
0001
0110
1000
0001
1000
0010
0100
1010
0001
0010
0100
1000
0001
,
1100
0000
0000
0000
0101
0000
1001
0000
0000
0000
0000
0000
1001
0100
0010
0001
,
0100
0000
0000
0010
0000
0000
2000
0000
0000
0000
0000
0000
3200
0000
0000
0000
0000
0000
0320
0000
0000
0000
0000
0030
1001
0000
0000
0010
0000
0000
0100
0000
0000
1000
0000
0000
0010
0000
0000
0100
0000
0000
0011
0000
0000
0100
0000
0000
,
1000
0000
0000
0001
0000
0000
0010
0000
0000
0001
0000
0000
1000
0000
0000
0001
0000
0000
0010
0000
0000
0100
0000
0000
0010
0000
0000
0001
0000
0000
0200
0000
0000
0000
0000
0000
0302
0000
0000
0000
0000
0000
2003
0000
0000
0000
0000
3000
,
0101
0010
0001
1000
0010
0100
0001
0010
0001
1000
0010
1000
0100
0010
0100
1000
,
0001
0000
0000
0100
0000
0000
0020
0000
0000
0000
0000
0000
2030
0000
0000
0000
0000
0000
3002
0000
0000
0000
0000
0003
1010
0000
0000
0100
0000
0000
0010
0000
0000
0001
0000
0000
0100
0000
0000
0010
0000
0000
1000
0000
0000
0100
0000
0000
,
2020
3030
0202
0303
0120
0000
1000
0001
1000
0031
2200
0000
0000
0000
0000
3300
,
0011
0000
0000
0000
0101
0000
0011
0000
0000
0000
0110
0000
1100
0001
0010
0100
,
1000
0010
0101
0010
1000
0100
0010
0100
1001
0010
0100
0010
0100
0001
0010
0100
,
0010
0000
0000
0001
0000
0000
1000
0000
0000
0100
0000
0000
1000
0000
0000
0001
0000
0000
0100
0000
0000
0001
0000
0000
0010
0000
0000
0100
0000
0000
2000
0000
0000
0000
0000
0000
3200
0000
0000
0000
0000
0000
2300
0000
0000
0000
0000
3000
,
0011
0100
1000
0010
1100
0001
0110
1000
0001
1000
0100
0010
1100
0010
0101
0010
,
0100
1000
0001
0100
0001
1000
0010
1000
0110
0001
1000
0001
0100
0010
1000
0010
,
0100
0001
0110
1000
0101
0010
0001
1000
0010
0100
0011
1000
0100
0010
0100
1000
,
0110
0000
1100
0011
1100
0011
1100
0000
0011
1100
0011
1100
0022
0033
0110
1001
,
0110
1001
0110
0000
1001
0110
2002
3003
0220
0330
1010
0101
1010
0101
1010
0000
,
0101
0000
0000
1010
0000
0000
0101
0000
0000
1010
0000
0000
0101
0000
0000
0000
0000
0000
1010
0000
0000
0101
0000
0000
1010
0000
0000
0101
0000
0000
2010
0000
0000
0000
0000
0000
3200
0000
0000
0000
0000
0000
0320
0000
0000
0000
0000
0030
,
2200
3300
1001
0110
1001
0110
1001
0000
0110
1001
0110
1001
0220
0330
1010
0101
,
1010
0101
1010
0000
0101
1010
0202
0303
2020
3030
0011
1100
0011
1100
0011
0000
,
1100
0000
0011
0000
1100
0000
0011
0000
1100
0000
0000
0000
0011
0000
1100
0000
0011
0000
1100
0000
0012
0000
0000
0000
2003
0000
0000
0000
3002
0000
0000
0003
,
2002
0000
0000
0000
,
0000
0000
0000
0000
,
0000
0000
0000
0000
,
0000
0000
0000
0000
0000
0000
0000
3003
0000
0000
0000
0000
0000
0000
0000
0000
;
