#TITLE:Speedy Cat;
#SUBTITLE:;
#ARTIST:Y&Co;
#TITLETRANSLIT:;
#SUBTITLETRANSLIT:;
#ARTISTTRANSLIT:;
#CREDIT:;
#BANNER:Speedy Cat-BN.jpg;
#BACKGROUND:Speedy Cat-BG.jpg;
#LYRICSPATH:;
#CDTITLE:!cattitle.png;
#MUSIC:Speedy Cat.mp3;
#OFFSET:-0.552;
#SAMPLESTART:50.000;
#SAMPLELENGTH:19.000;
#SELECTABLE:YES;
#BPMS:0.000=155.000;
#STOPS:;
#BGCHANGES:;
// cache tags:
#FIRSTBEAT:0.000;
#LASTBEAT:291.000;
#SONGFILENAME:Songs/Community Keyboard Megapack - Volume 3/(Cat[S]) Speedy Cat/SpeedyCat.sm;
#HASMUSIC:1;
#HASBANNER:1;
#MUSICLENGTH:116.070;
// end cache tags

//---------------dance-single - cat*----------------
#NOTES:
     dance-single:
     cat*:
     Hard:
     11:
     1.000,0.972,1.000,0.103,0.887,709.000,155.000,12.000,0.000,0.000:
1010
0000
0000
0101
0000
0000
0101
0000
,
0000
1001
0000
0000
0110
0000
0101
0000
,
1001
0000
0000
1010
0000
0000
1001
0000
,
0000
0000
0110
0000
0000
0000
0000
0000
0101
0000
0100
0010
0001
0000
0010
0100
,
1001
0010
1010
0100
0101
0010
1010
0100
,
1001
0010
0110
0010
0101
0010
1100
0100
,
0011
0010
1010
0100
0101
0010
0011
0110
,
0000
0000
0000
0000
0000
0000
0000
0000
0000
0000
0001
0000
0010
0000
0100
1000
,
0001
0100
0010
1000
0010
0100
0001
0010
0100
1000
0010
0100
0001
0000
1000
0010
,
0100
0001
0010
0100
1000
0010
0100
0001
1000
0100
0010
0001
0200
0000
0000
0300
,
1000
0010
0100
0001
0001
0010
0100
1000
0010
0100
0001
0100
0010
1000
0010
0100
,
0001
0100
0100
0010
0010
1000
1000
0100
0100
0010
0000
0010
0002
0000
0000
0003
,
1000
0010
0100
0001
1000
0001
0100
0010
1000
0001
0010
0100
1000
0000
1000
0010
,
0100
0001
0100
0010
1000
0100
0010
0001
1000
0001
0010
0100
2000
0000
0000
3000
,
0001
0100
0010
1000
1000
0010
0100
0001
0010
0100
1000
0010
0100
0001
0010
0100
,
1000
0100
0100
0010
0010
0001
0001
0100
0100
0010
0000
0010
0200
0000
0000
0300
,
1010
0100
0001
0010
1010
0100
0001
0010
,
1010
0001
0100
1000
0101
0001
0100
1000
,
0101
0100
0001
0010
1010
0100
0001
0010
,
1010
0000
0001
0000
0100
0000
1000
0000
0101
0000
0001
0000
0010
0000
0100
0010
,
1001
0100
0001
1000
1100
0100
0001
1000
,
1100
0001
0100
0010
0011
0001
0100
0010
,
0011
0100
0001
1000
1100
0100
0001
1000
,
1100
0000
0000
0000
1010
0000
0101
0000
0000
0000
0101
0000
1010
0000
0100
0010
,
1001
0100
0101
0010
1010
0001
0110
1000
,
0011
1000
0101
0010
1010
0001
1001
0100
,
0011
0001
1010
0010
0101
0010
0110
0001
,
1100
0000
1000
0000
0110
0000
0010
0000
0101
0000
0100
0000
1010
0000
0100
0010
,
1001
1000
1010
0001
0110
0010
0101
0100
,
0011
0000
0100
0000
0101
0000
0010
0000
1000
0100
0000
0010
0001
0000
0001
1000
,
0110
1001
0110
1001
,
0110
0000
0000
0000
0000
0000
0000
0000
1001
0000
0000
0000
0110
0000
0000
0000
0000
0000
0000
0000
1000
0000
0010
0000
1000
0001
1000
0001
1000
0000
0001
0000
,
1001
0100
1010
0000
0101
0010
1010
0100
,
1001
0000
0000
0010
0100
0000
0010
0000
0101
0000
0010
0000
1010
0000
0001
0000
,
1001
0000
0100
0000
1010
0000
0100
0000
0101
0000
0010
0000
1010
0000
0000
0010
,
0100
0000
0010
0000
0101
0000
0100
0000
1010
0000
0010
1000
0100
0000
0001
0000
,
1001
0100
0110
0000
0110
0001
1010
0100
,
1001
0000
0000
0001
1000
0000
0010
0000
0011
0000
1000
0000
1100
0000
0001
0000
,
1100
1000
1001
0001
0101
0100
0101
0010
,
1001
0000
0000
1001
0000
0000
1001
0000
0000
0000
0001
0000
0100
0000
0010
1000
,
0001
0010
0100
1000
0010
0100
0001
1000
0010
0100
0001
0010
0100
0000
1000
0100
,
0010
0001
0100
0010
1000
0010
0100
0001
0010
0100
1000
0010
0200
0000
0000
0300
,
0001
0100
0010
1000
1000
0010
0100
0001
0010
0100
1000
0010
0100
0001
0010
0100
,
1000
0010
0010
0100
0100
0001
0001
0010
0010
0100
0000
0100
2000
0000
0000
3000
,
0001
0100
0010
1000
0010
0100
0001
0010
0100
1000
0010
0100
0001
0010
0100
0000
,
0010
0100
0001
1000
0100
0010
0001
0100
0010
1000
0100
0010
0002
0000
0000
0003
,
1000
0100
0010
0001
0001
0100
0010
1000
0010
0100
0001
0010
0100
1000
0010
0100
,
0001
0100
0100
0010
0010
1000
1000
0100
0100
0010
0000
0010
0002
0000
0000
0003
,
1100
0000
0010
0000
0101
0000
0100
0000
1001
0000
0100
0000
0110
0000
0001
0100
,
0011
0000
0100
0000
1010
0000
0100
0000
1001
0000
0010
0000
0110
0000
1000
0010
,
1100
0000
0010
0000
0101
0000
0100
0000
1001
0000
0010
0000
0110
0000
0001
0100
,
0011
0000
0100
1000
1010
0000
0100
0010
1001
0000
0001
1000
0110
0000
1000
0010
,
1100
0000
0010
0000
0110
0000
0100
0000
1001
0000
0010
0000
0101
0000
0100
0001
,
1010
0000
0100
0000
0110
0000
0010
0000
1000
0100
0000
0010
0001
0000
0100
0010
,
1001
0110
1001
0110
,
1001
0000
0000
0000
0000
0000
0000
0000
0110
0000
0000
0000
1001
0000
0000
0000
0000
0000
0000
0000
1000
0000
0001
0000
1000
0001
1000
0001
1000
0000
0001
0000
,
1001
0100
1100
0000
1001
0010
0011
0100
,
1001
0000
0000
0010
0100
0000
0001
0000
1100
0000
0100
0000
0011
0000
0010
0000
,
1001
0000
0010
0000
0011
0000
0100
0000
1100
0000
0010
0000
0011
0000
0000
0100
,
0010
0000
1000
0000
0011
0000
0010
0000
1100
0000
0100
0010
1000
0000
0010
0000
,
1001
0100
1100
0000
0011
0010
1100
0100
,
1001
0000
0000
0010
0100
0000
0001
0000
1100
0000
0100
0000
0011
0000
0010
0000
,
1001
0010
1100
0100
0011
0010
1100
0010
,
1001
0000
0000
1001
0000
0000
1001
0000
0000
0000
1000
0000
0001
0000
0100
0010
,
1000
0010
0100
0001
0100
0010
1000
0100
0010
0001
0100
0010
1000
0010
0100
0001
,
0010
0100
1000
0010
0100
0001
0100
0010
1000
0010
0100
0001
0020
0000
0000
0030
,
0001
0100
0010
1000
1000
0010
0100
0001
0010
0100
1000
0010
0100
0001
0010
0100
,
1000
0100
0100
0010
0010
0001
0001
0100
0100
0010
0000
0010
2000
0000
0000
3000
,
1000
0010
0100
0001
0010
0100
1000
0010
0100
0001
0100
0010
1000
0100
0010
0001
,
0100
0010
1000
0010
0100
0001
0010
0100
1000
0010
0100
0001
0020
0000
0000
0030
,
0001
0100
0010
1000
1000
0010
0100
0001
0010
0100
1000
0010
0100
0001
0010
0100
,
1000
0010
0010
0100
0100
0001
0001
0100
0100
0010
0000
0010
2000
0000
0000
0000
,
0000
0000
0000
3000
;
