#TITLE:Starmine;
#SUBTITLE:;
#ARTIST:Ryu;
#TITLETRANSLIT:;
#SUBTITLETRANSLIT:;
#ARTISTTRANSLIT:;
#CREDIT:;
#BANNER:starmine.png;
#BACKGROUND:starmine-bg.png;
#LYRICSPATH:;
#CDTITLE:CDTITLE.jpg;
#MUSIC:03-ryu-starmine-pyt.mp3;
#OFFSET:-0.160;
#SAMPLESTART:33.127;
#SAMPLELENGTH:12.000;
#SELECTABLE:YES;
#BPMS:0.000=182.000;
#STOPS:;
#BGCHANGES:;
// cache tags:
#FIRSTBEAT:4.000;
#LASTBEAT:308.000;
#SONGFILENAME:Songs/Definitive Keyboard Megapack/Starmine - Ryu(Leone510)/03-ryu-starmine-pyt.sm;
#HASMUSIC:1;
#HASBANNER:1;
#MUSICLENGTH:106.448;
// end cache tags

//---------------dance-single - ----------------
#NOTES:
     dance-single:
     :
     Hard:
     12:
     1.000,1.000,0.319,0.000,1.000,838.000,34.000,0.000,0.000,0.000:
0000
0000
0000
0000
,
1000
0001
1000
0001
,
1000
0000
0001
0000
1000
0000
0001
0001
,
1000
0000
0010
0100
1001
0000
0100
0000
0101
0000
0100
0010
0100
0000
0010
0100
,
1001
0000
0001
0000
0001
0010
1000
0000
1000
0100
0010
0001
0010
0100
0001
1000
,
0001
0100
0010
0001
0010
0100
1000
0100
0010
0001
0010
0100
0001
1000
0001
0100
,
0010
0001
0010
0100
1000
0100
0010
0001
0100
0010
1000
0010
1000
0100
0010
0001
,
1000
0010
0100
0010
1000
0010
0001
0010
0100
1000
0100
0010
0001
0010
0100
1000
,
0010
0100
0010
1000
0100
0010
0001
0010
0100
1000
0010
0100
0010
0001
0100
0000
,
0000
0000
0010
0000
0000
0100
0000
0000
1000
0000
0000
0100
0000
0000
0010
0000
,
0000
0000
0001
0000
0000
0010
0000
0000
0100
0000
0000
1000
0000
0000
0100
0000
,
0000
0000
0010
0000
0000
0001
0000
0000
0010
0000
0000
0100
0000
0000
1000
0000
,
0000
0000
0100
0000
0000
0010
0000
0000
0001
0000
0000
0010
0000
0000
0010
0000
,
0100
0000
0010
0000
0000
1000
0000
0000
0100
0000
0000
0010
0000
0000
0001
0000
,
0000
0000
0010
0000
0000
0100
0000
0000
1000
0000
0000
0100
0000
0000
0010
0000
,
0000
0000
0001
0000
0000
0010
0000
0000
0100
0000
0000
1000
0000
0000
0100
0000
,
0000
0010
0000
0001
0010
1000
0100
0010
,
0001
0010
1000
0000
0100
0000
0010
0000
0001
0010
1000
0000
0010
0000
0100
0000
,
0001
0010
1000
0000
1000
0000
0010
0000
0001
0010
1000
0000
0100
0000
0001
0000
,
0001
0010
1000
0000
0100
0000
0010
0000
0001
0010
1000
0000
0100
0000
0010
0000
,
0000
0100
0000
0100
0010
0001
0010
1000
,
0001
0010
1000
0001
0100
0000
0010
0000
0001
0010
1000
0100
0010
0000
0100
0000
,
0001
0010
1000
0001
1000
0000
0010
0000
0001
0010
1000
0010
0100
0000
0001
0000
,
1010
0000
0110
0000
1001
0000
0101
1010
,
0000
0110
0000
0100
0010
0001
0010
1000
,
1000
0100
0010
0001
0010
0100
0001
1000
0001
0100
0010
0001
0010
0100
1000
0100
,
0010
0001
0010
0100
0001
1000
0001
0100
0010
0001
0010
0100
1000
0100
0010
0001
,
0100
0010
1000
0010
1000
0100
0010
0001
1000
0010
0100
0010
1000
0010
0001
0010
,
0100
1000
0100
0010
0001
0010
0100
1000
0010
0100
0010
1000
0100
0010
0001
0010
,
1000
0100
0010
0001
0010
0100
0001
1000
0001
0100
0010
0001
0010
0100
1000
0100
,
0010
0001
0010
0100
0001
1000
0001
0100
0010
0001
0010
0100
1000
0100
0010
0001
,
0100
0010
1000
0010
1000
0100
0010
0001
1000
0010
0100
0010
1000
0010
0001
0010
,
0100
1000
0100
0010
0001
0010
0100
1000
0010
0100
0010
1000
0100
0010
0001
0010
,
1000
0100
0010
0001
0010
0100
0001
1000
0001
0100
0010
0001
0010
0100
1000
0100
,
0010
0001
0010
0100
0001
1000
0001
0100
0010
0001
0010
0100
1000
0100
0010
0001
,
0100
0010
1000
0010
1000
0100
0010
0001
1000
0010
0100
0010
1000
0010
0001
0010
,
0100
1000
0100
0010
0001
0010
0100
1000
0010
0100
0010
1000
0100
0010
0001
0010
,
1000
0000
0001
0000
1000
0000
0101
1001
,
0000
0110
0000
1100
0011
0000
0110
0000
,
0101
0000
1010
0000
0101
0000
0101
1001
,
0000
0101
0000
0100
1000
0100
0010
0001
,
1010
0000
0100
0001
0010
0000
0001
0000
0010
0000
0100
0010
1000
0001
0100
0010
,
0100
0000
1000
0000
0001
0000
0100
0010
1000
0000
0010
0001
0010
0100
0010
1000
,
0100
0000
0001
0000
0010
0000
0100
1000
0010
0000
0001
0010
0100
1000
0010
1000
,
0100
0010
0001
0010
0100
1000
0100
0010
0001
0010
0100
1000
0100
0010
0001
0000
,
1000
0000
1000
0000
0001
0100
0001
0000
0100
0000
0100
0010
0000
0010
0100
1000
,
0010
0000
0010
0000
0100
0010
1000
0000
0010
0000
0010
0001
0000
0001
1000
0001
,
0100
0000
0100
0000
1000
0001
1000
0000
0010
0000
0001
1000
0000
0001
1000
0100
,
0001
0000
0001
0000
0001
0000
0001
0000
0001
0010
0001
0100
0001
1000
0001
1000
,
0010
0000
0010
0000
0100
1000
0100
0000
0010
0000
0010
0100
0000
0100
1000
0100
,
0001
0000
0001
0000
0001
1000
0001
0000
0010
0000
0100
1000
0000
0100
0001
0100
,
1000
0000
1000
0000
0100
0010
0001
0000
0010
0000
0100
0010
0000
0010
0100
0010
,
1000
0100
0010
0001
0010
0100
1000
0001
1000
0001
0010
0100
1000
0100
0010
0001
,
1000
0000
0000
0000
0000
1000
0000
0000
0000
0000
1000
0000
0001
0000
0000
0000
,
1000
0000
0000
0000
0000
1000
0000
0000
0000
0000
1000
0000
0001
0000
0001
0000
,
0000
0000
0000
0010
0000
0000
0000
0000
,
1000
0000
0000
0000
1000
0000
0000
0000
1000
0000
0000
0001
1000
0000
0001
0000
,
1000
0100
0010
0001
0010
0100
0010
0001
1000
0100
0010
0001
0010
0100
0010
0001
,
1000
0100
0010
0001
0010
0100
0010
0001
1000
0100
0010
0001
0010
0100
0010
0001
,
1010
0000
0101
0000
1001
0000
0101
1010
,
0000
0110
0000
0100
0100
0001
1000
0010
,
1000
0100
0010
0001
0010
0100
0001
1000
0001
0100
0010
0001
0010
0100
1000
0100
,
0010
0001
0010
0100
0001
1000
0001
0100
0010
0001
0010
0100
1000
0100
0010
0001
,
0100
0010
1000
0010
1000
0100
0010
0001
1000
0010
0100
0010
1000
0010
0001
0010
,
0100
1000
0100
0010
0001
0010
0100
1000
0010
0100
0010
1000
0100
0010
0001
0010
,
1000
0100
0010
0001
0010
0100
0001
1000
0001
0100
0010
0001
0010
0100
1000
0100
,
0010
0001
0010
0100
0001
1000
0001
0100
0010
0001
0010
0100
1000
0100
0010
0001
,
0100
0010
1000
0010
1000
0100
0010
0001
1000
0010
0100
0010
1000
0010
0001
0010
,
0100
1000
0100
0010
0001
0010
0100
1000
0010
0100
0010
1000
0100
0010
0001
0010
,
1000
0100
0010
0001
0010
0100
0001
1000
0001
0100
0010
0001
0010
0100
1000
0100
,
0010
0001
0010
0100
0001
1000
0001
0100
0010
0001
0010
0100
1000
0100
0010
0001
,
0100
0010
1000
0010
1000
0100
0010
0001
1000
0010
0100
0010
1000
0010
0001
0010
,
0100
1000
0100
0010
0001
0010
0100
1000
0010
0100
0010
1000
0100
0010
0001
0010
,
1000
0000
0001
0000
1000
0000
0001
1000
,
0000
0001
0000
0001
1000
0000
1000
0000
,
1010
0000
0101
0000
1001
0000
1010
0101
,
0000
0110
0000
0100
0010
0001
0010
1000
,
0100
0000
0000
0000
;

//---------------dance-single - Copied from----------------
#NOTES:
     dance-single:
     Copied from:
     Challenge:
     14:
     1.000,1.000,1.000,0.000,1.000,848.000,240.000,0.000,0.000,0.000:
0000
0000
0000
0000
,
1010
0101
1001
0101
,
1010
0000
0101
0000
1010
0000
1001
0011
,
1100
0000
0010
0100
1001
0000
0100
0000
0101
0000
0100
0010
1100
0000
0010
0100
,
1001
0000
0001
0000
0101
0010
1000
0000
1000
0100
0010
0001
0010
0100
0001
1000
,
0011
0100
0010
0001
1010
0100
1000
0100
1010
0001
0010
0100
0011
1000
0001
0100
,
1010
0001
0010
0100
1010
0100
0010
0001
1100
0010
1000
0010
1001
0100
0010
0001
,
1100
0010
0100
0010
1001
0010
0001
0010
0101
1000
0100
0010
0101
0010
0100
1000
,
0011
0100
0010
1000
0101
0010
0001
0010
0101
1000
0010
0100
1010
0001
0100
0001
,
1000
0000
0010
0000
0000
0100
0000
0000
1000
0000
0000
0100
0000
0000
0010
0000
,
0000
0000
0001
0000
0000
0010
0000
0000
0100
0000
0000
1000
0000
0000
0100
0000
,
0000
0000
0010
0000
0000
0001
0000
0000
0010
0000
0000
0100
0000
0000
1000
0000
,
0000
0000
0100
0000
0000
0010
0000
0000
0001
0000
0000
0010
0000
0000
0010
0000
,
0100
0000
0010
0000
0000
1000
0000
0000
0100
0000
0000
0010
0000
0000
0001
0000
,
0000
0000
0010
0000
0000
0100
0000
0000
1000
0000
0000
0100
0000
0000
0010
0000
,
0000
0000
0001
0000
0000
0010
0000
0000
0100
0000
0000
1000
0000
0000
0100
0000
,
0000
0010
0000
0001
0010
1000
0100
0010
,
0101
0010
1000
0000
0101
0000
1010
0000
1001
0010
1000
0000
0011
0000
0110
0000
,
0101
0010
1000
0000
1001
0000
0110
0000
0101
0010
1000
0000
1100
0000
0011
0000
,
0101
0010
1000
0000
0101
0000
0110
0000
1001
0010
1000
0000
0101
0000
1010
0000
,
0001
0100
0000
0100
0010
0001
0010
1000
,
0101
0010
1000
0001
0110
1000
0010
1000
0101
0010
1000
0100
1010
0001
0100
1000
,
0101
0010
1000
0001
1010
0100
0010
0100
1001
0010
1000
0010
0101
0010
0001
0000
,
1010
0000
0110
0000
1001
0000
0101
1010
,
0000
0110
0000
0100
0010
0001
0010
1000
,
1001
0100
0010
0001
1010
0100
0001
1000
0011
0100
0010
0001
1010
0100
1000
0100
,
1010
0001
0010
0100
0011
1000
0001
0100
1010
0001
0010
0100
1001
0100
0010
0001
,
1100
0010
1000
0010
1001
0100
0010
0001
1100
0010
0100
0010
1001
0010
0001
0010
,
0101
1000
0100
0010
1001
0010
0100
1000
0011
0100
0010
1000
0101
0010
0001
0010
,
1001
0100
0010
0001
1010
0100
0001
1000
0011
0100
0010
0001
1010
0100
1000
0100
,
1010
0001
0010
0100
0011
1000
0001
0100
1010
0001
0010
0100
1001
0100
0010
0001
,
1100
0010
1000
0010
1001
0100
0010
0001
1100
0010
0100
0010
1001
0010
0001
0010
,
0101
1000
0100
0010
1001
0010
0100
1000
0011
0100
0010
1000
0101
0010
0001
0010
,
1001
0100
0010
0001
1010
0100
0001
1000
0011
0100
0010
0001
1010
0100
1000
0100
,
1010
0001
0010
0100
0011
1000
0001
0100
1010
0001
0010
0100
1001
0100
0010
0001
,
1100
0010
1000
0010
1001
0100
0010
0001
1100
0010
0100
0010
1001
0010
0001
0010
,
0101
1000
0100
0010
1001
0010
0100
1000
0011
0100
0010
1000
0101
0010
0001
0010
,
1000
0000
0001
0000
1000
0000
0101
1001
,
0000
0110
0000
1100
0011
0000
0110
0000
,
0101
0000
1010
0000
0101
0000
0101
1001
,
0000
0101
0000
0100
1000
0100
0010
0001
,
1010
0000
0100
0001
1010
0000
0011
0000
1010
0000
0100
0010
1100
0001
0100
0010
,
0101
0000
1001
0000
0011
0000
0100
0010
1001
0000
0010
0001
1010
0100
0010
1000
,
0110
0000
0101
0000
1010
0000
0100
1000
0011
0000
0001
0010
0101
1000
0010
1000
,
0100
0010
0001
0010
0100
1000
0100
0010
0001
0010
0100
1000
0100
0010
0001
0000
,
1100
0000
1000
0000
0001
0100
0001
0000
0110
0000
0101
0010
0000
1010
0100
1000
,
0011
0000
0010
0000
0100
0010
1000
0000
1010
0000
0110
0001
0000
0101
1000
0001
,
0110
0000
0100
0000
1000
0001
1000
0000
0011
0000
0101
1000
0000
0011
1000
0100
,
1001
0000
0101
0000
0011
0000
0011
0000
1001
0010
0001
0100
0011
1000
0001
1000
,
0011
0000
0010
0000
0100
1000
0100
0000
1010
0000
0011
0100
0000
0101
1000
0100
,
0011
0000
0001
0000
0001
1000
0001
0000
1010
0000
0101
1000
0000
0110
0001
0100
,
1001
0000
1000
0000
0100
0010
0001
0000
1010
0000
1100
0010
0000
0011
0100
0010
,
1000
0100
0010
0001
0010
0100
1000
0001
1000
0001
0010
0100
1000
0100
0010
0001
,
1100
0000
0000
0000
0000
1100
0000
0000
0000
0000
1000
0000
0001
0000
0000
0000
,
1100
0000
0000
0000
0000
1100
0000
0000
0000
0000
1000
0000
0011
0000
0101
0000
,
0000
0000
0000
0110
0000
0000
0000
0000
,
1100
0000
0000
0000
1100
0000
0000
0000
1100
0000
0000
0001
1010
0000
0101
0000
,
1000
0100
0010
0001
0010
0100
0010
0001
1000
0100
0010
0001
0010
0100
0010
0001
,
1000
0100
0010
0001
0010
0100
0010
0001
1000
0100
0010
0001
0010
0100
0010
0001
,
1010
0000
0101
0000
1001
0000
0101
1010
,
0000
0110
0000
0100
0100
0001
1000
0010
,
1001
0100
0010
0001
1010
0100
0001
1000
0011
0100
0010
0001
1010
0100
1000
0100
,
1010
0001
0010
0100
0011
1000
0001
0100
1010
0001
0010
0100
1001
0100
0010
0001
,
1100
0010
1000
0010
1001
0100
0010
0001
1100
0010
0100
0010
1001
0010
0001
0010
,
0101
1000
0100
0010
1001
0010
0100
1000
0011
0100
0010
1000
0101
0010
0001
0010
,
1001
0100
0010
0001
1010
0100
0001
1000
0011
0100
0010
0001
1010
0100
1000
0100
,
1010
0001
0010
0100
0011
1000
0001
0100
1010
0001
0010
0100
1001
0100
0010
0001
,
1100
0010
1000
0010
1001
0100
0010
0001
1100
0010
0100
0010
1001
0010
0001
0010
,
0101
1000
0100
0010
1001
0010
0100
1000
0011
0100
0010
1000
0101
0010
0001
0010
,
1001
0100
0010
0001
1010
0100
0001
1000
0011
0100
0010
0001
1010
0100
1000
0100
,
1010
0001
0010
0100
0011
1000
0001
0100
1010
0001
0010
0100
1001
0100
0010
0001
,
1100
0010
1000
0010
1001
0100
0010
0001
1100
0010
0100
0010
1001
0010
0001
0010
,
0101
1000
0100
0010
1001
0010
0100
1000
0011
0100
0010
1000
0101
0010
0001
0010
,
1000
0000
0001
0000
1000
0000
0001
1000
,
0000
0001
0000
0001
1000
0000
1000
0000
,
1010
0000
0101
0000
1001
0000
1010
0101
,
0000
0110
0000
0100
0010
0001
0010
1000
,
0100
0000
0000
0000
;
