#TITLE:digital forest slow out door mixx;
#SUBTITLE:-;
#ARTIST:dj rlc;
#TITLETRANSLIT:;
#SUBTITLETRANSLIT:;
#ARTISTTRANSLIT:;
#CREDIT:;
#BANNER:Sonic Ice Cap Zone Banner.png;
#BACKGROUND:Sonic Ice Cap Zone BG.png;
#LYRICSPATH:;
#CDTITLE:Title.png;
#MUSIC:digital forest slow mix.mp3;
#OFFSET:0.000;
#SAMPLESTART:54.960;
#SAMPLELENGTH:13.500;
#SELECTABLE:YES;
#BPMS:0.000=100.000;
#STOPS:;
#BGCHANGES:;
// cache tags:
#FIRSTBEAT:0.000;
#LASTBEAT:359.375;
#SONGFILENAME:Songs/toune/digital forest slow outdoors mixx/Copy of sonic ice cap.sm;
#HASMUSIC:1;
#HASBANNER:1;
#MUSICLENGTH:215.335;
// end cache tags

//---------------dance-single - MANIAC----------------
#NOTES:
     dance-single:
     MANIAC:
     Hard:
     12:
     0.821,1.000,0.306,0.028,1.000,1165.000,66.000,6.000,0.000,1.000:

0001
1000
0000
0000
0100
1000
0000
0000
0000
1010
0000
0000
0000
1001
0000
0000
0000
1100
0000
0000
0000
1010
0000
0000
0000
1100
0000
0000
0000
1010
0000
0000
,
0000
1001
0000
0000
0100
1000
0000
0000
0010
1000
0000
0000
0100
1000
0000
0000
0010
1000
0000
0000
0001
0100
0000
0000
0001
0010
0000
0000
0101
0000
0000
0000
,
1010
0000
0000
0000
1100
0000
0000
0000
1010
0000
0000
0000
0001
0100
0000
0000
0010
1000
0000
0000
0100
1000
0000
0000
0010
1000
0000
0000
0001
1000
0000
0000
,
0010
1000
0000
0000
1000
0100
0000
0000
0000
1000
0000
0010
0000
0000
0000
0000
0000
1000
0000
0001
0000
0000
0000
0000
1000
0100
0000
0000
1000
0000
0000
0000
,
0010
0000
0000
0000
0000
0100
0000
0000
0001
0000
0000
0000
0010
0000
0000
0000
0100
0000
0000
0000
1000
0000
0000
0000
0010
0000
0000
0000
1000
0000
0000
0000
,
0001
0100
0000
0000
0001
0000
0010
0000
0001
0000
0000
0000
0001
0100
0000
0000
1000
0000
0001
0000
0010
0000
0000
0000
0101
0000
0000
0000
0010
0000
0000
0000
,
0100
0000
0000
0000
1000
0000
0000
0000
0010
0000
0000
0000
0100
0000
0000
0000
0000
0010
0000
0000
1000
0000
0000
0000
0001
0000
0000
0000
1000
0000
0000
0000
,
1010
0000
0000
0000
1000
0000
0100
0000
1000
0000
0000
0000
0001
1000
0000
0000
1000
0000
0010
0000
1000
0000
0000
0000
1000
0100
0000
0000
1000
0000
0000
0000
,
0000
0010
0000
0000
1000
0000
0000
0000
0000
0001
0000
0000
1000
0000
0000
0000
0000
0100
0000
0000
1000
0000
0000
0000
0000
0010
0000
0000
0000
1000
0000
0000
,
0001
0010
0000
0000
0100
0000
0001
0000
0010
0000
0000
0000
0010
0001
0000
0000
1000
0000
0001
0000
0000
1000
0000
0000
0000
1010
0000
0000
0000
1000
0000
0000
,
0000
0100
0000
0000
0000
1000
1011
0000
0000
0000
0000
0000
0000
0000
0000
0000
0000
0000
0000
0000
1000
0000
0000
0000
0010
0000
0000
0000
1000
0000
0000
0000
,
0010
1000
0000
0000
0100
0000
0010
1000
0000
0001
0000
0000
0100
0010
1000
0001
0000
0000
0100
0010
1000
0000
0001
0100
0010
1000
0000
0001
0000
0000
0000
0000
,
1000
0000
0000
0100
0010
0000
0101
0000
0000
0001
0000
0010
0000
0001
0100
0001
0000
0000
0010
0000
0001
0000
0100
0001
0010
0000
0000
0000
0000
0000
0000
0000
,
1000
0000
0000
0000
0100
0000
0010
1000
0001
0000
0000
0000
0010
1000
0000
0001
0100
0000
0010
0000
0000
1000
0001
0100
0010
1000
0000
0000
0000
0000
0000
0000
,
1000
0000
0000
0100
0000
0010
0101
0000
0001
0000
0000
0010
0000
0001
0100
0001
0010
0000
0000
0001
0000
0010
0001
0010
0001
0000
0000
0000
0000
0000
0000
0000
,
1000
0100
0000
0000
0000
1010
0000
0000
0000
0001
0000
0000
0000
1100
0000
0000
0000
1010
0000
0000
0000
1000
0000
0000
0000
0010
0000
0000
1000
0000
0000
0000
,
0100
0010
0000
0100
0000
0010
0000
0100
0000
0010
0100
0000
0010
0000
0100
0000
0000
0010
0100
0000
0010
0000
0100
0000
0010
0000
0000
0000
0000
0000
0000
0000
,
1000
0000
0100
0000
1000
0000
0100
0000
1000
0000
0000
0100
1000
0000
0000
0100
1000
0000
0010
0000
1000
0000
0010
0000
1000
0000
0010
0000
1000
0000
0010
0000
,
0100
0000
0010
0000
0000
0100
0010
0000
0100
0000
0000
0000
0110
0000
0010
0000
0100
0000
0001
0000
0100
0000
0001
0000
0100
0000
0001
0000
0100
0000
0000
0000
,
1000
0001
0000
0000
1000
0000
0000
0000
0100
0000
0000
1000
0000
0100
0000
0000
0000
1100
0000
0000
0000
0000
0000
0000
0000
1100
0000
0000
0000
0000
0000
0000
,
0000
1100
0000
0000
0000
1000
0000
0000
0000
0001
0000
0010
0000
0001
0000
0000
0000
0101
0000
0000
0000
0000
0000
0000
0000
0101
0000
0000
0000
0000
0000
0000
,
0000
0101
0000
0000
0000
1000
0000
0000
0000
0010
0000
1000
0000
0100
0000
0000
0000
0011
0000
0000
0000
0000
0000
0000
0000
0011
0000
0000
0000
0000
0000
0000
,
0010
0001
0000
0100
0000
0010
1000
0000
0100
0000
1000
0000
0010
0000
0000
1000
0000
0001
0000
0100
0000
0001
0000
0010
0000
0001
0000
0100
0000
0001
0000
0010
,
0000
0100
0000
0000
1000
0000
0010
0000
0100
0000
0001
0000
1000
0000
0010
0000
0000
1000
0000
0001
0000
1000
0000
1000
0000
0001
0000
1000
0000
0001
0000
1000
,
0000
0001
0000
1000
0000
1000
0000
0001
0000
1000
0000
0001
0000
1000
0000
1000
0000
0001
0000
1000
0000
0001
0000
1000
0000
0001
0000
1000
0000
0001
0000
1000
,
0000
0001
0000
0001
0000
1000
0001
0000
0000
1000
0001
0000
0000
0001
0000
1000
0000
0001
0000
1000
0000
0001
0000
1000
0000
0001
0000
0001
1000
0000
0001
0000
,
0000
1000
0000
0001
0000
1000
0000
0001
0000
0001
0000
0001
0000
1000
0000
0001
0000
1000
0000
0001
0000
1000
0000
0001
0000
0001
1000
0000
0001
0000
1000
0000
,
0001
0000
1000
0000
0001
0000
0000
1000
0000
1000
0000
0001
0000
1000
0000
0001
0000
1000
0000
0001
0000
1000
0001
0000
0000
1000
1000
0000
0001
0000
1000
0000
,
0001
0000
1000
0000
0001
0000
0000
1000
0001
0000
1000
0000
1000
0000
0001
0000
1000
0000
0000
0001
0000
1000
0000
0001
0000
1000
0000
0001
0000
1000
0000
1000
,
0000
0001
0000
1000
0000
0001
0000
1000
0001
0000
0000
1000
0000
1000
0000
0001
0000
1000
0000
0001
0000
1000
0000
0001
0000
1000
1000
0000
0000
0001
1000
0000
,
0000
0001
0000
1000
0001
0000
0000
1000
1000
0000
0000
0001
0000
1000
0000
0001
0000
1000
0000
0001
0000
1000
0000
0001
0000
0001
0000
0001
0000
0001
0000
0001
,
0000
0000
1000
0000
0000
0000
0010
0000
0100
0000
0000
0001
0000
0010
0000
0000
0000
0100
0000
1000
0000
0000
0010
0000
0000
0100
0000
0000
0001
0000
0000
0000
,
0010
0000
0000
0000
0100
0000
0000
0000
1000
0000
0000
0000
0000
0010
0000
0000
0100
0000
0000
0000
0000
0001
0000
0000
1000
0000
0000
0000
0000
0000
0000
0000
,
2000
0010
0000
0000
0000
0100
0000
0000
0000
0010
0000
0000
0000
0001
0000
0000
0000
0100
0000
0000
0000
0010
0000
0000
0000
0001
0000
0000
0000
3000
0000
0000
,
0000
0012
0000
0000
0000
0100
0000
0000
0000
0010
0000
0000
0000
0100
0000
0000
0000
1000
0000
0000
0000
0100
0000
0000
0000
0010
0003
0000
0000
0000
0000
0000
,
0000
2010
0000
0000
0000
0100
0000
0000
0000
0010
0000
0000
0000
0001
0000
0000
0000
0010
0000
0000
0000
0001
0000
0000
0000
0010
0000
0000
0000
3000
0000
0000
,
0100
0020
0000
0000
0000
1000
0000
0000
0000
0100
0000
0000
0000
0001
0000
0000
0000
0100
0000
0000
0000
1000
0000
0000
0000
0100
0030
0000
0000
0000
0000
0000
,
0000
2100
0000
0000
0010
0000
0001
0000
0000
0010
0000
0001
0000
0000
0010
0001
0000
0000
0010
0000
0001
0000
0010
0000
0001
0000
0000
0010
0000
0001
3000
0000
,
0000
0100
0010
0000
0000
1000
0000
0010
0000
0100
0000
0010
0000
1000
0000
0100
0000
0010
0000
0001
0000
0100
0000
0001
0000
0010
0000
0001
0000
0000
0000
0000
,
0100
0000
0010
0000
1000
0000
0100
0000
0010
0000
0000
0100
0000
1000
0000
0100
0000
0010
0000
0100
0000
1000
0001
0000
0000
0100
0010
0000
0000
0000
0000
0000
,
0000
2000
0010
0000
0000
0100
0000
0000
0000
0001
0000
0000
0000
0100
0000
0000
0000
0010
0000
0000
0000
0100
0000
0000
0000
0001
0000
0000
0000
0100
3000
0000
,
0000
0010
0000
0001
0000
0100
0000
0001
0000
0010
0000
0001
0000
0000
0100
0000
0001
0010
0000
0000
0001
0000
0100
0000
0001
1000
0000
0000
0001
0000
1000
0000
,
0000
1000
0000
0010
0000
1000
0000
0000
0100
0000
1000
0000
0010
0000
1000
0000
0100
0000
1000
0010
0000
1000
0000
0100
0000
1000
0010
0000
1000
0000
0000
0000
,
0000
1000
0001
1000
0001
1000
0000
0001
1000
0001
1000
0000
0001
0000
1000
0000
0001
0000
1000
0000
0001
0000
1000
0000
0000
0001
0000
1000
0000
0000
0000
0000
,
0001
1000
0000
0000
0000
0110
0000
0000
0000
1010
0000
0000
0000
1010
0000
0000
0000
1001
0000
0000
0000
1100
0000
0000
0000
1010
0000
0000
0000
1001
0000
0000
,
1000
0001
0000
1001
0000
1000
0001
0000
1000
0000
0000
0010
0000
0000
0000
1000
0000
0000
0000
0000
0000
0100
0000
0000
0000
0010
0000
0000
0000
0001
0000
0000
,
0000
1000
0000
0001
0000
1000
0000
0001
0000
1000
0000
0001
0000
1000
0001
0000
1000
0000
0000
0001
1000
0000
0000
0000
0000
0100
0000
0000
0000
1000
0000
0000
,
0000
1000
0000
0001
1000
0001
1000
0001
1000
0001
1000
0000
0001
0000
0000
0000
1000
0000
0000
0000
0001
0000
0000
0000
1000
0000
0000
0000
0000
0001
0000
0000
,
0100
0000
0000
0010
0000
1000
0000
0100
0010
0000
0000
0001
0000
0100
0000
0001
0000
0010
0000
0001
0000
0100
0000
0001
0000
0010
0000
0001
0000
0100
0000
0000
,
0000
0010
0000
0100
0000
1000
0000
0010
0000
0100
0000
0010
0000
1000
0000
0010
0000
0100
0000
0010
0000
1000
0010
0000
0100
0000
0010
0000
0000
0000
0000
0000
,
0000
1000
0000
0000
0000
1000
0000
0000
0000
1000
0000
0000
0000
1000
0000
0000
0000
1000
0000
0000
0000
1000
0000
0000
0000
0000
1000
0000
0000
0000
0000
0000
,
0000
0001
0000
0000
0000
0001
0000
0000
0000
0001
0000
0000
0000
0001
0000
0000
0000
0001
0000
0000
0000
0001
0000
0000
0000
0001
0000
0000
0000
0000
0000
0000
,
0000
1100
0000
0000
0000
1000
0000
0000
1000
0000
0000
0000
0000
1000
0000
0000
0000
1000
0000
0000
0000
1000
0000
0000
0000
1000
0000
0000
0000
1000
0000
0000
,
0001
0000
0000
0000
0001
0000
0000
0000
0001
0000
0000
0000
0000
0001
0000
0000
0000
0001
0000
0000
0000
0001
0000
0000
0000
0001
0000
0000
0000
0001
0000
0000
,
0000
0100
0000
0000
0000
0010
0000
0000
0000
1000
0000
0000
0000
0100
0000
0000
0010
0000
0000
0000
0000
0001
0000
0000
0000
0100
0000
0000
0000
0001
0000
0000
,
0010
0000
0100
0000
1000
0010
0100
0000
0010
1000
0010
0100
0000
0010
1000
0000
0001
0000
0100
0000
0100
0000
0010
0000
0000
0001
0000
0000
0000
1000
0000
0000
,
0000
0001
1000
0000
0000
1000
0000
0010
0000
1000
0000
0010
0000
1000
0000
0000
0000
1001
0000
0000
0000
1000
0010
0000
0000
1000
0000
0010
0000
1000
0000
0000
,
0000
1001
0000
0000
0000
0010
0000
0100
0000
0010
0000
0100
0000
0010
0000
0000
0000
1001
0000
0000
0000
0010
0000
0100
0000
0010
0000
0100
0000
1000
0000
0000
,
0000
0001
0000
0000
0000
0100
0000
0000
0000
0010
0000
0000
0000
1000
0000
0000
0000
0100
0000
0000
0000
0010
0000
0000
0000
0001
0000
0000
0000
1000
0000
0000
,
0000
0010
1000
0000
0000
1000
0000
0001
0000
0000
0000
1000
0000
0010
0000
0000
0000
1000
0100
0000
0000
1000
0000
0010
0000
0000
0000
0000
1000
0001
0000
0000
,
0000
1000
0000
0000
0000
0100
0000
0000
0010
0000
0000
0000
0000
0001
0000
0000
0000
0100
0000
0000
0000
0001
0000
0000
0010
0000
0000
0000
0000
0001
0000
0000
,
0000
0101
0000
0000
0000
1000
0000
0001
0000
0000
0000
0000
0010
0001
0000
0000
0000
0100
0000
0001
0000
0000
1000
0000
0001
0000
0000
0000
0100
0000
0000
0000
,
0001
0010
0000
0000
0000
0110
0000
0000
0000
1100
0000
0000
0000
1010
0000
0000
0001
1000
0000
0000
0100
1000
0000
0000
0010
1000
0000
0000
0001
1000
0000
0000
,
0100
1000
0000
0000
1000
0000
0010
0000
0100
0000
0000
0000
0010
0001
0000
0000
0010
0000
0100
0000
1000
0000
0000
0000
0000
1010
0000
0000
0000
1000
0000
0000
,
0000
0100
0000
0000
0000
0010
0000
0000
0000
0001
0000
0000
0000
0100
0000
0000
0000
0010
0000
0000
0000
1000
0000
0000
0000
0100
0000
0000
0000
1000
0000
0000
,
0000
1000
0000
0010
0000
0100
0000
0001
0000
0010
0000
0100
0000
1000
0000
0010
0000
0100
0000
0001
0000
1000
0000
0010
0000
1000
0001
0000
1000
0000
0010
0000
,
1000
0000
0100
0000
0000
0010
0000
0001
0000
0100
0000
0001
0000
0010
0000
0001
0000
0100
0000
0000
0000
1001
0000
0000
0000
1000
0000
0000
0000
1000
0000
0000
,
0000
1010
0000
0000
0000
1000
0000
0100
0000
1000
0000
0000
0000
1000
0001
0000
0000
1000
0000
0010
0000
0100
0000
0000
0000
0100
0001
0000
0000
0000
0000
0000
,
0000
0010
0100
0000
0000
0010
0001
0000
0000
1000
0000
0000
0010
1000
0000
1000
0000
0100
0010
0001
0000
0100
0000
0010
0000
0100
0001
0000
0100
0010
0100
0000
,
0001
0100
0010
0000
0100
0001
0000
0100
0010
0000
0100
0001
0100
0000
0010
0000
0100
0001
0000
0100
0000
0010
0100
0000
0001
0000
0100
0000
0000
0000
0000
0000
,
0000
1000
0100
0000
1000
0000
0100
0000
1000
0000
0000
0100
0000
1000
0000
0100
0000
1000
0010
0000
0000
1000
0010
0000
1000
0000
0000
0010
1000
0000
0000
0010
,
0000
1000
0000
0001
0000
1000
0000
0001
0000
1000
0000
0001
1000
0000
0001
0000
1000
0000
0001
0000
1000
0000
0001
0000
1000
0000
0000
0000
0000
0000
0000
0000
,
1100
0000
0000
0000
1000
0000
0010
0000
0000
1000
0000
0001
0000
1000
0000
0001
0000
1000
0000
0000
1000
0001
0000
0000
1000
0001
0000
1000
0000
0001
0000
1000
,
0000
0001
0000
1000
0000
1000
0000
0000
0001
1000
0000
0001
0000
1000
0000
0001
0000
1000
0000
0001
0000
1000
0000
0001
0000
1000
0000
0001
0000
1000
0000
0001
,
0000
1000
0000
0100
0000
0010
0000
0010
0000
0001
0000
0100
0000
0100
0000
0010
0000
1000
0000
0100
0000
1000
0001
0000
0000
1000
0000
0100
0000
0010
0000
0001
,
0000
0010
0000
0010
0000
0001
0000
0100
0000
0100
0000
0100
0000
0010
0000
1000
0000
0100
0000
1000
0000
0001
0000
0100
0000
0010
0000
1000
0000
0100
0000
0010
,
0000
0001
0000
0100
0000
0001
0000
0010
0100
0000
0000
1000
0000
0010
0000
0100
0000
0010
0000
1000
0000
0010
0100
0000
0010
0000
1000
0000
0100
0000
0000
0010
,
0000
0001
0000
0100
0000
0001
0000
0010
0000
0001
0000
0100
0000
0001
0000
0010
0001
0000
0000
0100
0000
0010
0000
1000
0000
0100
0000
1000
0000
0010
0000
0100
,
0000
0010
0000
1000
0000
0010
0000
0100
0000
0001
0010
0000
0100
0000
0000
1000
0010
0000
0000
0100
0001
0000
0010
0000
0000
1000
0000
0010
0000
0100
0000
0001
,
0000
0010
0000
0100
0000
1000
0000
0010
0000
0100
0000
0001
0000
1000
0000
0010
0000
1000
0000
0010
0000
1000
0000
0010
0000
1000
0000
0010
0000
1000
0010
0000
,
0000
1000
0000
0100
0000
0010
0001
0000
0000
0100
0010
0000
0100
0000
0001
0000
0010
0000
0100
0000
0000
1000
0010
0000
0000
0100
0010
0000
0000
1000
0010
0000
,
0000
1000
0000
0100
0000
0010
0000
0001
0000
0100
0000
0001
0000
0010
0000
0001
0000
0100
0000
0010
0000
0100
0000
0001
0000
0100
0000
0010
0000
0100
0000
0001
,
0000
0000
0100
0000
0001
0000
0000
0010
0000
0001
0000
0000
0000
0010
0000
0001
0000
0010
0000
0001
0000
0000
1000
0000
0010
0000
0000
0000
1000
0000
0100
0000
,
0010
0000
0000
0001
0000
0000
0100
0000
0000
0010
0000
0000
0000
1000
0000
0100
0000
1000
0000
0010
0000
0000
0000
1000
0000
0100
0000
0000
0000
1000
0000
1000
,
0000
1000
0000
0000
0000
1000
0000
1000
0000
0000
0000
0000
1000
0000
1000
0000
0000
1000
0000
0000
0000
1000
0000
1000
0000
0000
0000
0000
0000
0001
0000
0001
,
0000
0001
0000
0000
0000
0001
0000
0001
0000
0000
0000
0000
0001
0000
0001
0000
0001
0000
0000
0000
0000
0001
0000
0001
0000
0000
0000
0000
0101
0000
0100
0001
,
0001
0100
0000
0000
0001
0100
0001
0100
0000
0000
0000
0100
0001
0100
0001
0000
0000
0101
0000
0101
0000
0000
0000
0101
0000
0101
0000
0000
0000
0101
0100
0001
,
0000
1010
0000
1010
0000
0000
0000
1010
0000
1010
0000
0000
1000
0010
0000
1010
0000
0000
0000
1010
0000
1010
0000
0000
1000
0010
1000
0010
1000
0010
1000
0010
,
0000
0000
0000
1000
0001
1000
0001
1000
0001
1000
0001
1000
0001
1000
0001
1000
0001
1000
0001
1000
0001
1000
0010
1000
0010
1000
0010
1000
0010
1000
0010
1000
,
0010
1000
0010
1000
0100
0010
0001
0010
0001
0100
1000
0100
0010
0001
0010
0100
1000
0100
1000
0100
0010
0100
0010
0100
1000
0100
0010
0110
0000
0000
0000
0000
;
