#TITLE:Disconnected HaZaRD;
#SUBTITLE:;
#ARTIST:DM Ashura feat. Inspector K;
#TITLETRANSLIT:;
#SUBTITLETRANSLIT:;
#ARTISTTRANSLIT:;
#CREDIT:;
#BANNER:../fallback - bn.png;
#BACKGROUND:../fallback - bg.png;
#LYRICSPATH:;
#CDTITLE:;
#MUSIC:Disconnected HaZard.ogg;
#OFFSET:-1.869;
#SAMPLESTART:39.423;
#SAMPLELENGTH:12.000;
#SELECTABLE:YES;
#BPMS:0.000=210.000;
#STOPS:;
#BGCHANGES:;
// cache tags:
#FIRSTBEAT:0.000;
#LASTBEAT:403.500;
#SONGFILENAME:Songs/Beast Aoreo BEAST!/Disconnected Hazard - [Aoreo]/Disconnected HaZaRD.sm;
#HASMUSIC:1;
#HASBANNER:1;
#MUSICLENGTH:118.051;
// end cache tags

//---------------dance-single - Kommisar----------------
#NOTES:
     dance-single:
     Kommisar:
     Challenge:
     14:
     1.000,1.000,0.220,0.263,1.000,907.000,26.000,31.000,0.000,9.000:
1000
0001
1000
0001
1000
0001
1000
0001
1000
0100
0010
0001
1000
0100
0010
0001
,
1000
0010
0100
0001
0100
0000
0002
0000
,
1003
0000
0000
0000
1000
0000
0000
0000
1000
0000
0010
0000
0000
0000
0100
0001
,
1000
0000
0010
1000
0001
0010
0000
0100
,
0110
0000
0010
0001
1000
0010
0000
0100
,
0001
1000
0100
1000
0001
0000
2000
0000
,
3010
0000
0000
0000
0010
0000
0000
0000
0010
0000
0100
0000
0000
0000
0001
1000
,
0100
0000
1000
0010
0100
0001
0000
0010
,
0100
1000
0100
1000
0100
1000
0001
1000
0001
0000
1000
0000
0001
0000
0100
0000
,
0110
0000
0000
0000
0010
0000
0100
0000
0000
0000
0001
0000
0000
0000
0010
0100
,
1000
0000
0010
0100
0001
1000
0100
0000
,
1001
0000
0000
0000
0001
0000
0100
0001
1000
0000
0001
0000
0010
0000
0010
0000
,
0100
0000
0000
0000
0000
0000
0100
0000
0000
0000
0000
0000
1000
0000
0000
0000
0000
0000
0010
0000
0000
0000
0000
0000
0100
0000
0000
0001
0000
0000
0100
0000
0000
0000
0000
0000
0001
0000
0000
0000
0000
0000
1000
0000
0001
0000
1000
0000
,
0001
0000
0000
0000
1000
0000
0100
0000
0000
0000
0010
0000
0000
0000
0001
0100
,
0001
0000
0100
0100
0001
1000
0100
0000
,
1100
0000
0000
0000
1000
0000
0001
0100
0001
0000
0100
0000
0010
0000
1000
0100
,
0010
0000
0000
0000
0000
0000
0001
0000
0000
0000
0000
0000
0100
0000
0000
0000
0000
0000
0010
0000
0000
1000
0000
0000
0100
0000
0000
0000
0000
0000
1000
0000
0000
0000
0000
0000
0001
0000
0000
0000
0000
0000
0100
0000
0001
0000
0100
0000
,
0002
0000
0003
0000
0100
0000
0010
0000
0000
0000
1000
0000
0000
0000
0001
1000
,
0020
0030
0100
0001
0010
0010
0100
0000
,
1100
0000
1000
0100
0100
0010
0010
0001
,
0100
0000
0000
0001
0000
0000
0100
0000
0000
0001
0000
0000
1000
0000
0000
0000
0000
0000
0000
0000
0000
0000
0000
0000
2000
0000
0000
3100
0000
0000
0010
0000
0000
0000
0000
0000
0001
0000
0000
0000
0000
0000
1000
0000
0001
0000
1000
0000
,
0001
0000
0000
0000
1000
0000
0010
0000
0000
0000
0100
0000
0000
0000
0001
1000
,
0200
0300
1000
0010
0100
0001
0010
0000
,
0110
0000
0000
0000
0100
0000
1000
0010
0100
0000
0010
0000
0100
0000
0001
1000
,
0100
1000
0001
1000
0001
0010
0100
1000
0200
0000
1300
0000
0010
0000
0100
0000
,
0001
0100
0100
1000
0100
0100
0001
0100
,
0100
1000
0010
0010
0001
0010
0010
1000
,
0100
0100
0001
0100
0100
1000
0100
0100
,
0001
0010
0010
1000
0010
0010
0001
0010
,
0010
1000
0100
0100
0001
0100
0100
1000
,
0010
0010
0001
0010
0010
1000
0010
0010
,
0001
0000
0000
0100
0000
0000
0100
0000
0000
1000
0000
0000
0001
0000
0000
1000
0001
1000
0001
1000
0001
1000
0000
0000
,
0001
1000
0001
0010
0100
1000
0100
1000
0010
0100
0010
1000
0001
0100
0010
1000
,
0001
0000
0100
0000
0101
0000
0001
0010
,
0100
0000
1000
0000
0010
0000
0100
0000
0110
0000
0000
0000
0010
0000
1000
0100
,
1000
0000
0001
0000
0010
0000
0100
0000
1000
0010
0100
0001
1000
0000
0001
0000
,
0100
0000
0010
1000
0100
0001
0100
1000
,
1010
0000
0010
0000
0101
0000
0001
1000
,
0100
0000
0001
0000
0100
0000
1000
0000
0010
0000
0000
0000
0100
0000
0001
1000
,
0100
0000
1000
0100
1000
0000
0001
1000
0001
0000
0100
0001
0100
0000
0001
0000
,
0010
0000
0100
0100
1000
0010
0100
0001
,
1000
0001
1000
0001
1000
0001
0010
0100
1000
0100
1000
0010
1000
0010
1000
0010
,
0100
0001
0100
0001
0010
0100
1000
0001
1000
0001
1000
0001
1000
0001
0100
0001
,
0100
0001
1000
0010
0100
0001
0010
0100
0010
0001
1000
0001
1000
0001
1000
0001
,
0010
0100
1000
0001
0010
0100
1000
0001
0010
0100
1000
0001
0100
0001
0100
0001
,
1000
0100
1000
0100
1000
0010
0100
0001
0010
0100
1000
0010
0100
0001
0100
0001
,
1000
0001
1000
0001
1000
0100
1000
0100
0010
0100
0010
0100
0010
0001
0010
0001
,
0010
0001
0100
0001
0100
0001
0100
0010
1000
0100
1000
0010
0100
0010
1000
0001
,
0100
0010
1000
0001
0100
0010
1000
0001
0100
0010
1000
0010
1000
0010
1000
0010
,
1000
0100
0010
0100
1000
0010
0100
0001
0010
0100
1000
0010
0100
0001
1000
0100
,
1000
0010
0100
0001
0010
0100
1000
0100
1000
0010
1000
0001
0100
0010
0100
0001
,
0010
0100
1000
0100
1000
0010
0100
0001
1000
0001
0010
0100
1000
0001
1000
0001
,
0010
0100
1000
0001
0010
0100
1000
0001
0010
0100
1000
0010
0100
0010
0100
0001
,
1000
0001
1000
0001
1000
0100
0010
0100
1000
0010
0100
0001
0010
0100
0010
0001
,
1000
0100
1000
0010
1000
0010
0100
0010
0100
0001
0010
0001
0010
0001
0010
0100
,
0010
0100
0010
0100
1000
0100
1000
0100
1000
0001
1000
0001
0100
0010
1000
0001
,
0010
0100
1000
0001
0010
0100
1000
0001
0010
0100
1000
0010
0100
0000
0010
0000
,
1000
0000
0000
0000
0010
0000
0100
0000
0000
0000
0001
0000
0000
0000
1000
0001
,
1000
0010
1000
0000
0022
0000
2233
0000
,
3301
0000
0000
0000
1000
0000
0100
0000
0010
0000
0100
0000
0000
0000
1000
0001
,
1000
0010
0100
0000
1111
0000
0000
0000
,
0001
0100
0100
1000
0000
0010
0000
0100
,
0000
0001
1000
0000
0202
0000
2323
0000
,
3030
0000
0001
0000
0010
0100
1000
0100
0010
0000
0000
0000
0001
0000
0000
0000
,
0100
0001
0100
0001
1000
0000
0100
0000
2000
0001
3010
0100
1000
0010
0100
0001
,
1000
0000
0000
0000
0001
0000
0100
0000
0000
0000
0101
0000
0000
0000
0001
1000
,
0100
1000
0010
0000
2200
0000
3322
0000
,
1033
0000
0000
0000
0001
0000
0010
0000
0100
0000
1000
0000
0000
0000
0001
1000
,
0100
1000
0010
0000
1111
0000
0000
0000
,
1000
0100
0100
0001
0000
0100
0000
0010
,
0000
1000
0001
0000
2020
0000
3232
0000
,
1303
0001
1000
0001
0010
0100
1000
0100
1000
0001
0100
0001
0010
0001
0010
0100
,
0010
0100
1000
0100
1000
0001
1000
0001
1000
0000
0000
0000
0001
0000
1000
0000
,
0000
0000
0000
0000
,
0001
0000
0100
0000
0100
0000
1000
0000
0010
0100
0010
0100
0001
0010
0100
1000
,
0100
0000
0000
0000
1000
0000
0001
0000
0000
0000
0001
0000
0000
0000
0010
0100
,
1000
0000
0001
1000
0010
0100
0001
0000
,
1001
0000
0000
0000
1000
0000
0100
0010
0001
0000
1000
0000
0100
0000
0100
0000
,
0010
0000
0000
0000
0000
0000
0010
0000
0000
0000
0000
0000
0001
0000
0000
0000
0000
0000
0100
0000
0000
0000
0000
0000
0010
0000
0000
1000
0000
0000
0010
0000
0000
0000
0000
0000
1000
0000
0000
0000
0000
0000
0001
0000
1000
0000
0001
0000
,
1000
0000
0000
0000
0001
0000
0010
0000
0000
0000
0100
0000
0000
0000
1000
0010
,
1000
0000
0010
0010
1000
0001
0010
0000
,
0011
0000
0000
0000
0001
0000
1000
0010
1000
0000
0010
0000
0100
0000
0001
0010
,
0100
0000
0000
0000
0000
0000
1000
0000
0000
0000
0000
0000
0010
0000
0000
0000
0000
0000
0100
0000
0000
0001
0000
0000
0010
0000
0000
0000
0000
0000
0001
0000
0000
0000
0000
0000
1000
0000
0000
0000
0000
0000
0010
0000
1000
0000
0010
0000
,
2000
0000
3000
0000
0010
0000
0100
0000
0000
0000
0001
0000
0000
0000
1000
0001
,
0200
0300
0010
1000
0100
0100
0010
0000
,
0011
0000
0001
0010
0010
0100
0100
1000
,
0010
0000
0000
1000
0000
0000
0010
0000
0000
1000
0000
0000
0001
0000
0000
0000
0000
0000
0000
0000
0000
0000
0000
0000
0002
0000
0000
0013
0000
0000
0100
0000
0000
0000
0000
0000
1000
0000
0000
0000
0000
0000
0001
0000
1000
0000
0001
0000
,
1000
0000
0000
0000
0001
0000
0100
0000
0000
0000
0010
0000
0000
0000
1000
0001
,
0020
0030
0001
0100
0010
1000
0100
0000
,
0110
0000
0000
0000
0010
0000
0001
0100
0010
0000
0100
0000
0010
0000
1000
0001
,
0010
0001
1000
0001
1000
0100
0010
0001
0020
0000
0031
0000
0100
0000
0010
0000
,
1000
0010
0010
0001
0010
0010
1000
0010
,
0010
0001
0100
0100
1000
0100
0100
0001
,
0010
0010
1000
0010
0010
0001
0010
0010
,
1000
0100
0100
0001
0100
0100
1000
0100
,
0100
0001
0010
0010
1000
0010
0010
0001
,
0100
0100
1000
0100
0100
0001
0100
0100
,
1000
0000
0001
0100
0001
0000
0100
0010
0100
0000
0010
1000
0010
0000
1000
0100
,
1000
0000
0001
0100
0010
1000
0001
0010
,
0220
0000
0000
0000
,
0000
0000
0000
0000
0000
0000
0000
0330
;
