#TITLE:BRIGHTNESS DARKNESS;
#SUBTITLE:[IVKAS STYLE];
#ARTIST:SPARKER;
#TITLETRANSLIT:;
#SUBTITLETRANSLIT:;
#ARTISTTRANSLIT:;
#CREDIT:;
#BANNER:BRIGHTNESS DARKNESS-BN.png;
#BACKGROUND:BRIGHTNESS DARKNESS-BG.png;
#LYRICSPATH:;
#CDTITLE:!cattitle.png;
#MUSIC:BRIGHTNESS DARKNESS.mp3;
#OFFSET:-0.396;
#SAMPLESTART:15.396;
#SAMPLELENGTH:17.000;
#SELECTABLE:YES;
#BPMS:0.000=150.000;
#STOPS:;
#BGCHANGES:;
// cache tags:
#FIRSTBEAT:6.000;
#LASTBEAT:270.000;
#SONGFILENAME:Songs/Fabulously Fresh Flock of Fantastic Files F5/(Cat) Brightness Darkness/BRIGHTNESS DARKNESS.sm;
#HASMUSIC:1;
#HASBANNER:1;
#MUSICLENGTH:114.419;
// end cache tags

//---------------dance-single - Cat*----------------
#NOTES:
     dance-single:
     Cat*:
     Hard:
     10:
     0.799,0.973,1.000,0.035,0.341,470.000,166.000,4.000,0.000,0.000:
0000
0000
0000
0000
,
0000
0000
0000
0000
0101
0000
1000
0001
,
1000
0100
0001
0010
0101
0000
1000
0001
,
0100
0001
1000
0010
1100
0000
1000
0001
,
1000
0001
0100
0010
1010
0000
1000
0100
,
1000
0001
0100
0010
0101
0000
1000
0001
,
0100
0001
1000
0010
1001
0000
1000
0001
,
1000
0001
0100
0010
0101
0000
1000
0001
,
0010
0000
1000
0001
0010
0000
0100
1000
,
0001
0000
1000
0001
1001
0010
1000
0100
,
0011
0001
1000
0010
0101
1000
0001
0100
,
0011
1000
0001
0100
0011
1000
0001
0100
,
0011
0100
0001
1000
0101
0010
0001
1000
,
0101
1000
0001
0100
1001
0010
0001
0100
,
0010
1000
0100
1000
0001
0100
0010
1000
,
0100
1000
0010
0100
1001
0000
0011
0000
,
0101
1001
1010
1100
,
0110
2002
0000
0000
,
0000
0000
0000
0000
,
0000
0000
3003
0000
1001
0010
0100
0010
,
0101
0010
0101
0010
0001
0100
0010
1000
,
1010
0100
1010
0100
1000
0001
0101
1000
,
0101
1000
0101
1000
0001
0100
0010
0100
,
1001
0000
0101
0000
1010
0000
1100
0000
0001
1000
0100
0000
0110
0000
0000
0000
,
0100
0001
1000
0000
0110
0000
0000
0000
1000
0001
0100
0000
0110
0000
0000
0000
,
0100
0001
1000
0000
0110
0000
0000
0000
1000
0000
1010
0000
1100
0000
0101
0000
,
0011
0101
1001
1010
1100
1010
1001
0101
,
0011
0101
0110
1010
1100
0010
0100
0010
,
0101
1000
0101
1000
0001
1000
0010
0100
,
1010
0100
1010
0100
0001
1000
1010
0001
,
1010
0001
1010
0001
1000
0010
0100
0010
,
1001
0000
1010
0000
0101
0000
0011
0000
1000
0001
0010
0000
0110
0000
0000
0000
,
0010
1000
0001
0000
0110
0000
0000
0000
0001
1000
0010
0000
0110
0000
0000
0000
,
0010
1000
0001
0000
0110
0000
0000
0000
0001
0000
0101
0000
0011
0000
1010
0000
,
1100
1010
1001
0101
0011
0101
1001
1010
,
1100
0000
1010
0000
0110
0000
0101
0000
0011
0000
0000
0000
0110
0000
0000
0001
,
0010
0000
0000
0000
0110
0000
0000
0100
0010
0000
0000
0000
0110
0000
0000
1000
,
0010
0100
0000
0000
0110
0000
0000
0001
0010
0000
0000
0000
0110
0000
0000
0100
,
0010
0100
0000
0000
0110
0000
0000
1000
0010
0000
0000
0000
0110
0000
0000
0100
,
0010
0100
0000
0000
0110
0000
0000
0001
0010
0000
0000
0000
0110
0000
0000
0100
,
0010
0100
0000
0000
0110
0000
0000
1000
0010
0000
0000
0000
0110
0000
0000
0100
,
0010
0100
0000
0000
0110
0000
0000
0000
1001
0000
0010
0000
0100
0000
0010
0000
,
0101
0010
0101
0010
0001
0100
0010
1000
,
1010
0100
1010
0100
1000
0001
0101
1000
,
0101
1000
0101
1000
0001
0100
0010
0100
,
1001
0000
0101
0000
1010
0000
1100
0000
0001
1000
0100
0000
0110
0000
0000
0000
,
0100
0001
1000
0000
0110
0000
0000
0000
1000
0001
0100
0000
0110
0000
0000
0000
,
0100
0001
1000
0000
0110
0000
0000
0000
1000
0000
1010
0000
1100
0000
0101
0000
,
0011
0101
1001
1010
1100
1010
1001
0101
,
0011
0000
0101
0000
0110
0000
1010
0000
1100
0000
0000
0000
0110
0000
0000
1000
,
0100
0000
0000
0000
0110
0000
0000
0010
0100
0000
0000
0000
0110
0000
0000
0001
,
0100
0010
0000
0000
0110
0000
0000
1000
0100
0000
0000
0000
0110
0000
0000
0010
,
0100
0010
0000
0000
0110
0000
0000
0001
0100
0000
0000
0000
0110
0000
0000
0010
,
0100
0010
0000
0000
0110
0000
0000
1000
0100
0000
0000
0000
0110
0000
0000
0010
,
0100
0010
0000
0000
0110
0000
0000
0001
0100
0000
0000
0000
1000
0000
0000
0100
,
0010
0001
0000
0000
1000
0000
0000
0000
0011
0000
0101
0000
1010
0000
1100
0000
,
0101
1010
0011
0101
1010
1100
1010
1100
,
0011
0000
0101
0000
1010
0000
1100
0000
0001
0100
1000
0001
0010
0100
1000
0001
,
0010
0100
1000
0001
0100
1000
0001
0100
1000
0100
0001
0010
1000
0100
0001
0010
,
0100
1000
0100
0010
0001
1000
0100
0010
1001
0000
0000
0000
0000
0000
0000
0000
,
1001
0000
0000
0000
0000
0000
0000
0000
1010
0000
0000
0000
0000
0000
0000
0101
0000
0000
0000
0000
0000
0000
0000
0000
0110
0000
0000
0000
0000
0000
0000
0000
0000
0000
0000
0000
0000
0000
0000
0000
0000
0000
0000
0000
0000
0000
0000
0000
,
0000
0000
0000
0000
0001
1000
0001
1000
1001
0100
1000
0001
0010
0100
1000
0001
,
0010
0100
1000
0001
0010
0100
1000
0001
0010
0100
1000
0001
0010
0100
1000
0001
,
0010
0100
1000
0001
1010
0000
0101
0000
2002
0000
0000
0000
0000
0000
0000
0000
,
0000
0000
0000
0000
,
0000
0000
0000
0000
,
0000
0000
0000
0000
,
0000
0000
3003
0000
;
