#TITLE:KICK THE CAN;
#SUBTITLE:;
#ARTIST:BUS★STOP;
#TITLETRANSLIT:;
#SUBTITLETRANSLIT:;
#ARTISTTRANSLIT:BUS STOP;
#CREDIT:;
#BANNER:KICK THE CAN.png;
#BACKGROUND:KICK THE CAN-bg.png;
#LYRICSPATH:;
#CDTITLE:./CDTITLES/ZIP MANIA 3.PNG;
#MUSIC:KICK THE CAN.mp3;
#OFFSET:-0.040;
#SAMPLESTART:63.320;
#SAMPLELENGTH:12.000;
#SELECTABLE:YES;
#DISPLAYBPM:144.000;
#BPMS:0.000=144.000;
#STOPS:;
#BGCHANGES:;
// cache tags:
#FIRSTBEAT:0.000;
#LASTBEAT:220.500;
#SONGFILENAME:Songs/toune/KICK THE CAN (PONYGONPWNS EDIT)/KICK THE CAN.sm;
#HASMUSIC:1;
#HASBANNER:1;
#MUSICLENGTH:92.878;
// end cache tags

//---------------dance-single - ----------------
#NOTES:
     dance-single:
     :
     Beginner:
     3:
     0.428,0.531,1.000,0.528,0.000,134.000,94.000,49.000,0.000,5.000:
0000
0000
0000
0000
,
0000
0000
0000
0000
,
0000
0000
0000
0000
,
0000
0000
0000
0000
,
0002
0003
0010
0100
,
1000
1000
1010
0000
,
0001
0001
0101
0000
,
2000
3010
0002
0103
,
2000
3100
0020
0000
,
0031
0001
0201
0000
,
1300
1000
1010
0000
,
0002
0000
1003
0000
,
0200
0000
0310
0000
,
0100
0100
0101
0000
,
0010
0010
0110
0000
,
1010
0000
0101
0000
,
0220
0000
0331
0000
,
1010
0110
0022
0033
,
0110
1100
0202
0303
,
1001
1001
2002
0000
,
3003
1000
0000
1001
,
0000
1000
0000
1001
,
0000
0010
0000
0110
,
0100
1100
0100
0000
,
0000
0101
0000
1010
,
0000
0101
0000
1010
,
0000
0011
0000
1100
,
0110
0101
0202
0303
,
0220
0330
2002
3003
,
1100
0110
0101
0110
,
2200
3300
2002
3003
,
1100
0100
0110
0100
,
0202
0303
2020
3030
,
1100
0110
0101
0110
,
1100
0000
2020
0000
,
3031
0000
0101
0000
,
0110
0000
1100
0000
,
0100
0100
0200
0000
,
1310
0000
1010
0000
,
1001
0101
0011
0000
,
1100
1001
1010
0000
,
0101
0000
1010
0000
,
1001
0000
0110
0000
,
1100
1001
2020
3030
,
0101
1001
0022
0033
,
2020
0000
3031
0000
,
0101
0000
0010
0000
,
1100
0110
0202
0303
,
1010
0110
0022
0033
,
0101
0000
0110
0000
,
1010
0000
1100
0000
,
1010
0110
2020
3030
,
1100
0101
0110
0000
,
1001
1001
2002
3003
,
2002
3003
1001
1101
;

//---------------dance-single - ----------------
#NOTES:
     dance-single:
     :
     Easy:
     6:
     0.401,1.000,0.926,0.495,0.000,115.000,86.000,46.000,0.000,23.000:
0000
0000
0000
0000
,
0000
0000
0000
0000
,
0000
0000
0000
0000
,
0000
0000
0000
0000
,
2002
3003
0110
0101
,
1000
1010
0000
0000
,
0001
0101
0000
0000
,
2002
3003
0202
0303
,
2020
3030
0110
0101
,
0001
1001
0000
0000
,
1000
1010
0000
0000
,
2002
3003
2020
3030
,
0202
0303
2020
3031
,
0101
0100
0000
0000
,
0110
0010
0000
0000
,
2020
0000
3230
0000
,
0320
0000
0032
0103
,
1010
0011
0000
0000
,
0101
1100
0000
0000
,
0101
1010
0101
0000
,
1101
0000
0000
0000
,
1011
0000
0000
0000
,
1010
0000
0100
0000
,
0110
0010
0110
0100
,
1001
0000
0000
0000
,
1011
0000
0000
0000
,
1010
0000
0100
0000
,
0011
0100
1010
0000
,
1000
0000
0101
0000
,
0101
0000
0010
0000
,
1010
0000
0101
0000
,
0101
0000
1010
0000
,
1100
0000
0011
0000
,
0101
0000
1010
0000
,
1001
0000
1000
0000
,
0001
0000
0001
0000
,
2200
3322
2233
3322
,
2233
3322
2233
3322
,
1133
0000
0001
1000
,
0100
0100
0000
0000
,
1010
0011
0000
0000
,
1101
0000
1011
0000
,
1010
0000
0110
0001
,
1010
0010
0000
0000
,
0110
0100
0000
0000
,
1101
0000
1011
0000
,
1010
0000
0101
1010
,
1001
0101
0000
0000
,
1010
1100
0000
0000
,
1101
0000
1011
0000
,
1100
0000
0110
0011
,
1100
0110
0000
0000
,
1010
0010
0000
0000
,
2202
3303
2022
3033
,
2202
3303
1001
1111
;

//---------------dance-single - ----------------
#NOTES:
     dance-single:
     :
     Medium:
     8:
     0.680,0.712,1.000,0.065,0.000,246.000,166.000,6.000,0.000,20.000:
0000
0000
0000
0000
,
0000
0000
0000
0000
,
0000
0000
0000
0000
,
0000
0000
0000
0000
,
2002
0000
3003
0000
0010
0110
1010
0000
,
1001
0000
1011
0000
0010
1100
0010
0000
,
1101
0000
0101
0000
0010
1010
0100
0000
,
0010
1001
0010
0000
0100
1010
0100
0000
,
1101
0000
0000
0000
0010
1010
0100
0000
,
0011
0000
0101
0000
0010
1100
0100
0000
,
1001
0000
1011
0000
0100
1010
0001
0000
,
0100
0011
1000
1100
0010
0000
0000
0000
,
1001
0000
0000
0000
0010
1100
0001
0000
,
1100
0000
0101
0000
1000
0110
0010
0000
,
1011
0000
0110
0000
1001
1010
1100
0000
,
1100
1100
1100
0000
0011
0110
0001
0000
,
1001
0000
0000
0000
0010
1100
0010
0000
,
1001
0000
0110
0000
1000
0110
0010
0000
,
0101
0000
1100
0000
1010
0101
0100
0000
,
0010
1100
0110
0011
1001
0000
0000
0000
,
0001
0000
0100
0000
0011
0011
0011
0000
,
1000
0000
0100
0000
1010
0101
1010
0000
,
1010
0101
1010
0000
0101
0110
0101
0000
,
1000
0100
0001
1010
,
0100
0000
0110
0000
1100
0110
1100
0000
,
0100
0000
0010
0000
0011
0110
0011
0000
,
1100
1100
0110
0000
1001
0110
0110
0000
,
1001
0110
1101
0000
,
0110
0101
0010
0010
,
1001
1010
0101
0000
1100
0101
1100
0000
,
0010
0110
0100
0110
,
0011
1010
0011
0000
1100
0101
1010
0000
,
0100
0100
0010
0010
,
1001
0110
1010
0000
1100
0110
1111
0000
,
1101
0000
1011
0000
,
1101
0000
1011
0000
,
1001
1100
1001
0101
,
1100
0110
1100
0000
0011
0110
0011
0000
,
1101
0000
0000
0000
1010
0110
1010
0000
,
1001
0000
1011
0000
1010
1100
1010
0000
,
1110
0000
1111
0000
0010
1100
0100
0000
,
0010
0101
0010
0000
0100
1010
0100
0000
,
0101
0000
0000
0000
0010
1100
0100
0000
,
0011
0000
0101
0000
0010
1010
0100
0000
,
1001
0000
0011
0000
0100
1010
0001
0000
,
0100
0010
1000
0100
0010
0000
0000
0000
,
1111
0000
0000
0000
1100
0110
0111
0000
,
1001
0000
1100
0000
0010
1001
1101
0000
,
0011
0000
1100
0000
0001
1100
0010
0000
,
1000
1100
1000
0000
0001
1100
0101
0000
,
0110
0000
0000
0000
1100
0011
0100
0000
,
1100
0000
0101
0000
0010
1100
0110
0000
,
0011
0000
0101
0000
0010
1100
0100
0000
,
0110
0001
1100
0000
1110
1000
0100
0000
,
1010
0001
1000
1100
0010
0000
2222
0000
,
0000
3333
0000
0000
0000
0000
0000
0000
;

//---------------dance-single - ----------------
#NOTES:
     dance-single:
     :
     Hard:
     10:
     1.000,1.000,1.000,0.065,0.000,320.000,320.000,6.000,48.000,31.000:
MM11
11MM
1MM1
M11M
,
1M1M
M1M1
MMMM
MMMM
,
MMMM
MMMM
MMMM
MMMM
,
MMMM
MMMM
MMMM
1111
,
2002
0000
3003
0000
0110
0110
1001
1001
,
0110
0000
0110
0000
0110
1100
0110
0011
,
1001
0000
0101
0000
1010
0110
0110
0011
,
1100
0110
0011
0101
0110
0110
1100
0110
,
1010
0000
0000
0000
0101
1100
1100
0110
,
0011
0000
0101
0000
0110
1100
0110
0011
,
1001
0000
1100
0000
0110
0110
1001
1100
,
0110
0110
0011
0110
1010
0000
1101
0000
,
1110
0000
0000
0000
1001
0101
0110
1010
,
1100
0000
0110
0000
0011
0101
0110
1010
,
1100
0000
0101
0000
0011
0110
1100
0011
,
1100
0011
1100
0011
0110
0110
1100
0011
,
1100
0000
0000
0000
0110
1010
1100
0110
,
0011
0000
1100
0000
0110
1100
0110
0011
,
1001
0000
1010
0000
0110
0110
0111
1010
,
1100
1110
0011
1100
0110
0000
1111
0000
,
1010
0110
1001
1100
0110
1010
0101
1010
,
0110
1100
0101
0110
1100
1010
0101
0000
,
1100
0110
1010
0000
1100
0110
0011
0000
,
1100
0011
1100
0011
1001
1001
1001
1001
,
0110
0110
1100
0110
0011
0011
1100
0110
,
0110
1001
1100
0110
0110
0011
1100
0000
,
0110
1010
1100
0000
0110
1001
0110
0000
,
1010
1100
0110
1010
0101
0000
0000
0000
,
1100
0110
0011
1001
,
1100
0110
0011
0101
0110
1010
1100
0000
,
0101
0110
0011
1011
,
0101
1100
0110
1100
1100
0011
0011
0000
,
1100
0110
0011
0101
,
1100
0110
0110
0011
1100
0110
1100
0101
,
0110
0000
0000
0101
0110
0000
0000
0101
,
0110
0000
0000
0101
0111
0000
0000
0011
,
1110
0101
1110
0101
1110
0101
1110
0101
,
1110
0110
1010
1100
0110
0011
1100
0011
,
0110
0000
0000
0000
0101
1010
1100
0110
,
0011
0000
0101
0000
1010
0110
0110
0101
,
1010
0000
1100
0000
0110
0011
0101
0110
,
1110
0111
1110
0111
1110
0111
1100
0110
,
1010
0000
0000
0000
0101
1100
0110
0011
,
1001
0000
1100
0000
0110
0110
0101
1010
,
0110
0000
1100
0000
0101
0101
0110
1100
,
0110
0110
0101
1100
0110
0000
1101
0000
,
1111
0000
0000
0000
0101
1100
0011
1100
,
0110
0000
1010
0000
0011
1100
0110
1010
,
0011
0000
0110
0000
1010
1010
1100
0011
,
0101
0110
0110
1001
0110
0011
1001
1100
,
0110
0000
0000
0000
1010
0101
0110
1001
,
1010
0000
0110
0000
0110
0101
0011
1100
,
1010
0000
0101
0000
0110
1010
1100
0110
,
0110
0011
1100
0110
1110
0111
1110
0111
,
1110
0111
1101
1110
0111
0000
2222
0000
,
0000
3333
0000
0000
0000
0000
0000
0000
;
